#TITLE:Reflection;
#SUBTITLE:;
#ARTIST:Lea Salonga;
#TITLETRANSLIT:;
#SUBTITLETRANSLIT:;
#ARTISTTRANSLIT:;
#CREDIT:;
#BANNER:;
#BACKGROUND:;
#LYRICSPATH:;
#CDTITLE:;
#MUSIC:Reflection.ogg;
#OFFSET:-3.701;
#SAMPLESTART:77.643;
#SAMPLELENGTH:12.000;
#SELECTABLE:YES;
#BPMS:0.000=67.977,1.000=72.828,2.000=66.176,3.000=74.013,4.000=70.314,5.000=69.444,6.000=70.314,7.000=71.202,9.000=68.599,10.000=60.485,11.000=69.444,12.000=65.407,13.000=72.115,15.000=71.202,16.000=62.500,17.000=63.923,18.000=68.599,19.000=66.964,20.000=79.225,21.000=76.013,22.000=74.013,24.000=76.013,25.000=79.225,29.000=81.524,30.000=73.661,31.000=62.945,32.000=87.519,33.000=89.288,34.000=93.750,34.500=48.876,35.000=86.658,35.500=90.726,36.000=92.213,37.000=87.893,38.000=86.538,39.000=108.173,40.000=93.750,41.000=85.227,42.000=93.750,44.000=86.538,46.000=76.013,47.000=25.112,48.000=92.599,49.000=92.596,50.000=92.593,52.000=93.750,54.000=92.975,56.000=89.109,57.000=87.893,58.000=98.684,59.000=90.000,60.000=89.286,61.000=94.538,62.000=87.209,63.000=92.975,64.000=99.561,65.000=83.955,66.000=103.211,67.000=74.503,68.000=163.043,69.000=96.983,70.000=87.893,71.000=77.586,72.000=92.213,73.000=85.878,74.000=93.750,75.000=88.235,76.000=129.328,76.333=84.262,76.667=89.286,77.000=85.227,78.000=92.975,80.000=100.446,81.000=88.583,82.000=91.463,83.000=86.538,84.000=92.213,85.000=95.339,86.000=92.213,88.000=87.209,89.000=101.351,90.000=92.599,91.000=84.272,92.000=94.538,93.000=103.211,94.000=84.272,95.000=94.937,96.000=87.893,97.000=90.726,98.000=85.878,99.000=73.052,100.000=86.207,102.000=90.726,103.000=95.339,104.000=93.750,105.000=87.209,106.000=93.750,107.000=97.826,108.000=91.463,109.000=106.132,110.000=86.207,112.000=85.227,113.000=96.154,114.000=97.826,115.000=85.551,116.000=96.566,117.000=90.726,118.000=91.463,120.000=93.750,121.000=92.213,122.000=90.000,123.000=91.463,124.000=83.955,125.000=108.173,126.000=89.286,127.000=91.463,128.000=96.154,129.000=85.227,130.000=95.541,131.000=77.453,132.000=92.593,133.000=92.596,134.000=102.273,135.000=88.583,136.000=86.538,137.000=95.339,139.000=87.891,140.000=82.117,141.000=102.273,142.000=98.684,143.000=85.878,144.000=94.538,145.000=96.154,146.000=109.223,147.000=77.990,148.000=90.180,149.000=92.213,150.000=101.351,151.000=100.446,152.000=80.357,153.000=87.891,154.000=84.587,155.000=77.407,155.167=81.370,155.333=95.942,155.500=200.209,155.833=79.920,156.000=87.891,157.000=98.684,158.000=89.286,159.000=86.538,160.000=84.587,161.000=74.013,162.000=28.988,163.000=47.252,163.000=67.365,164.000=92.497,165.000=86.852,166.000=72.000,167.000=104.167,168.000=85.878,169.000=79.225,170.000=87.312,171.000=77.003,172.000=75.379,173.000=87.413,174.000=70.957,175.000=70.029,176.000=83.117,177.000=66.964,178.000=85.227,179.000=82.721,180.000=83.026,180.500=83.333,181.000=90.909,182.000=84.906,183.000=69.231,184.000=69.232,185.000=69.231,186.000=69.232,187.000=69.231,192.000=69.232,193.000=69.231;
#STOPS:163.000=1.270
;
#BGCHANGES:;

//---------------dance-single - ----------------
#NOTES:
     dance-single:
     :
     Medium:
     8:
     0.270,0.259,0.116,0.456,0.024: // measure 1
1000
0100
1000
0100
0020
0000
0000
0000
,  // measure 2
0031
0100
0001
0100
0020
0000
0000
0000
,  // measure 3
1030
0100
0010
0001
1000
0001
1000
0001
,  // measure 4
0020
0000
0230
2300
,  // measure 5
3002
2003
0000
3000
,  // measure 6
0000
0002
0023
0032
,  // measure 7
2003
3000
2000
0000
0000
0000
0000
0000
,  // measure 8
0000
3200
0000
0000
,  // measure 9
0300
0010
0002
0000
1000
2000
3003
1000
,  // measure 10
0020
0030
0020
0000
0032
0000
0000
0013
,  // measure 11
2000
0000
0000
3100
0002
0000
0000
0003
,  // measure 12
0002
0000
0000
0000
0000
0000
0103
0000
2000
0000
0000
0000
0002
0000
0000
3003
,  // measure 13
0001
0100
0001
1000
1000
0000
0000
0000
,  // measure 14
1000
0100
2000
0000
3020
0000
0030
0010
,  // measure 15
0100
0001
0100
0000
0100
0000
0100
0000
,  // measure 16
0010
1000
0001
1000
0020
0000
0130
0000
,  // measure 17
0001
0010
0002
0000
0100
0000
1003
1000
,  // measure 18
0010
0000
0100
0000
0002
0000
0000
1000
,  // measure 19
2003
0000
0100
0001
,  // measure 20
3000
0000
0010
0000
1000
0000
0200
0000
0000
0000
0000
0000
0000
0000
0000
0300
0000
0000
0000
0000
0000
0100
0000
0000
,  // measure 21
0010
0000
0000
0000
0001
0000
0000
0000
1000
0000
0000
0010
0000
0000
0100
0000
,  // measure 22
1000
0000
0000
0100
0000
0000
0001
0000
1000
0000
0000
0000
0010
0000
0000
0000
,  // measure 23
1000
0010
1000
0010
0100
0000
0001
0000
,  // measure 24
2000
0000
0010
0010
0010
0000
0001
0000
,  // measure 25
0001
0000
0001
0100
0001
0001
0002
0003
,  // measure 26
3002
0000
0023
2030
,  // measure 27
3200
0000
0302
0000
1003
0010
1000
0010
,  // measure 28
0200
0302
2003
3000
,  // measure 29
0200
2300
3002
0003
,  // measure 30
0101
0101
1001
1001
,  // measure 31
1010
1100
0011
0101
,  // measure 32
2002
0000
3000
0010
,  // measure 33
0023
0000
0000
0000
0031
0100
1000
0100
,  // measure 34
0020
0000
0000
0000
0032
0000
0003
0100
,  // measure 35
2000
0000
3020
0000
0000
2030
0000
0000
,  // measure 36
3000
0002
0000
0023
0000
0000
0230
0000
0000
0300
0000
0000
,  // measure 37
1000
0010
0100
0000
0101
0000
0000
0000
,  // measure 38
0101
0101
1001
1010
,  // measure 39
1001
0011
2002
3000
,  // measure 40
2003
0000
3020
0000
2030
0000
0000
0001
,  // measure 41
3001
0000
0001
0100
0000
0100
0020
0000
0000
0030
0000
0000
,  // measure 42
1000
0100
0010
0001
,  // measure 43
1000
0000
1000
0000
0020
0000
0000
0030
,  // measure 44
0200
0302
2003
0100
,  // measure 45
3000
0001
0002
0000
0100
0100
1003
1000
,  // measure 46
2000
0000
0010
0000
0010
0010
0001
0001
,  // measure 47
0002
0000
0000
0000
,  // measure 48
0000
0000
3003
0000
;

//---------------dance-single - ----------------
#NOTES:
     dance-single:
     :
     Hard:
     12:
     0.353,0.405,0.000,0.164,0.235: // measure 1
1000
0100
0010
0001
1000
0000
0000
0000
,  // measure 2
0001
0100
0010
1000
0001
0000
0000
0000
,  // measure 3
0001
0100
0001
0100
0010
1000
0010
1000
0001
0000
1000
0000
0001
0000
0010
0000
,  // measure 4
0002
0000
2003
3200
,  // measure 5
0302
0203
0000
0300
,  // measure 6
0000
2000
3020
2030
,  // measure 7
3100
0200
0000
0000
,  // measure 8
0000
0020
0000
0330
,  // measure 9
0000
0000
0100
0010
0100
0000
1000
0000
0010
0000
1000
0000
0000
0000
0010
0100
,  // measure 10
0010
0000
1000
0000
0100
0000
1000
0000
0002
0000
0000
0000
0003
0000
1000
0001
,  // measure 11
1000
0010
0100
0001
2000
0000
0000
3000
,  // measure 12
0001
0100
0010
0100
2000
0000
3200
0000
,  // measure 13
0301
0000
0100
0000
0001
0000
0010
0000
0100
0000
0000
0000
0000
0000
1000
0100
,  // measure 14
1000
0000
0010
0000
0100
0000
0001
0000
2000
0000
0000
0000
0000
0000
3100
1000
,  // measure 15
0001
0000
0010
0000
0001
0010
0100
0010
0001
0010
0100
1000
0100
0010
0100
1000
,  // measure 16
0100
0010
0001
0100
2000
0000
3100
0000
,  // measure 17
0001
0000
0010
0000
0100
0000
1000
0100
0010
0000
0001
0000
1000
0000
0001
0100
,  // measure 18
0010
0000
1000
0000
0200
0000
0000
0310
,  // measure 19
0001
0100
1000
0100
0001
0010
0001
0100
,  // measure 20
0000
0000
0000
0000
0010
0000
0000
0000
1000
0000
0000
0000
0001
0000
0000
0000
0000
0000
0000
0000
0000
0000
0000
0000
0001
0000
0000
0000
0000
0000
0010
0000
0000
0000
0000
0000
0001
0000
0000
0000
0000
0000
1000
0000
0000
0010
0000
0000
,  // measure 21
1000
0000
0100
0000
0010
0000
0000
0000
0010
0000
0000
0001
0000
0000
1000
0000
,  // measure 22
0010
0000
0000
0100
0000
0000
1000
0100
1000
0000
0100
0000
0010
0000
0100
0000
,  // measure 23
0001
0010
1000
0010
0001
0000
0100
0000
,  // measure 24
1000
0000
0000
0000
0100
0001
0100
1000
0100
0001
0010
0001
0100
0001
0010
0100
,  // measure 25
1000
0000
1000
0100
1000
0001
0002
0000
,  // measure 26
1003
0010
0100
0001
0010
0001
0100
0010
,  // measure 27
1000
0100
0001
0100
1000
0010
0100
0001
,  // measure 28
0010
0100
1000
0001
1000
0100
1000
0010
,  // measure 29
0100
0000
1000
0000
0100
0000
0010
1000
0001
0000
0010
0000
0100
0000
0100
0000
,  // measure 30
1000
0000
0000
1000
0100
0000
0000
0100
0010
0000
0000
0010
0001
0000
0000
0001
,  // measure 31
0100
0000
0000
0100
1000
0000
0000
1000
0100
0000
0000
0100
0010
0000
0000
0000
,  // measure 32
1000
0100
0010
1000
0010
0001
1000
0100
,  // measure 33
1000
0000
0010
0000
0100
0000
1000
0100
0010
1000
0100
0010
0001
0100
1000
0100
,  // measure 34
0001
0010
0100
1000
0010
1000
0100
0010
,  // measure 35
0001
0100
0001
0010
0100
1000
0010
0100
,  // measure 36
1000
0100
0001
0100
1000
0100
0010
1000
,  // measure 37
0100
0000
0001
0000
0100
0000
1000
0001
0010
0000
0001
0000
0100
0000
0010
0000
,  // measure 38
1000
0000
0000
1000
0100
0000
0000
0100
0010
0000
0000
0010
0001
0000
0000
0001
,  // measure 39
1000
0000
0000
0000
0000
0000
0000
0000
0000
1000
0000
0000
0010
0000
0000
0000
0000
0000
0000
0000
0000
0010
0000
0000
1000
0000
0000
0000
0000
0000
0000
0000
0000
0000
1000
0000
0100
0000
1000
0000
0100
0000
1000
0000
0100
0000
1000
0000
,  // measure 40
0100
0000
0000
0100
0010
0000
0000
0010
0001
0000
0000
0000
0000
0000
0001
0000
,  // measure 41
0100
0001
0100
0010
0100
0010
2000
0000
0000
3000
0000
0000
,  // measure 42
1000
0100
0001
0000
0001
0100
1000
0000
,  // measure 43
0010
0100
0001
0100
2000
0000
3100
0001
,  // measure 44
0010
0001
1000
0001
0010
0100
1000
0000
,  // measure 45
0000
0000
0010
0100
0020
0000
0000
0000
1030
0001
1000
0010
0100
0001
1000
0010
,  // measure 46
2000
0000
3000
0000
2000
0000
0000
0000
3010
1000
0001
0100
0001
0010
0100
1000
,  // measure 47
0002
0000
0000
0000
,  // measure 48
0000
0000
0003
0000
;

//---------------dance-single - ----------------
#NOTES:
     dance-single:
     :
     Easy:
     5:
     0.168,0.210,0.007,0.232,0.010: // measure 1
1000
0100
0010
0000
,  // measure 2
0001
0100
1000
0000
,  // measure 3
0100
0001
1000
1000
,  // measure 4
0020
0000
0130
0001
,  // measure 5
1000
0002
0000
0000
,  // measure 6
0000
0013
0010
0100
,  // measure 7
1000
2000
0000
0000
,  // measure 8
0000
3002
0000
0000
,  // measure 9
0103
0001
0000
0000
,  // measure 10
1000
1000
0020
0000
,  // measure 11
1030
0001
2000
0000
,  // measure 12
3001
0001
0020
0230
,  // measure 13
1300
0001
1000
0000
,  // measure 14
1000
0100
0010
0000
,  // measure 15
0010
0001
0100
0010
,  // measure 16
1000
0001
1002
0103
,  // measure 17
0001
1000
0000
0000
,  // measure 18
1000
0100
0010
0100
,  // measure 19
0002
0000
0000
0003
,  // measure 20
0000
0000
0100
0000
0000
0000
0200
0000
0000
0000
0000
0000
0000
0000
0000
0300
0000
0000
0000
0000
0000
0000
0000
0000
,  // measure 21
1000
0010
0100
0001
,  // measure 22
0010
0000
0000
0100
0000
0000
1000
0000
0000
0000
0000
0000
0000
0000
0000
0000
,  // measure 23
0010
1000
0100
0001
,  // measure 24
0100
1000
0010
0100
,  // measure 25
0001
0000
0001
0000
1000
0010
0020
0000
,  // measure 26
2030
0000
3002
0023
,  // measure 27
2030
3020
0230
0000
,  // measure 28
1300
0010
0200
0300
,  // measure 29
0001
0010
0200
0300
,  // measure 30
1000
0100
0010
0001
,  // measure 31
0001
1000
0010
0100
,  // measure 32
0002
0000
0000
1000
,  // measure 33
2000
0000
0000
3003
,  // measure 34
0002
0000
0203
0000
,  // measure 35
1300
0000
0100
0000
0000
0020
0000
0000
,  // measure 36
1030
0000
0100
0000
,  // measure 37
0010
0001
2000
3000
,  // measure 38
0010
1000
0100
0010
,  // measure 39
0010
0001
2000
3000
,  // measure 40
0001
0000
0100
0000
1000
0000
0000
0100
,  // measure 41
0000
0000
0000
0020
0000
0000
0000
0000
0000
0000
0000
0000
0030
0000
0000
0000
,  // measure 42
1000
0100
1000
0010
,  // measure 43
0010
0100
0002
0003
,  // measure 44
0001
0010
0002
0100
,  // measure 45
1003
2000
0000
0000
,  // measure 46
0100
3200
0320
0000
,  // measure 47
0032
0000
0000
0000
,  // measure 48
0000
0000
0003
0000
;
