#TITLE:PYONTA;
#SUBTITLE:;
#ARTIST:DJ'TEKINA\/\/SOMETHING;
#TITLETRANSLIT:;
#SUBTITLETRANSLIT:;
#ARTISTTRANSLIT:;
#GENRE:;
#CREDIT:;
#BANNER:PYONTA.png;
#BACKGROUND:PYONTA-bg.png;
#LYRICSPATH:;
#CDTITLE:;
#MUSIC:PYONTA.ogg;
#OFFSET:1.490000;
#SAMPLESTART:59.634998;
#SAMPLELENGTH:15.000000;
#LASTBEATHINT:1.306667;
#SELECTABLE:YES;
#BPMS:0.000000=160.000000
,68.000000=80.000000
,82.000000=160.000000
;
#STOPS:
;
#BGCHANGES:0.000=PYONTA.avi=1.000=0=0=0=StretchNoLoop====,
99999=-nosongbg-=1.000=0=0=0 // don't automatically add -songbackground-
;
#KEYSOUNDS:;
#ATTACKS:;

//---------------dance-single - Talkion----------------
#NOTES:
     dance-single:
     :
     Beginner:
     3:
     0.153556,0.183700,0.044053,0.079295,0.000000,122.000000,117.000000,5.000000,9.000000,0.000000,0.000000,0.153556,0.183700,0.044053,0.079295,0.000000,122.000000,117.000000,5.000000,9.000000,0.000000,0.000000:
// measure 0
0000
0000
0000
0000
,  // measure 1
0000
0000
0000
0000
,  // measure 2
0000
0000
0000
0000
,  // measure 3
0000
0000
0000
0000
,  // measure 4
0000
0000
0000
0000
,  // measure 5
1000
0000
0000
1000
0000
0000
0000
0000
,  // measure 6
0001
0000
0000
0001
0000
0000
0000
0000
,  // measure 7
1000
0000
0000
1000
0000
0000
0000
0000
,  // measure 8
0002
0000
0003
0000
,  // measure 9
0100
0000
0100
0000
,  // measure 10
0100
0000
0100
0000
,  // measure 11
0100
0000
0100
0000
,  // measure 12
0100
0000
0100
0000
,  // measure 13
0010
0000
0010
0000
,  // measure 14
0010
0000
0010
0000
,  // measure 15
1000
0000
1000
0000
,  // measure 16
0002
0000
0003
0000
,  // measure 17
0000
1000
0000
1000
,  // measure 18
0000
1000
0000
1000
,  // measure 19
0000
0001
0000
0001
,  // measure 20
0000
0002
0000
0000
,  // measure 21
0003
0000
0100
0000
,  // measure 22
0100
0000
0010
0000
,  // measure 23
0010
0000
0100
0000
,  // measure 24
0100
0000
0010
0000
,  // measure 25
0010
0000
1000
0000
,  // measure 26
1000
0000
0001
0000
,  // measure 27
0001
0000
1000
0000
,  // measure 28
1000
0000
0002
0000
,  // measure 29
0003
0000
0000
0000
0010
0000
0000
0010
,  // measure 30
0000
0000
0000
0000
0100
0000
0000
0100
,  // measure 31
0000
0000
0000
0000
0010
0000
0000
0010
,  // measure 32
0000
0000
0000
0000
0100
0000
0000
0100
,  // measure 33
0000
0000
1000
0000
,  // measure 34
1000
0000
0001
0000
,  // measure 35
0001
0000
0100
0100
,  // measure 36
0100
0000
0200
0000
,  // measure 37
0300
0000
1001
0000
,  // measure 38
0000
0000
0000
1000
0000
0000
1000
0000
,  // measure 39
0000
0000
1001
0000
,  // measure 40
0000
0000
0000
0001
0000
0000
0001
0000
,  // measure 41
0000
0000
1001
0000
,  // measure 42
0000
0000
0000
1000
0000
0000
1000
0000
,  // measure 43
0000
0000
1001
0000
,  // measure 44
0000
0000
0000
0001
0000
0000
0001
0000
,  // measure 45
0000
0000
0100
0000
,  // measure 46
0100
0000
0100
0000
,  // measure 47
0001
0000
0010
0000
,  // measure 48
0010
0000
0010
0000
,  // measure 49
0001
0000
0100
0000
,  // measure 50
0100
0000
0100
0000
,  // measure 51
0001
0000
0010
0000
,  // measure 52
0010
0000
0020
0000
,  // measure 53
0030
0000
0100
0000
,  // measure 54
0100
0000
0000
0100
0000
0000
0100
0000
,  // measure 55
0000
0000
1000
0000
,  // measure 56
1000
0000
0000
1000
0000
0000
1000
0000
,  // measure 57
0000
0000
0001
0000
,  // measure 58
0001
0000
0001
0000
,  // measure 59
0100
0000
0010
0000
,  // measure 60
0010
0000
0020
0000
,  // measure 61
0030
0000
0000
0000
1000
0000
0000
1000
,  // measure 62
0000
0000
0000
0000
0001
0000
0000
0001
,  // measure 63
0000
0000
0000
0000
1000
0000
0000
1000
,  // measure 64
0000
0000
0002
0000
,  // measure 65
0003
0000
0000
0000
0100
0000
0000
0100
,  // measure 66
0000
0000
0000
0000
0010
0000
0000
0010
,  // measure 67
0000
0000
0000
0000
0100
0000
0000
0100
,  // measure 68
0000
0000
0020
0000
,  // measure 69
0030
0000
1001
0000
;

//---------------dance-single - Talkion----------------
#NOTES:
     dance-single:
     :
     Easy:
     8:
     0.333543,0.440969,0.264317,0.396476,0.079295,265.000000,235.000000,30.000000,45.000000,0.000000,0.000000,0.333543,0.440969,0.264317,0.396476,0.079295,265.000000,235.000000,30.000000,45.000000,0.000000,0.000000:
0000
0000
0000
0000
,
0000
0000
0000
0000
,
0000
0000
0000
0000
,
0000
0000
0000
0000
,
0000
0000
0000
0000
,
1100
0000
0000
0010
0000
0010
0000
0000
,
0101
0000
0000
0010
0000
0010
0000
0000
,
1100
0000
0000
0010
0000
0010
0000
0000
,
0001
0000
0001
0000
1000
0001
0100
0000
,
0010
0000
0000
0000
0010
0000
0000
0000
0100
0000
0000
0100
0000
0000
0000
0000
,
0001
0000
0000
0000
0001
0000
0000
0000
1000
0000
0000
1000
0000
0000
0000
0000
,
0100
0000
0000
0000
0100
0000
0000
0000
0010
0000
0000
0010
0000
0000
0000
0000
,
0001
0001
2000
3000
,
0001
0000
0000
0000
0001
0000
0000
0000
0010
0000
0000
0010
0000
0000
0000
0000
,
1000
0000
0000
0000
1000
0000
0000
0000
0010
0000
0000
0010
0000
0000
0000
0000
,
1001
1001
0110
0110
,
2002
0000
0000
3003
,
0000
1000
0000
0001
,
0000
1000
0000
0001
,
0000
0100
0000
0010
,
0000
0100
0200
0000
,
0000
0300
0010
1000
,
0010
0000
0000
0010
0000
0000
0000
0000
0100
0000
0000
0000
0001
0000
0000
0000
,
0100
0000
0000
0100
0000
0000
0000
0000
0001
0000
0000
0000
1000
0000
0000
0000
,
0001
0000
0000
0001
0000
0000
0000
0000
2000
0000
0000
0000
3002
0000
0000
0000
,
2003
3001
0100
0010
,
0100
0000
0000
0100
0000
0000
0000
0000
0001
0000
0000
0000
1000
0000
0000
0000
,
0001
0000
0000
0001
0000
0000
0000
0000
1000
0000
0000
0000
0100
0000
0000
0000
,
1000
0000
0000
1000
0000
0000
0000
0000
0020
0000
0000
0000
0230
0000
0000
0000
,
0320
0000
0130
0000
0001
0000
0020
0001
,
0000
0000
0031
0000
1000
0000
0020
1000
,
0000
0000
1030
0000
0001
0000
0200
0001
,
0000
0000
0301
0000
1000
0000
0200
1000
,
0000
1300
0001
0100
,
0001
0100
0001
0000
1000
0000
0100
0000
,
1000
0100
1000
0000
0020
0000
0230
0000
,
0310
0100
0010
0100
0020
0000
0000
0000
,
0000
0030
2000
0200
,
3300
1100
0000
1002
0000
0000
0100
0000
,
0103
0000
0002
0020
,
0033
0011
0000
2001
0000
0000
3010
0000
,
0100
0010
0100
0000
0002
0000
2000
0000
,
3003
1001
0000
1200
0000
0000
0010
0000
,
0310
0000
0001
1000
,
0001
1000
0000
0020
0000
0000
0130
0000
,
0010
0100
0010
0000
1000
0000
0100
0000
,
1000
0000
0000
1100
0000
0000
0000
0000
0001
0000
0000
0000
0100
0000
0000
0000
,
0001
0000
0000
0101
0000
0000
0000
0000
1000
0000
0000
0000
0010
0000
0000
0000
,
1000
0000
0000
1010
0000
0000
0000
0000
0001
0000
0000
0000
0010
0000
0000
0000
,
0002
0003
1000
0010
,
0100
0000
0000
0110
0000
0000
0000
0000
0001
0000
0000
0000
0010
0000
0000
0000
,
0100
0000
0000
0110
0000
0000
0000
0000
2000
0000
0000
0000
3002
0000
0000
0000
,
2003
3002
0203
0320
,
0230
0310
1000
0100
,
1000
0100
1000
0100
0000
0000
1000
0000
,
1001
0000
0001
0100
,
0001
0100
0001
0100
0000
0000
0001
0000
,
1001
0000
1000
0100
,
1000
0000
0000
1001
0000
0000
0000
0000
0001
0000
0000
0000
0100
0000
0000
0000
,
0001
0000
0000
1001
0000
0000
0000
0000
2000
0000
0000
0000
3200
0000
0000
0000
,
0320
0032
0203
0320
,
0230
0000
0310
0000
1010
0000
0000
0100
,
0000
0100
0000
0000
0011
0000
0000
0100
,
0000
0100
0000
0000
1010
0000
0000
0100
,
0000
0100
0000
0000
0001
0000
1000
0000
,
0020
0000
0130
0000
0110
0000
0000
0001
,
0000
0001
0000
0000
0110
0000
0000
1000
,
0000
1000
0000
0000
0110
0000
0000
0001
,
0000
0001
0000
0000
0010
0000
0010
0000
,
0100
1000
0010
0000
0220
0000
0000
0000
,
0000
0000
0000
0000
,
0000
0000
0330
0000
;

//---------------dance-single - Talkion----------------
#NOTES:
     dance-single:
     :
     Medium:
     11:
     0.475771,0.503965,0.361233,0.484582,0.092511,378.000000,337.000000,41.000000,55.000000,0.000000,0.000000,0.475771,0.503965,0.361233,0.484582,0.092511,378.000000,337.000000,41.000000,55.000000,0.000000,0.000000:
0000
0000
0000
0000
,
0000
0000
0000
0000
,
0000
0000
0000
0000
,
0000
0000
0000
0000
,
0000
0000
0000
0000
,
2001
0000
0000
0100
0000
0010
3010
0000
,
1002
0000
0000
0100
0000
0010
0013
0000
,
2001
0000
0000
0100
0000
0010
3010
0000
,
1001
0000
0001
0100
1000
0100
0001
0000
,
0100
0000
0010
0000
0100
0000
0000
0000
0010
0000
0000
0010
0000
0000
0010
0000
,
1000
0000
0100
0000
0010
0000
0000
0000
0100
0000
0000
0100
0000
0000
0100
0000
,
1000
0000
0010
0000
0100
0000
0000
0000
0010
0000
0000
0010
0000
0000
0010
0000
,
0100
0001
0020
0000
0200
0330
0110
0000
,
0100
0000
0010
0000
0100
0000
0000
0000
0010
0000
0000
0010
0000
0000
0010
0000
,
0001
0000
0100
0000
0010
0000
0000
0000
0100
0000
0000
0100
0000
0000
0100
0000
,
0001
0010
0100
1000
0001
0010
0100
1000
,
0002
0203
0320
1030
,
1002
0103
0200
0310
,
0020
1030
2000
3100
,
0200
0301
0002
0103
,
0200
0000
0000
1300
0000
0000
0001
0000
0001
0100
0000
0100
,
0010
0000
0010
2000
0000
0000
3001
0000
0000
0011
0000
0000
,
0010
0000
0000
0001
0000
0000
0100
0000
0010
0000
0000
0000
0110
0000
0000
0000
,
0100
0000
0000
0001
0000
0000
0010
0000
0100
0000
0000
0000
0110
0000
0000
0000
,
0100
0000
0000
1000
0000
0000
0010
0000
0200
0000
0000
0000
0320
0000
0000
0000
,
0130
0010
0110
0000
1000
0000
1100
0000
,
0100
0000
0000
1000
0000
0000
0010
0000
0100
0000
0000
0000
0110
0000
0000
0000
,
0010
0000
0000
1000
0000
0000
0100
0000
0010
0000
0000
0000
0110
0000
0000
0000
,
0010
0000
0000
0001
0000
0000
0100
0000
0020
0000
0000
0000
0230
0000
0000
0000
,
0310
0100
0110
0000
0001
0000
1000
0020
,
0030
0010
0001
0000
1000
0000
0001
0020
,
0030
0010
1000
0000
0001
0000
1000
0020
,
0030
0010
0001
0000
1000
0000
0001
0010
,
1000
0100
0001
0000
0110
0000
1000
0100
,
0010
0001
1000
0000
0110
0000
0001
0010
,
0100
1000
0001
0000
0100
1000
0100
0001
,
0100
1000
0100
0010
2000
0000
0000
0000
,
3000
1001
0020
0032
,
0103
0010
1000
1010
0000
1000
0200
0000
,
0310
0100
1000
1001
0000
0001
0100
1000
,
0000
1000
0100
0002
0000
1000
2003
0000
,
0000
3100
0200
2300
,
3010
0100
0001
0101
0000
0001
0020
0000
,
0130
0010
0001
1001
0000
1000
0010
0001
,
0000
0001
0010
2000
0000
0001
3002
0000
,
0013
1000
0100
0001
0010
0000
0110
0000
,
1000
0000
0000
1000
0000
0000
1000
0000
0010
0000
0000
0000
0110
0000
0000
0000
,
0001
0000
0000
0001
0000
0000
0001
0000
0010
0000
0000
0000
0110
0000
0000
0000
,
1000
0000
0000
1000
0000
0000
1000
0000
0001
0000
0100
0000
1000
0000
0100
0000
,
0001
1001
1000
0110
,
0001
0000
0000
0100
0000
0000
1000
0000
0100
0000
0000
0000
0110
0000
0000
0000
,
1000
0000
0000
0100
0000
0000
0001
0000
0100
0000
0000
0000
0210
0000
0000
0000
,
1300
0001
0200
0000
0320
0000
0230
0000
,
0310
0100
0110
0000
0001
0000
0011
0000
,
1000
0010
1000
1020
0000
0100
0130
0000
,
0001
1000
0001
1000
0100
0000
0010
0001
,
0010
0011
0000
2001
0000
0010
3020
0000
,
0230
0000
0310
0000
1000
0001
0001
0000
,
0100
0000
0000
0100
0000
0000
0100
0000
0001
0000
1000
0000
1000
0000
0000
0000
,
0100
0000
0000
0100
0000
0000
0100
0000
2000
0000
0000
0000
3001
0000
0100
0000
,
1000
0100
0002
0000
0023
0000
0230
0000
,
0310
0100
0110
0000
1002
0000
0000
0010
,
0000
0100
0103
0000
2001
0000
0000
0010
,
0000
0100
3100
0000
1002
0000
0000
0010
,
0000
0100
0103
0000
0010
0000
1000
0100
,
0020
0000
0130
0000
2001
0000
0000
0010
,
0000
0001
3001
0000
1002
0000
0000
0010
,
0000
1000
1003
0000
2001
0000
0000
0010
,
0000
0001
3001
0000
0010
1000
0010
0001
,
0010
0100
1000
0000
2002
0000
0000
0000
,
0000
0000
0000
0000
,
0000
0000
3003
0000
;

//---------------dance-single - Talkion----------------
#NOTES:
     dance-single:
     :
     Hard:
     15:
     0.691001,0.881938,0.317181,0.484582,0.524229,549.000000,513.000000,36.000000,55.000000,0.000000,0.000000,0.691001,0.881938,0.317181,0.484582,0.524229,549.000000,513.000000,36.000000,55.000000,0.000000,0.000000:
0000
0000
0000
0000
,
0000
0000
0000
0000
,
0000
0000
0000
0000
,
0000
0000
0000
0000
,
0000
0000
0000
0000
,
1001
0000
0010
0002
0000
0103
0001
0000
,
1001
0000
0010
2000
0000
3100
1000
0000
,
1001
0000
0010
0002
0000
0103
0001
0000
,
1000
0000
0100
0010
0100
0000
1000
0000
0001
0010
0100
1000
0001
0000
0000
0000
,
0100
0000
0010
0000
0100
0000
0010
0000
1000
0000
0000
1100
0000
0000
1000
0000
,
0100
0000
0010
0000
0100
0000
0010
0000
0001
0000
0000
0101
0000
0000
0001
0000
,
0100
0000
0010
0000
0100
0000
0010
0000
1000
0000
0000
1001
0000
0000
0001
0000
,
0010
0100
1000
0100
0010
0001
1001
0000
,
1000
0000
0010
0000
1000
0000
0010
0000
0100
0000
0000
0101
0000
0000
0100
0000
,
0001
0000
0010
0000
0001
0000
0010
0000
0100
0000
0000
1100
0000
0000
0100
0000
,
1000
0001
1000
0001
0100
0010
1000
0100
,
0010
0100
0010
0100
0010
0100
0010
0100
1000
0100
0010
0001
2000
0000
0000
0000
,
3002
0100
0023
0100
,
0032
0100
2003
0100
,
3020
0100
2030
0100
,
3002
0000
0000
1000
0000
0000
0013
0100
1000
0010
0100
1000
,
0100
0000
0000
0000
0010
0000
0000
0000
1000
0000
0000
0000
0002
0000
0000
0000
0000
0000
0000
0000
0000
0000
0000
0000
1003
0000
0000
0000
0000
0000
0000
0000
0000
0100
0000
0000
1000
0000
0000
0000
0000
0000
2100
0000
0000
0000
0000
0000
,
0000
0000
0010
0000
3010
0000
0100
0000
0001
0000
0000
0010
0001
0000
0012
0000
,
0000
0000
0100
0000
0103
0000
0010
0000
1000
0000
0000
0001
1000
0000
2001
0000
,
0000
0100
3100
0010
0002
0103
2000
3100
,
0002
0000
0103
0000
0020
0000
0000
0000
0130
0000
0000
0010
0100
0000
0120
0000
,
0000
0000
1000
0000
1030
0000
0001
0000
0010
0000
0000
0100
0010
0000
0120
0000
,
0000
0000
0001
0000
0031
0000
0100
0000
0001
0000
0000
1000
0001
0000
1002
0000
,
0000
0000
0010
0000
0013
0000
1000
0000
0010
0100
0010
0000
0100
0010
0100
0000
,
1000
0001
0010
0100
1000
0000
0000
0000
0001
0100
0001
0000
1000
0000
0001
0010
,
0001
0000
0100
0000
0020
0000
0030
0000
1000
0100
1000
0000
0001
0000
1000
0010
,
1000
0000
0010
0000
0200
0000
0300
0000
0001
0010
0001
0000
0100
0000
0010
1000
,
0010
0000
0100
0000
0002
0000
0003
0000
1000
0010
1000
0000
0100
0000
0010
0001
,
0010
0100
2000
3000
0001
0100
0001
0100
,
1000
0100
1000
0100
1000
0010
1000
0010
,
0001
0000
0010
0000
0001
0000
0010
0000
0001
1000
0001
1000
0010
0100
0001
1000
,
0001
0000
0000
1000
0000
0000
0100
0000
0000
0010
0000
0000
0001
0000
0000
1000
0000
0000
0001
0000
0000
1000
0000
0000
0010
0000
0000
0000
0100
0000
0000
0000
0010
0000
0000
0000
0100
0000
0000
0000
0001
0000
0000
0000
0010
0000
0000
0000
,
1000
0001
0100
1000
0000
0000
1002
0000
0000
0203
0000
0000
,
0310
0000
1000
0001
1000
0001
0020
0000
0000
0000
0100
0000
0130
0000
0000
0000
,
1000
0000
0010
0001
0010
0000
0100
0000
0010
0000
1000
0100
0010
0001
2000
0000
,
0000
0000
3010
0000
0100
0000
0210
0000
0000
0000
0301
1000
0001
0000
0010
0000
,
0100
1000
0100
1000
0001
0000
0000
0000
2001
0000
0000
0000
3020
0000
0000
0000
,
0130
0000
0001
1000
0001
1000
0200
0000
0000
0000
0010
0000
0310
0000
0000
0000
,
0001
0000
0100
1000
0100
0000
0010
0000
0100
0000
0001
0010
0100
1000
0002
0000
,
0000
0000
0103
0000
0010
0000
0120
0000
0000
0000
1030
0001
1000
0000
0000
0000
,
0001
0010
0100
1000
0010
0000
0100
0000
0110
0000
0000
0000
1001
0000
0000
0000
,
0001
0000
0010
0001
0000
0010
0001
0000
0100
0000
0010
0000
1010
0000
0000
0000
,
1000
0000
0100
1000
0000
0100
1000
0000
0010
0000
0100
0010
0100
0000
0001
0010
,
0001
0000
0100
0010
0100
0000
0001
0010
0001
0000
1000
0010
0200
0000
0000
0000
,
0302
0000
0000
0000
0000
0000
1003
0000
0000
0001
1000
0001
1000
0000
0000
0000
0000
0000
1001
0000
0000
0000
0000
0000
,
1000
0000
0100
0010
0000
0100
0010
0000
0001
0000
0100
0000
0110
0000
0000
0000
,
0010
0000
1000
0100
0000
1000
0100
0000
0020
0000
0000
0000
0130
1000
0100
1000
,
0002
0000
0000
0000
0103
0000
0010
0000
0100
0001
0100
0001
1000
0001
1000
0001
,
0010
0100
1000
0001
0100
0000
0000
0000
0110
0000
0000
0000
1010
0000
0000
0000
,
1000
0000
0100
0001
0100
1000
0200
0000
0000
0000
0310
0000
0110
0000
0000
0000
,
0001
0000
0100
0010
1000
0010
0100
0000
0020
0000
0000
0000
1030
0001
1000
0001
,
0010
0000
0001
0000
0100
0000
0120
0000
0000
0000
1030
0000
0010
1000
0010
0001
,
0010
0000
0100
0000
0110
0000
0000
0000
0001
0000
0010
0001
0010
0000
0001
0000
,
0100
0000
0010
1000
0000
0010
1000
0000
0100
0000
0010
0100
0010
0000
0100
0000
,
1000
0000
0001
0100
0000
0001
0100
0000
0020
0000
0000
0000
1030
0001
1000
0001
,
0010
0000
0100
0000
0010
0000
0001
0000
0100
0010
0100
0010
1000
0010
1000
0010
,
1000
0001
0010
0100
1000
0000
0000
0000
1001
0000
0000
0000
0100
0000
0002
0000
,
0000
0013
0001
0000
1001
0000
0100
2000
,
0000
3010
1000
0000
1001
0000
0100
0002
,
0000
0013
0001
0000
1001
0000
2000
3200
,
0302
0000
0103
0000
0110
0000
1000
0020
,
0000
0130
0001
0000
0110
0000
0001
0020
,
0000
0130
1000
0000
0110
0000
1000
0020
,
0000
0000
0130
0000
0001
0000
0000
0000
1000
0000
0010
0100
0010
0000
1000
0100
,
0010
0000
0000
0001
0000
0000
0010
0000
0000
0100
0000
0000
1000
0000
0000
0000
0000
0000
0001
0000
1000
0000
0002
0000
2000
0000
0000
0000
0000
0000
0000
0000
0000
0000
0000
0000
0000
0000
0000
0000
0000
0000
0000
0000
0000
0000
0000
0000
,
0000
0000
0000
0000
,
0000
0000
3003
0000
;
