#VERSION:0.83;
#TITLE:Lose Control;
#SUBTITLE:;
#ARTIST:MEDUZA x Becky Hill x GOODBOYS;
#TITLETRANSLIT:;
#SUBTITLETRANSLIT:;
#ARTISTTRANSLIT:;
#GENRE:Deep House;
#ORIGIN:;
#CREDIT:;
#BANNER:[Week 5] - Lose Control-bn.png;
#BACKGROUND:[Week 5] - Lose Control-bg.png;
#PREVIEWVID:;
#JACKET:[Week 5] - Lose Control-jacket.png;
#CDIMAGE:;
#DISCIMAGE:;
#LYRICSPATH:;
#CDTITLE:cdtitle.png;
#MUSIC:[Week 5] - Lose Control.ogg;
#OFFSET:-0.003000;
#SAMPLESTART:38.713001;
#SAMPLELENGTH:15.484000;
#SELECTABLE:YES;
#BPMS:0.000=124.000;
#STOPS:;
#DELAYS:;
#WARPS:;
#TIMESIGNATURES:0.000=4=4;
#TICKCOUNTS:0.000=4;
#COMBOS:0.000=1;
#SPEEDS:0.000=1.000=0.000=0;
#SCROLLS:0.000=1.000;
#FAKES:;
#LABELS:0.000=Song Start;
#BGCHANGES:;
#KEYSOUNDS:;
#ATTACKS:
;

//---------------dance-single - ----------------
#NOTEDATA:;
#CHARTNAME:;
#STEPSTYPE:dance-single;
#DESCRIPTION:;
#CHARTSTYLE:;
#DIFFICULTY:Hard;
#METER:11;
#RADARVALUES:0.462279,0.517305,0.167956,0.772599,0.352708,289.000000,274.000000,15.000000,69.000000,0.000000,0.000000,0.000000,0.000000,0.000000,0.462279,0.517305,0.167956,0.772599,0.352708,289.000000,274.000000,15.000000,69.000000,0.000000,0.000000,0.000000,0.000000,0.000000;
#CREDIT:;
#NOTES:
// measure 0
0000
0000
0000
0000
,  // measure 1
0000
0000
0000
0000
,  // measure 2
0000
0000
0000
0000
,  // measure 3
0000
0000
0000
0000
,  // measure 4
1000
0000
0000
0000
1001
0000
0001
0010
0000
1000
0000
0010
0000
0001
0000
0020
,  // measure 5
0000
0000
0000
0030
0110
0000
0000
0000
1000
0000
0000
0000
1001
0000
0000
0000
,  // measure 6
0001
0000
0000
0000
0110
0000
0100
0001
0000
1000
0000
0100
0000
1000
0000
0002
,  // measure 7
0000
0000
0013
0000
0001
1000
0100
1000
,  // measure 8
0001
0000
0000
0000
0011
0000
0010
0100
0000
0010
0000
0001
0000
1000
0000
0020
,  // measure 9
0000
0000
0000
0030
1010
0000
0000
0000
1000
0000
0000
0000
1001
0000
0000
0000
,  // measure 10
0001
0000
0000
0000
0011
0000
0010
0001
0000
1000
0000
0100
0000
1000
0000
0020
,  // measure 11
0000
0000
0100
0000
0030
1000
0010
1000
,  // measure 12
0001
0000
0000
0100
0002
0000
0000
0003
0020
0000
0000
0030
0200
0000
0000
0300
,  // measure 13
2000
0000
3001
0000
1000
0001
0010
0001
,  // measure 14
2000
0000
0000
0100
3000
0000
1000
0000
0002
0000
0000
0000
0003
0000
0010
0000
,  // measure 15
0200
0000
0300
2000
0000
3000
0002
0000
0203
0000
0000
0300
0101
0000
0000
0000
,  // measure 16
1000
0000
0000
0001
2000
0000
0000
3000
0020
0000
0000
0030
0200
0000
0000
0300
,  // measure 17
0002
0000
1003
0000
0001
0010
1000
0010
,  // measure 18
0002
0000
0003
0100
0020
0000
0030
1000
,  // measure 19
0002
0000
0003
0200
0000
0300
0010
0000
0200
0000
0300
0000
0000
0000
0000
0000
,  // measure 20
1010
0000
0000
1000
0001
0000
1000
0000
0100
0000
0010
0000
0100
0000
1000
0000
,  // measure 21
0001
0000
0000
0100
0001
0000
0010
0000
1000
0000
0010
0000
0001
0000
1000
0000
,  // measure 22
0020
0000
0000
0130
0002
0000
0000
1003
0010
0000
1000
0000
0001
0000
0010
0000
,  // measure 23
0200
0000
0000
1300
0002
0000
0000
0103
0010
0000
0100
0000
1000
0000
0100
0000
,  // measure 24
0001
0000
0000
0000
1001
0000
0000
1000
0100
0000
1000
0000
0001
0000
1000
0000
,  // measure 25
0100
0000
0000
0000
1010
0000
0000
1000
0001
0000
0010
0000
1000
0000
0010
0000
,  // measure 26
0002
0000
0000
0103
0020
0000
0000
1030
0001
0000
0010
0000
1000
0000
0100
0000
,  // measure 27
0002
0000
0000
0103
0020
0000
0000
1030
0001
0000
0100
0000
0010
0000
0100
0000
,  // measure 28
1010
0000
1000
0000
1001
0000
1000
0001
0000
0000
0010
0000
0001
0010
0001
0000
,  // measure 29
1000
0000
0100
0000
0010
0000
0100
0010
0000
0000
0001
0000
1000
0001
1000
0000
,  // measure 30
0200
0000
0000
0310
0002
0000
0000
2003
0010
3000
1000
0000
0001
1000
0001
0000
,  // measure 31
0200
0000
0000
0310
0200
0000
0000
0302
1000
0003
0100
0000
0010
0001
0010
0000
,  // measure 32
0001
0000
0100
0000
0010
0000
1000
0001
0000
0000
0010
0000
0100
1000
0100
0000
,  // measure 33
1000
0000
0001
0000
1000
0000
0010
0100
0000
0000
0010
0000
1000
0001
1000
0000
,  // measure 34
0020
0000
0000
0130
0002
0000
0000
0203
0010
0300
0100
0000
0001
0100
0001
0000
,  // measure 35
2000
0000
0000
3000
0002
0000
0003
0020
0000
0030
1000
0000
0010
0000
0001
0000
,  // measure 36
1002
0000
0003
0200
0000
0300
0001
0000
0020
0000
1030
0000
0010
0000
0001
0000
,  // measure 37
0200
0000
0300
0020
0000
0030
1000
0000
0002
0000
0103
0000
0001
1000
0001
0000
,  // measure 38
0020
0000
0030
0200
0000
0300
0010
0000
0002
0000
1003
0000
0001
0000
0100
0000
,  // measure 39
0020
0000
0030
2000
0000
3000
0001
0000
0020
0000
2030
0000
3020
0000
0130
0000
,  // measure 40
2000
0000
3000
0002
0000
0003
0200
0000
0310
0000
0100
0000
0001
0000
1000
0000
,  // measure 41
0020
0000
0030
2000
0000
3000
0100
0000
0001
0000
1000
0000
0010
0000
0001
0000
,  // measure 42
0020
0000
0130
1000
0002
0000
0103
0001
,  // measure 43
2000
0000
3000
0200
0000
0300
1000
0000
0002
0000
0203
0000
0302
0000
1000
0000
,  // measure 44
0003
0000
0000
0000
;

//---------------dance-single - ----------------
#NOTEDATA:;
#CHARTNAME:;
#STEPSTYPE:dance-single;
#DESCRIPTION:;
#CHARTSTYLE:;
#DIFFICULTY:Medium;
#METER:9;
#RADARVALUES:0.401495,0.443404,0.067182,0.257533,0.223942,251.000000,245.000000,6.000000,23.000000,0.000000,0.000000,0.000000,0.000000,0.000000,0.401495,0.443404,0.067182,0.257533,0.223942,251.000000,245.000000,6.000000,23.000000,0.000000,0.000000,0.000000,0.000000,0.000000;
#CREDIT:;
#NOTES:
0000
0000
0000
0000
,
0000
0000
0000
0000
,
0000
0000
0000
0000
,
0000
0000
0000
0000
,
0001
0000
0000
0010
0000
0000
0001
0000
0000
1000
0000
0010
0000
1000
0000
0002
,
0000
1003
0000
0100
,
0010
0000
0000
0100
0000
0000
1000
0000
0000
0001
0000
0000
1000
0000
0000
0010
,
0000
0000
0100
0000
0000
0010
0000
0000
1000
0000
0001
0000
1000
0000
0001
0000
,
0010
0000
0000
0100
0000
0000
1000
0000
0000
0001
0000
1000
0000
0100
0000
2000
,
0000
3001
0000
0010
,
0001
0000
0000
0010
0000
0000
1000
0000
0000
0010
0000
0000
0001
0000
0000
0100
,
0000
0000
0010
0000
0000
0100
0000
0000
0001
0000
1000
0000
0001
0000
1000
0000
,
0001
0200
0320
0230
,
0302
0000
1003
0000
0100
0010
0001
1000
,
0002
0000
0003
0100
0020
0000
0030
1000
,
0002
0000
0003
0020
0000
0030
0002
0000
2003
0000
3000
0000
0100
0000
0000
0000
,
1000
0020
0230
0320
,
2030
0000
3001
0000
0010
0100
1000
0001
,
0200
0000
0300
0001
2000
0000
3000
0100
,
0020
0000
0030
0002
0000
0003
2000
0000
3002
0000
0003
0000
0000
0000
0000
0000
,
1001
0000
1000
0000
0001
0010
0001
0010
,
0100
0000
1000
0000
0001
0100
0010
0100
,
0010
0000
0000
0000
1000
0000
0000
0001
1000
0000
0001
0000
0100
0000
0010
0000
,
0100
0000
0000
0000
0001
0000
0000
0010
0001
0000
1000
0000
0010
0000
1000
0000
,
0001
0000
0011
0000
0010
0100
0010
0100
,
1000
0000
1100
0000
0001
1000
0001
1000
,
0100
0000
0000
0000
0110
0000
0000
0010
0001
0000
1000
0000
0001
0000
0010
0000
,
0100
0000
0000
0000
0110
0000
0000
0010
0001
0000
1000
0000
0001
0000
1000
0000
,
0010
0000
0010
0000
0010
0000
0000
0100
0010
0000
0100
0000
1000
0000
0100
0000
,
0001
0000
0000
0010
0001
0000
1000
0000
0100
0000
0001
0000
0100
0000
1000
0000
,
0010
0000
0000
0100
0010
0000
0100
0000
0001
0000
0010
0000
1000
0000
0010
0000
,
0001
0000
0000
1000
0001
0000
0100
0000
0010
0000
1000
0000
0001
1000
0001
0000
,
1000
0000
0000
0100
0010
0000
0100
0000
1000
0000
0001
0000
0100
0000
0001
0000
,
1000
0000
0000
0010
1000
0000
0001
0000
0100
0000
0001
0000
1000
0000
0100
0000
,
0010
0000
0000
0001
0010
0000
0001
0000
1000
0000
0100
0000
0001
0000
0100
0000
,
1000
0001
0000
0100
0000
0001
0000
0100
,
0101
0000
0000
0001
0000
0000
1000
0000
0010
0000
0000
0000
1000
0000
0001
0000
,
0010
0000
0000
0100
0000
0000
0010
0000
0001
0000
0000
0000
1000
0000
0010
0000
,
0100
0000
0000
0000
0010
0000
0000
0100
0001
0000
0100
0000
1000
0000
0100
0000
,
0001
0000
0000
0000
0010
0000
0000
0100
0010
0000
0100
0000
1000
0000
0001
0000
,
1000
0000
0000
0010
0000
0000
1000
0000
0001
0000
0010
0000
1000
0000
0010
0000
,
0001
0000
0000
0010
0000
0000
0100
0000
1000
0000
0001
0000
0100
0000
0010
0000
,
0100
0000
0000
0001
0000
0000
1000
0000
0001
0000
0000
0000
0100
0000
0001
0000
,
1000
0000
0000
0010
0000
0000
1000
0000
0001
0000
0010
0000
0002
0000
0000
0000
,
0003
0000
0000
0000
;

//---------------dance-single - ----------------
#NOTEDATA:;
#CHARTNAME:;
#STEPSTYPE:dance-single;
#DESCRIPTION:;
#CHARTSTYLE:;
#DIFFICULTY:Easy;
#METER:6;
#RADARVALUES:0.260732,0.318417,0.033591,0.033591,0.000000,163.000000,160.000000,3.000000,3.000000,0.000000,0.000000,0.000000,0.000000,0.000000,0.260732,0.318417,0.033591,0.033591,0.000000,163.000000,160.000000,3.000000,3.000000,0.000000,0.000000,0.000000,0.000000,0.000000;
#CREDIT:;
#NOTES:
0000
0000
0000
0000
,
0000
0000
0000
0000
,
0000
0000
0000
0000
,
0000
0000
0000
0000
,
1000
0010
0000
1000
,
0000
0001
0000
0010
,
0001
0010
0000
0100
,
1000
0100
0000
0000
,
1000
0010
0000
0100
,
0000
0001
0000
1000
,
0001
1000
0000
0010
,
0100
0010
0000
1000
,
0001
1000
0010
0100
,
0001
0000
0000
0000
0010
0000
0100
1000
,
0100
0000
1000
0000
,
0001
0000
0100
0010
,
0100
0001
0010
0100
,
1000
0000
0001
0000
0100
0000
0001
1000
,
0001
0000
0100
0000
,
0010
0000
1000
0000
,
1001
1000
0001
1000
,
0010
0000
0100
0000
0010
0000
0100
0001
,
1000
0000
0100
0000
1000
0000
0001
0010
,
0001
1000
0001
0010
,
0100
1000
0100
1000
,
0001
0000
0100
0000
0001
0000
0100
0010
,
0100
0000
0001
0000
1000
0000
0001
0100
,
0001
0000
0010
0000
0000
0001
0000
0001
,
0011
0001
1000
0010
,
1000
0000
0001
0000
0010
0000
0001
0010
,
0100
0000
0010
0000
0100
1000
0100
0000
,
1000
0000
0001
0000
0100
0001
0100
0000
,
0010
0000
0100
0000
0001
0100
0001
0000
,
0010
0000
0100
0000
1000
0100
1000
0000
,
0001
0000
0100
0000
0010
0100
0010
0000
,
1000
0100
0000
0100
,
1100
1000
0001
1000
,
0100
0000
1000
0000
0001
0000
0010
0100
,
1000
0000
0001
0000
1000
0010
1000
0000
,
0001
0000
0010
0000
0200
2300
3200
0000
,
1300
0100
0010
0001
,
1000
0000
0001
0000
0100
0010
1000
0010
,
0100
0000
0001
0010
0100
0000
0010
0100
,
1000
0000
0001
0000
1000
0001
0100
0000
;

//---------------dance-single - ----------------
#NOTEDATA:;
#CHARTNAME:;
#STEPSTYPE:dance-single;
#DESCRIPTION:;
#CHARTSTYLE:;
#DIFFICULTY:Beginner;
#METER:2;
#RADARVALUES:0.126367,0.146962,0.011197,0.000000,0.000000,79.000000,78.000000,1.000000,0.000000,0.000000,0.000000,0.000000,0.000000,0.000000,0.126367,0.146962,0.011197,0.000000,0.000000,79.000000,78.000000,1.000000,0.000000,0.000000,0.000000,0.000000,0.000000,0.000000;
#CREDIT:;
#NOTES:
0000
0000
0000
0000
,
0000
0000
0000
0000
,
0000
0000
0000
0000
,
0000
0000
0000
0000
,
0000
0001
0000
0001
,
0000
1000
0000
1000
,
0000
0100
0000
0100
,
0000
0010
0000
0010
,
0000
0001
0000
0001
,
0000
1000
0000
1000
,
0000
0010
0000
0010
,
0000
0100
0000
0100
,
0000
0001
0000
0010
,
0000
0001
0000
0010
,
0000
0100
0000
1000
,
0000
0100
0000
1000
,
0000
0001
0000
1000
,
0000
0100
0000
1000
,
0000
0000
0000
0000
,
0000
0000
0000
0000
,
1001
0000
1000
0000
,
0001
0000
1000
0000
,
0010
0000
0100
0000
,
0010
0000
0100
0000
,
0001
0000
1000
0000
,
0001
0000
1000
0000
,
0100
0000
0010
0000
,
0100
0000
0010
0000
,
0001
0000
0010
0000
,
0001
0000
0010
0000
,
0100
0000
1000
0000
,
0100
0000
1000
0000
,
0001
0000
0100
0000
,
0001
0000
0100
0000
,
0010
0000
1000
0000
,
0001
1000
0000
1000
,
0001
0000
1000
0000
,
0100
0000
1000
0000
,
0001
0000
0010
0000
,
0001
0000
0010
0000
,
0001
0000
0100
0000
,
0001
0000
0100
0000
,
0010
0000
0100
0000
,
0001
1000
0000
1000
;
