#VERSION:0.83;
#TITLE:Lone Digger;
#SUBTITLE:;
#ARTIST:Caravan Palace;
#TITLETRANSLIT:;
#SUBTITLETRANSLIT:;
#ARTISTTRANSLIT:;
#GENRE:;
#ORIGIN:;
#CREDIT:;
#BANNER:;
#BACKGROUND:;
#PREVIEWVID:;
#JACKET:;
#CDIMAGE:;
#DISCIMAGE:;
#LYRICSPATH:;
#CDTITLE:cdtitle.png;
#MUSIC:lonedigger.ogg;
#OFFSET:0.000000;
#SAMPLESTART:57.580647;
#SAMPLELENGTH:15.967739;
#SELECTABLE:YES;
#BPMS:0.000=124.000;
#STOPS:;
#DELAYS:;
#WARPS:;
#TIMESIGNATURES:0.000=4=4;
#TICKCOUNTS:0.000=4;
#COMBOS:0.000=1;
#SPEEDS:0.000=1.000=0.000=0;
#SCROLLS:0.000=1.000;
#FAKES:;
#LABELS:0.000=Song Start;
#BGCHANGES:;
#KEYSOUNDS:;
#ATTACKS:
;

//---------------dance-single - ----------------
#NOTEDATA:;
#CHARTNAME:;
#STEPSTYPE:dance-single;
#DESCRIPTION:;
#CHARTSTYLE:;
#DIFFICULTY:Hard;
#METER:14;
#RADARVALUES:0.527352,0.709741,0.067983,0.081579,0.550661,543.000000,533.000000,10.000000,12.000000,0.000000,0.000000,0.000000,0.000000,0.000000,0.527352,0.709741,0.067983,0.081579,0.550661,543.000000,533.000000,10.000000,12.000000,0.000000,0.000000,0.000000,0.000000,0.000000;
#CREDIT:;
#OFFSET:0.000000;
#BPMS:0.000000=124.000000
;
#STOPS:;
#DELAYS:;
#WARPS:;
#TIMESIGNATURES:0.000000=4=4
;
#TICKCOUNTS:0.000000=4
;
#COMBOS:0.000000=1
;
#SPEEDS:0.000000=1.000000=0.000000=0
,152.000000=0.500000=4.000000=0
,168.000000=0.550000=0.250000=0
,168.500000=0.600000=0.250000=0
,184.000000=0.650000=0.250000=0
,184.500000=0.700000=0.250000=0
,200.000000=0.750000=0.250000=0
,200.500000=0.800000=0.250000=0
,215.250000=1.000000=0.750000=0
,280.000000=0.500000=8.000000=0
;
#SCROLLS:0.000000=1.000000
;
#FAKES:;
#LABELS:0.000000=Song Start
;
#NOTES:
// measure 0
0000
0000
0000
0000
,  // measure 1
0000
0000
0000
0000
,  // measure 2
0000
0000
0000
0000
,  // measure 3
0000
0000
0000
0000
,  // measure 4
0000
0000
0000
0000
,  // measure 5
0000
0000
0000
0000
,  // measure 6
1000
0000
1000
0000
0010
0000
0000
0000
0100
0010
0000
0010
0000
0000
0100
0000
,  // measure 7
0001
0000
0001
0000
0010
0000
0000
0000
0100
0010
0000
0010
0000
0000
0100
0000
,  // measure 8
1000
0000
1000
0000
0001
0000
0000
0000
1000
0010
0000
0010
0000
0000
0100
0000
,  // measure 9
0001
2000
0000
0000
3100
0000
1000
0000
0010
0000
0100
0000
0001
0100
0000
0010
,  // measure 10
0000
0000
0100
0000
0000
0000
0000
0000
0100
0001
0000
0001
0000
0000
0010
0000
,  // measure 11
0100
0000
0100
0000
1000
0000
0000
0000
0001
1000
0000
1000
0000
0000
0010
0000
,  // measure 12
0100
0000
0100
0000
0001
0000
0000
0000
0010
0100
0000
0100
0000
0000
1000
0000
,  // measure 13
1000
0100
1000
0100
0010
0001
0010
0100
0000
1000
0001
1000
0001
1000
0001
0000
,  // measure 14
0100
0000
0010
0100
0010
0100
0001
1000
,  // measure 15
0000
1000
0100
0001
0100
1000
0010
0001
,  // measure 16
0100
0000
0000
0000
0010
0100
0000
1000
0000
0000
0001
0000
0100
0000
0001
0000
,  // measure 17
0101
0001
0200
0000
0310
0001
0010
2000
,  // measure 18
0000
0000
3000
0000
0100
1000
0000
0010
0000
0000
0100
0000
0001
0000
0100
0000
,  // measure 19
0000
0000
0010
0000
1000
0000
0000
1000
0100
0000
0001
0000
0000
0000
0100
0000
,  // measure 20
0000
0000
1000
0000
0010
0000
0000
0100
0010
0100
0001
0000
1000
0000
0100
0000
,  // measure 21
1100
0000
1000
0000
0020
0000
0000
0130
0010
0000
0001
0000
0010
0000
0100
0000
,  // measure 22
0110
0000
0100
0001
1000
0100
1000
0010
,  // measure 23
0100
0000
0100
0000
0001
0100
0000
0010
0000
0000
1000
0000
0100
0000
0010
0000
,  // measure 24
0001
0100
1000
0000
1000
0100
0001
0100
,  // measure 25
0101
0001
2000
0000
3100
0001
0100
1000
,  // measure 26
0010
0100
0001
0001
1000
1000
0100
0010
,  // measure 27
0100
0100
0010
0010
0001
0100
0010
0100
,  // measure 28
0010
0000
1000
0000
0010
0000
0100
0000
0000
0000
0001
0100
0001
0000
1000
0000
,  // measure 29
0200
0000
0000
0000
0000
0000
0000
0000
0320
0000
0000
0000
0130
0010
0100
1000
,  // measure 30
0001
1000
0010
0100
0001
0100
0010
1000
0100
0000
0100
0000
1000
0100
0010
0001
,  // measure 31
0010
0000
0001
0000
0100
0010
0000
0010
0100
0001
0100
0000
0010
0000
0000
0000
,  // measure 32
1000
0000
0100
0000
1000
0100
0001
0100
1000
0100
0010
0100
0010
0001
1000
0010
,  // measure 33
0100
0010
0000
0000
0100
0000
0100
0000
0001
0000
0001
0000
1000
0100
0000
1000
,  // measure 34
0001
0100
0010
0100
0001
1000
0001
0010
0100
0000
0010
0000
0001
0010
0001
1000
,  // measure 35
0010
0000
0010
0000
0100
0001
0000
0001
0100
0000
0010
0000
1000
0000
0000
0000
,  // measure 36
0001
0100
1000
0100
0001
0000
1000
0100
0001
0100
1000
0000
0100
0000
0000
0010
,  // measure 37
0000
0200
0000
0000
1300
0000
1000
0000
0001
0000
0001
0000
0100
0001
0000
0010
,  // measure 38
0100
0100
0000
0000
1000
0000
0000
0000
,  // measure 39
0010
0000
0100
0000
,  // measure 40
0001
0001
1000
1000
,  // measure 41
0100
0100
0010
0010
,  // measure 42
0110
0000
0110
0000
0000
0000
0000
0000
1000
0000
0000
1000
0001
0000
0100
0000
,  // measure 43
0001
0000
0000
0001
1000
0000
0010
0000
0100
0000
0000
0001
1000
0000
0100
0000
,  // measure 44
1000
0000
0000
1000
0001
0000
0010
0000
0001
0000
0000
0001
0100
0000
0010
0000
,  // measure 45
0100
0000
0000
0001
1000
0000
0100
0000
1000
0000
0000
1000
0010
0000
1000
0000
,  // measure 46
1001
0000
1001
0000
0000
0000
0000
0000
0001
0100
0001
0000
0000
0000
0000
0000
,  // measure 47
1000
0100
1000
0100
0000
1000
0100
0000
0000
0000
0000
0000
1000
0001
1000
0000
,  // measure 48
0010
0100
0010
0000
0000
0000
0000
0000
1000
0010
1000
0000
0000
0000
0000
0000
,  // measure 49
0001
0100
0001
0100
0000
0010
0100
0000
0000
0000
0000
0001
1000
0000
1000
0000
,  // measure 50
1100
0000
1100
0000
0000
0000
0000
0000
0010
0001
1000
0000
0000
0000
0000
0000
,  // measure 51
0010
1000
0001
0100
0000
0010
0100
0000
0000
0000
0000
0000
0001
1000
0100
0000
,  // measure 52
1000
0001
0100
0000
0000
0000
0000
0000
0010
1000
0001
0000
0000
0000
0000
0000
,  // measure 53
1000
0000
0000
0000
0001
0000
1000
0000
0000
0000
0100
0000
1000
0000
0000
0000
1000
0000
0001
0000
0000
0000
0100
0000
0001
0000
0000
0000
1000
0000
0100
0000
0000
0000
0010
0000
0000
0000
0000
0200
0000
0000
0000
0000
0000
0000
0000
0000
,  // measure 54
1300
0100
0010
0000
0010
0000
0100
0010
0000
1000
0000
0000
0010
0000
0000
0000
,  // measure 55
0001
0100
0010
0000
0100
0000
0010
0100
0000
1000
0000
0000
0100
0000
0000
0000
,  // measure 56
0010
1000
0100
0000
1000
0000
0100
0001
0000
0100
0000
0000
0010
0000
0000
0000
,  // measure 57
0001
0200
0000
0000
0310
0000
0010
0000
0100
0000
0100
0000
0001
1000
0000
0010
,  // measure 58
0100
0001
0010
0000
0100
0000
0010
0001
0000
0100
0000
0000
1000
0000
0000
0000
,  // measure 59
0100
0001
0010
0000
0100
0000
1000
0010
0000
0100
0000
0000
1000
0000
0000
0000
,  // measure 60
0100
0001
1000
0000
0100
0000
0010
0100
0000
0001
0000
0000
0100
0000
0000
0000
,  // measure 61
0010
0200
0000
0000
1300
0000
1000
0000
0001
0000
0001
0000
0010
0100
0000
0000
,  // measure 62
1000
0001
0010
0100
1000
0100
0010
0001
0100
0000
0100
0000
0001
0100
0010
1000
,  // measure 63
0010
0000
1000
0000
0100
0010
0000
0010
0100
1000
0100
0000
0010
0000
0000
0000
,  // measure 64
0001
0000
0100
0000
0001
0100
1000
0100
0001
0100
0010
0100
0010
1000
0001
0010
,  // measure 65
0100
0010
0000
0000
0100
0000
0100
0000
1000
0000
1000
0000
0001
0100
0000
0001
,  // measure 66
1000
0100
0010
0100
1000
0001
1000
0010
0100
0000
0010
0000
1000
0010
1000
0001
,  // measure 67
0010
0000
0010
0000
0100
1000
0000
1000
0100
0000
0010
0000
0001
0000
0000
0000
,  // measure 68
1000
0100
0001
0100
1000
0000
0001
0100
1000
0100
0001
0000
0100
0000
0010
0100
,  // measure 69
0001
0100
0001
0010
0100
1000
0100
0010
0001
1000
0100
0010
0100
0000
0100
0010
,  // measure 70
0002
0000
0000
0000
,  // measure 71
0000
0000
0000
0000
,  // measure 72
0003
0000
0000
0000
;
