#VERSION:0.83;
#TITLE:ヘビーテクノビートの祭;
#SUBTITLE:;
#ARTIST:megawolf77;
#TITLETRANSLIT:;
#SUBTITLETRANSLIT:;
#ARTISTTRANSLIT:;
#GENRE:;
#ORIGIN:;
#CREDIT:;
#BANNER:hebiitekunobiitonomatsuri-bn.png;
#BACKGROUND:hebiitekunobiitonomatsuri-bg.png;
#PREVIEWVID:;
#JACKET:hebiitekunobiitonomatsuri-jacket.png;
#CDIMAGE:;
#DISCIMAGE:;
#LYRICSPATH:;
#CDTITLE:cdtitle.png;
#MUSIC:hebiitekunobiitonomatsuri.ogg;
#OFFSET:-0.037500;
#SAMPLESTART:72.764709;
#SAMPLELENGTH:14.090000;
#SELECTABLE:YES;
#BPMS:0.000=132.000;
#STOPS:191.000=0.227;
#DELAYS:;
#WARPS:;
#TIMESIGNATURES:0.000=4=4;
#TICKCOUNTS:0.000=4;
#COMBOS:0.000=1;
#SPEEDS:0.000=1.000=0.000=0;
#SCROLLS:0.000=1.000;
#FAKES:;
#LABELS:0.000=Song Start;
#BGCHANGES:;
#KEYSOUNDS:;
#ATTACKS:
;

//---------------dance-single - ----------------
#NOTEDATA:;
#CHARTNAME:;
#STEPSTYPE:dance-single;
#DESCRIPTION:;
#CHARTSTYLE:;
#DIFFICULTY:Hard;
#METER:15;
#RADARVALUES:0.779183,0.772253,0.296586,0.094039,1.526331,754.000000,713.000000,41.000000,13.000000,0.000000,0.000000,0.000000,0.000000,0.000000,0.779183,0.772253,0.296586,0.094039,1.526331,754.000000,713.000000,41.000000,13.000000,0.000000,0.000000,0.000000,0.000000,0.000000;
#CREDIT:TonyAkita;
#NOTES:
// measure 0
0000
0000
0000
0000
,  // measure 1
0000
0000
0000
0000
,  // measure 2
0001
0000
0000
0000
0000
0000
0001
0000
0000
0000
0000
0000
0001
0000
0000
0000
0100
0010
0100
0000
0000
0000
0100
0000
,  // measure 3
0010
0000
0000
0000
0010
0000
1000
0000
0100
0000
0010
0000
0001
0000
0000
0000
1000
0001
1000
0000
0010
0000
0010
0000
,  // measure 4
0100
0000
0001
0010
0000
0001
0100
0000
0000
0101
0000
0000
,  // measure 5
0001
0000
0100
1000
0000
0100
0001
0000
0000
1100
0000
0000
,  // measure 6
0100
0000
1000
0010
0000
1000
0100
0000
0010
0001
0000
1000
,  // measure 7
0001
0000
1000
0010
0100
0001
1001
0000
0000
0110
0000
0000
,  // measure 8
1000
0000
0100
0000
0010
0000
0001
0000
0000
0000
0100
0000
0001
0000
0000
0000
0010
0001
0010
0000
0000
0000
0010
0000
,  // measure 9
0100
0000
1000
0100
0000
0001
0100
0000
1000
0001
0000
0100
,  // measure 10
0010
0000
1000
0000
0010
0000
0100
0000
0000
0000
0001
0000
0010
0000
0000
0000
0001
0100
0001
0000
0000
0000
0100
0000
,  // measure 11
0010
0000
1000
0100
0010
0001
1001
0000
0000
0110
0000
0000
,  // measure 12
1000
0000
0010
0000
0100
0000
0001
0000
0000
0000
0010
0000
0001
0000
0000
0000
0100
0001
0100
0000
0000
0000
0100
0000
,  // measure 13
0010
0000
1000
0010
0000
0001
0010
0000
1000
0001
0000
0010
,  // measure 14
0100
0000
1000
0000
0100
0000
0010
0000
0000
0000
0001
0000
0010
0000
0000
0000
0001
0100
0001
0000
0000
0000
0100
0000
,  // measure 15
0010
0000
1000
0100
0010
0001
1001
0000
1100
0000
0101
0000
,  // measure 16
1100
0000
0000
0000
0100
0000
0001
0000
0000
0000
0100
0000
1000
0000
0000
0000
0001
0100
0001
0000
0000
0000
0100
0000
,  // measure 17
0010
0000
0000
0000
1000
0000
0010
0000
0000
0000
0001
0000
0010
0000
0000
0000
1000
0010
1000
0000
0000
0000
0001
0000
,  // measure 18
0011
0000
0000
0000
0010
0000
1000
0000
0000
0000
0010
0000
0001
0000
0000
0000
1000
0010
1000
0000
0000
0000
0010
0000
,  // measure 19
0100
0000
0000
0000
0001
0000
0010
0000
0100
0000
1000
0000
1001
0000
0000
0000
0001
1000
0001
0000
0000
0000
0001
0000
,  // measure 20
0101
0000
0000
0000
0100
0000
1000
0000
0000
0000
0100
0000
0001
0000
0000
0000
1000
0100
1000
0000
0000
0000
0100
0000
,  // measure 21
0010
0000
0000
0000
0001
0000
0010
0000
0000
0000
1000
0000
0010
0000
0000
0000
0001
0010
0001
0000
0000
0000
1000
0000
,  // measure 22
1010
0000
0000
0000
0010
0000
0001
0000
0000
0000
0010
0000
1000
0000
0000
0000
0001
0010
0001
0000
0000
0000
0010
0000
,  // measure 23
0100
0000
1000
0010
0100
0001
1001
0000
0000
0110
0000
0000
,  // measure 24
1000
0100
0001
1000
0100
0001
1000
0100
0010
0001
0100
0100
,  // measure 25
0001
0100
1000
0001
0100
1000
0001
0100
0010
1000
0100
0100
,  // measure 26
1000
0100
0001
1000
0100
0001
1000
0100
0010
0001
0100
0100
,  // measure 27
0010
0000
0010
1000
0000
1000
0100
0000
0100
0001
0000
0100
,  // measure 28
1000
0010
0001
1000
0010
0001
1000
0010
0100
0001
0010
0010
,  // measure 29
0001
0010
1000
0001
0010
1000
0001
0010
0100
1000
0010
0010
,  // measure 30
1000
0010
0001
1000
0010
0001
1000
0010
0100
0001
0010
0010
,  // measure 31
0100
0000
0100
1000
0000
1000
0010
0000
0010
0100
0000
0100
,  // measure 32
0101
0000
0000
0000
0001
0000
1000
0000
0100
0000
0010
0000
0001
0000
0000
0000
1000
0010
1000
0000
0010
0000
0100
0000
,  // measure 33
0001
0000
0000
1000
0100
0001
0100
1000
0100
0010
0000
0000
,  // measure 34
0100
0000
1000
0000
0001
0000
0100
0000
0010
0000
1000
0000
0001
0000
0010
0100
0010
0100
0010
0000
0100
0000
1000
0000
,  // measure 35
0020
0000
0000
0030
0100
0001
0010
0000
0010
0001
0100
0010
,  // measure 36
1010
0000
0000
0000
1000
0000
0001
0000
0010
0000
0100
0000
1000
0000
0000
0000
0001
0100
0001
0000
0100
0000
0010
0000
,  // measure 37
1000
0000
0000
0001
0010
1000
0010
0001
0010
0100
0000
0000
,  // measure 38
0010
0000
0001
0000
1000
0000
0010
0000
0100
0000
0001
0000
1000
0000
0010
0100
0010
0100
0010
0000
0100
0000
0001
0000
,  // measure 39
0020
0000
0000
0030
0100
1000
1100
0000
0101
0000
1100
0000
,  // measure 40
0100
0000
1000
0000
0100
0000
2000
0000
0000
0000
0001
0000
0001
0000
0000
0000
0010
0000
3010
0000
0000
0000
0100
0001
,  // measure 41
0100
0000
0000
0000
0100
0000
0010
0000
1000
0000
0010
0000
0100
0000
0000
0000
0001
1000
0001
0000
0000
0000
0001
0000
,  // measure 42
0100
0000
0001
0000
0100
0000
0002
0000
0000
0000
1000
0000
1000
0000
0000
0000
0010
0000
0013
0000
0000
0000
0100
1000
,  // measure 43
0100
0000
0000
0000
0100
0000
0010
0000
0001
0000
0010
0000
0100
0000
0000
0000
1000
0001
1000
0000
0010
0000
0010
0000
,  // measure 44
1010
0000
1000
2000
0000
0001
0001
0000
0100
3100
0000
0010
,  // measure 45
0011
0000
0001
0002
0000
1000
1000
0000
0100
0103
0000
0010
,  // measure 46
2010
0000
0100
3100
0000
0010
0012
0000
0100
0103
0000
0010
,  // measure 47
1010
0000
0000
0000
0010
0000
0011
0000
0000
0000
0010
0000
1010
0000
0000
0000
1000
0001
1000
0000
0000
0001
0000
0010
,  // measure 48
0000
0100
0000
1000
0000
0001
0000
0100
0000
0010
0000
1000
0010
0100
0010
1000
0000
0010
0000
0100
0000
0001
0000
0000
,  // measure 49
0000
0010
0001
0010
0000
0001
0000
1000
0000
0002
0000
0000
0000
0100
0000
0103
0000
0000
0000
0000
0000
0010
0000
1000
,  // measure 50
0000
0010
0000
0100
0000
0001
0100
0010
0100
0001
0000
1000
0000
0010
0000
0100
0000
0001
0100
0010
0100
0001
0000
1000
,  // measure 51
0000
0100
0000
0010
0000
0001
0000
1000
0000
0002
0000
0000
0000
0100
0000
0103
0000
0000
0000
0000
0000
0001
0000
0100
,  // measure 52
0000
1000
0000
0100
0000
0001
0000
0010
0000
0100
0000
1000
0100
0010
0100
1000
0000
0100
0000
0010
0000
0001
0000
0000
,  // measure 53
0000
0010
0001
0010
0000
0001
0000
1000
0000
0002
0000
0000
0000
0100
0000
0103
0000
0000
0000
0000
0000
0001
0000
0100
,  // measure 54
0000
1000
0000
0100
0000
0001
0100
1000
0100
0001
0000
0010
0000
1000
0000
0010
0000
0001
0010
1000
0010
0001
0000
0010
,  // measure 55
0000
0100
0000
1000
0000
0010
0000
0100
0000
0110
0000
0000
0000
0001
0000
0011
0000
0000
0000
1000
0000
1000
0000
0010
,  // measure 56
0000
0001
0000
1000
0000
0010
0000
0001
0000
1000
0000
0010
0000
0100
0000
0001
0000
0010
0000
0010
0000
0001
0000
0010
,  // measure 57
0000
1000
0000
0001
0000
0010
0000
1000
0000
0001
0000
0010
0000
0100
0000
1000
0000
0010
0000
0010
0000
1000
0000
0010
,  // measure 58
0000
0001
0000
1000
0000
0010
0000
0001
0000
1000
0000
0010
0000
0100
0000
0001
0000
0010
0000
0010
0000
0100
0000
0000
,  // measure 59
0000
0100
0000
1000
0000
0000
0000
1000
0000
0010
0000
0000
0000
0010
0000
0001
0000
0000
0000
0010
0000
1000
0000
0100
,  // measure 60
0000
0001
0000
1000
0000
0100
0000
0001
0000
1000
0000
0100
0000
0010
0000
0001
0000
0100
0000
0100
0000
0001
0000
0100
,  // measure 61
0000
1000
0000
0001
0000
0100
0000
1000
0000
0001
0000
0100
0000
0010
0000
1000
0000
0100
0000
0100
0000
1000
0000
0100
,  // measure 62
0000
0001
0000
1000
0000
0100
0000
0001
0000
1000
0000
0100
0000
0010
0000
0001
0000
0100
0000
0100
0000
0010
0000
0000
,  // measure 63
0000
0010
0000
1000
0000
0000
0000
1000
0000
0100
0000
0000
0000
0100
0000
0010
0000
0000
0000
0010
0000
0011
0000
0000
,  // measure 64
0000
0001
0000
1000
0000
0100
0000
0010
0000
0001
0000
0000
0000
1000
0010
1000
0000
0010
0000
0100
0000
0001
0000
0000
,  // measure 65
0000
0000
0000
1000
0000
0100
0000
0001
0000
0100
0000
1000
0000
0100
0000
0010
0000
0000
0000
0000
0000
0100
0000
1000
,  // measure 66
0000
0001
0000
0100
0000
0010
0000
1000
0000
0001
0000
0010
0100
0010
0100
0010
0000
0100
0000
1000
0000
0020
0000
0000
,  // measure 67
0000
0000
0000
0030
0000
0100
0000
0001
0000
0010
0000
0000
0000
0001
0000
0100
0000
0000
0000
0001
0000
0011
0000
0000
,  // measure 68
0000
0010
0000
0100
0000
1000
0000
0001
0000
0100
0000
1000
0000
0100
0000
0001
0000
1000
0000
0001
0000
1000
0000
0100
,  // measure 69
0000
0010
0000
0001
0000
1000
0010
0100
0010
1000
0000
0001
0000
1000
0000
0010
0000
0100
0000
0001
0000
1000
0000
0100
,  // measure 70
0000
0001
0000
0100
0000
1000
0100
0010
0100
1000
0000
0100
0000
0001
0000
0100
0000
1000
0000
0001
0000
0020
0000
0000
,  // measure 71
0000
0000
0000
0000
0000
0100
0000
0100
0000
0130
0000
0000
0000
1000
0000
0100
0000
1000
0000
0100
0000
1100
0000
0000
,  // measure 72
0000
1010
0000
0000
0000
1001
0000
0000
0000
0101
0000
0000
0000
0011
0000
0000
0000
1001
0000
0000
0000
0110
0000
0000
,  // measure 73
0000
1000
0000
0100
0000
0010
0000
0001
0000
1001
0000
0000
0000
0000
0000
0110
0000
0000
0000
0000
0000
0000
0000
0000
;

//---------------dance-single - ----------------
#NOTEDATA:;
#CHARTNAME:;
#STEPSTYPE:dance-single;
#DESCRIPTION:;
#CHARTSTYLE:;
#DIFFICULTY:Medium;
#METER:12;
#RADARVALUES:0.483631,0.504241,0.311053,0.043403,0.560619,468.000000,425.000000,43.000000,6.000000,0.000000,0.000000,0.000000,0.000000,0.000000,0.483631,0.504241,0.311053,0.043403,0.560619,468.000000,425.000000,43.000000,6.000000,0.000000,0.000000,0.000000,0.000000,0.000000;
#CREDIT:;
#NOTES:
0000
0000
0000
0000
,
0000
0000
0000
0000
,
0001
0001
0001
0000
,
1000
0000
1000
0000
0000
0010
0001
0000
0000
0010
0000
0000
,
1000
0000
0000
0001
0000
0001
0010
0000
0000
0110
0000
0000
,
0100
0000
0100
1000
0000
1000
0010
0000
0000
1001
0000
0000
,
0001
0000
0000
1000
0000
1000
0010
0000
0000
0110
0000
0000
,
0100
0000
0100
0001
0010
0001
0010
0000
0000
0011
0000
0000
,
1000
0000
0000
0001
0000
0001
0010
0000
0000
0110
0000
0000
,
0100
0000
1000
0001
0000
1000
0001
0000
0000
0110
0000
0000
,
1000
0000
0000
0001
0000
0001
0010
0000
0000
0110
0000
0000
,
0100
0000
0100
1000
0010
1000
0010
0000
0000
1010
0000
0000
,
0001
0000
1000
0010
0000
0100
0001
0000
0000
0011
0000
0000
,
0010
0000
0001
1000
0000
0001
1000
0000
0000
0110
0000
0000
,
0001
0000
1000
0100
0000
0010
0001
0000
0100
0010
0000
1000
,
0001
0000
0010
0001
0010
0001
0011
0000
0000
1001
0000
0000
,
2000
0010
3010
1001
,
1000
0000
1000
0000
0000
0010
0001
0000
0000
0110
0000
0000
,
0002
0010
0013
1001
,
0001
0000
0001
1000
0100
0010
0001
0000
0000
1100
0000
0000
,
0002
0100
0103
1001
,
0001
0000
0001
0000
0000
0100
1000
0000
0000
0110
0000
0000
,
2000
0100
3100
1001
,
1000
0000
1000
0001
0010
0100
1000
0000
0000
0110
0000
0000
,
1000
0000
0010
1000
0000
0010
1000
0000
0000
0001
0000
0000
,
0010
0000
0001
0010
0000
0100
1000
0000
0000
0010
0000
0000
,
0100
0000
0001
0100
0000
0001
0100
0000
0000
0100
0000
0000
,
0010
0000
0010
0000
0000
1000
0001
0000
0000
0110
0000
0000
,
0001
0000
0010
0001
0000
0010
0001
0000
0000
1000
0000
0000
,
0010
0000
1000
0010
0000
0100
0001
0000
0000
0010
0000
0000
,
0100
0000
1000
0100
0000
1000
0100
0000
0000
0100
0000
0000
,
0010
0000
0010
0000
0000
0001
1000
0000
0000
0110
0000
0000
,
0001
0000
0000
1000
0010
0100
0001
0000
0000
0010
0000
0001
,
1000
0000
0000
0010
0100
0010
0100
0010
0100
0010
0000
0000
,
1000
0001
0000
1000
0000
1000
0010
0000
0000
1000
0100
0010
,
0001
0000
1001
0000
,
1000
0000
0000
0001
0010
0100
1000
0000
0000
0010
0000
1000
,
0001
0000
0000
0010
0100
0010
0100
0010
0100
0010
0000
0000
,
0001
1000
0000
0010
0000
0010
0100
0000
0000
0001
0010
0100
,
1000
0000
0000
0000
0000
0000
0010
0000
0010
0000
0010
0000
,
0020
0000
0000
1000
0000
0000
0001
0000
0000
1030
0000
1000
,
0100
0000
0001
0100
0000
1000
0100
0000
0000
0110
0000
0000
,
0020
0000
0000
0001
0000
0000
1000
0000
0000
0031
0000
0001
,
0100
0000
1000
0100
0000
0001
0100
0000
0000
0110
0000
0000
,
1010
0000
1000
0001
0000
1000
0001
0000
1000
0010
0000
0000
,
0011
0000
0001
1000
0000
0001
1000
0000
0001
0010
0000
0000
,
1010
0000
1000
0001
0000
0000
0011
0000
0001
1000
0000
0000
,
1010
0000
0000
0000
0000
0000
0011
0000
0000
0000
0000
0000
1000
0000
0001
0000
1000
0000
1001
0000
0000
0001
0000
0000
,
0000
0001
0000
0010
0000
0000
0000
0010
0000
0100
0000
0000
0000
0100
0000
1000
0000
0000
0000
1000
0000
0010
0000
0000
,
0000
0000
0000
1000
0000
0000
0000
1000
0000
0001
0000
0000
0000
0000
0000
1001
0000
0000
0000
0000
0000
1000
0000
0000
,
0000
0100
0000
0010
0000
0000
0000
0000
0000
1000
0000
0000
0000
0100
0000
0010
0000
0000
0000
0000
0000
1000
0000
0000
,
0000
1000
0000
0001
0000
0000
0000
0001
0000
0100
0000
0000
0000
0000
0000
0110
0000
0000
0000
0000
0000
1000
0000
0000
,
0000
1000
0000
0010
0000
0000
0000
0010
0000
0100
0000
0000
0000
0100
0000
0001
0000
0000
0000
0001
0000
0010
0000
0000
,
0000
0000
0000
0001
0000
0000
0000
0001
0000
1000
0000
0000
0000
0000
0000
1001
0000
0000
0000
0000
0000
0001
0000
0000
,
0000
0100
0000
0010
0000
0000
0000
0000
0000
0001
0000
0000
0000
0100
0000
0010
0000
0000
0000
0000
0000
0001
0000
0000
,
0000
0001
0000
1000
0000
0000
0000
1000
0000
0100
0000
0000
0000
0000
0000
0110
0000
0000
0000
0000
0000
0001
0000
0000
,
0000
0010
0000
0001
0000
0000
0000
0010
0000
0001
0000
0000
0000
0000
0000
1000
0000
0000
0000
0000
0000
0010
0000
0000
,
0000
1000
0000
0010
0000
0000
0000
0100
0000
0001
0000
0000
0000
0000
0000
1000
0000
0000
0000
0000
0000
0001
0000
0000
,
0000
0010
0000
0001
0000
0000
0000
0010
0000
0001
0000
0000
0000
0000
0000
0010
0000
0000
0000
0000
0000
0100
0000
0000
,
0000
0100
0000
0000
0000
0000
0000
1000
0000
0001
0000
0000
0000
0000
0000
0110
0000
0000
0000
0000
0000
1000
0000
0000
,
0000
0010
0000
1000
0000
0000
0000
0010
0000
1000
0000
0000
0000
0000
0000
0001
0000
0000
0000
0000
0000
0010
0000
0000
,
0000
0001
0000
0010
0000
0000
0000
0100
0000
1000
0000
0000
0000
0000
0000
0001
0000
0000
0000
0000
0000
1000
0000
0000
,
0000
0010
0000
1000
0000
0000
0000
0010
0000
1000
0000
0000
0000
0000
0000
0010
0000
0000
0000
0000
0000
0100
0000
0000
,
0000
0100
0000
0000
0000
0000
0000
0001
0000
1000
0000
0000
0000
0000
0000
0110
0000
0000
0000
0000
0000
0001
0000
0000
,
0000
0000
0000
1000
0000
0010
0000
0100
0000
0001
0000
0000
0000
0000
0000
0010
0000
0000
0000
0001
0000
1000
0000
0000
,
0000
0000
0000
0010
0000
0100
0000
0010
0000
0100
0000
0010
0000
0100
0000
0010
0000
0000
0000
0000
0000
1000
0000
0001
,
0000
0000
0000
0010
0000
0000
0000
0010
0000
0100
0000
0000
0000
0000
0000
1000
0000
0010
0000
0100
0000
0001
0000
0000
,
0000
0000
0000
1001
0000
0110
0000
1000
,
0000
0000
0000
0001
0000
0010
0000
0100
0000
1000
0000
0000
0000
0000
0000
0010
0000
0000
0000
1000
0000
0001
0000
0000
,
0000
0000
0000
0010
0000
0100
0000
0010
0000
0100
0000
0010
0000
0100
0000
0010
0000
0000
0000
0000
0000
0001
0000
1000
,
0000
0000
0000
0010
0000
0000
0000
0010
0000
0100
0000
0000
0000
0000
0000
0001
0000
0010
0000
0100
0000
1000
0000
0000
,
0000
0000
0000
1001
0000
0110
0000
1000
,
0000
1000
0000
0000
0000
1000
0000
0000
0000
0001
0000
0000
0000
0001
0000
0000
0000
0001
0000
0000
0000
0110
0000
0000
,
0000
0000
0000
0000
0000
1000
0000
0100
0000
0010
0000
0000
0000
0000
0000
0000
0000
0000
0000
0000
0000
0000
0000
0000
;

//---------------dance-single - ----------------
#NOTEDATA:;
#CHARTNAME:;
#STEPSTYPE:dance-single;
#DESCRIPTION:;
#CHARTSTYLE:;
#DIFFICULTY:Easy;
#METER:7;
#RADARVALUES:0.298652,0.398085,0.188079,0.014468,0.014468,289.000000,263.000000,26.000000,2.000000,0.000000,0.000000,0.000000,0.000000,0.000000,0.298652,0.398085,0.188079,0.014468,0.014468,289.000000,263.000000,26.000000,2.000000,0.000000,0.000000,0.000000,0.000000,0.000000;
#CREDIT:TonyAkita;
#NOTES:
0000
0000
0000
0000
,
0000
0000
0000
0000
,
0001
0001
0001
0000
,
0010
0100
1000
0000
,
0001
0001
1000
1000
,
0010
0100
1000
0100
,
0001
0001
1000
1000
,
0010
0100
0001
0000
,
1000
1000
0001
0001
,
0010
0100
0001
0100
,
1000
1000
0001
0001
,
0010
0100
1000
0000
,
0001
1000
0001
1000
,
0001
0100
1000
0100
,
0001
1000
0001
1000
,
0100
0010
0001
0000
,
1000
0001
1000
0000
,
0010
0010
0110
0000
,
0001
1000
0001
0000
,
0010
0010
0110
0000
,
1000
0100
0001
0000
,
0100
0100
0110
0000
,
0001
0100
1000
0000
,
0100
0100
0110
0000
,
1000
0100
0001
0010
,
1000
0100
0010
0001
,
1000
0100
0001
0010
,
1001
1000
1000
0001
,
0001
0100
1000
0010
,
0001
0100
0010
1000
,
0001
0100
1000
0010
,
1001
0001
0001
1000
,
1000
0001
1000
0100
,
0100
0010
0001
0010
,
0100
1000
0100
0001
,
0100
0000
1001
1001
,
0001
1000
0001
0100
,
0100
0010
1000
0010
,
0100
0001
0100
1000
,
0100
0000
1001
1001
,
1000
1000
2000
0000
,
3010
0100
0001
0000
,
0001
0001
0002
0000
,
0013
0100
1000
0000
,
1010
1000
0100
0000
,
0011
0001
0100
0000
,
1010
0001
0011
1000
,
1010
0000
0011
0000
1010
0000
1001
1000
,
0000
1000
0000
0001
0000
0001
0000
1000
,
0000
0100
0000
0010
0000
0001
0000
0010
,
0000
1000
0000
0010
0000
0001
0000
0100
,
0000
0010
0000
0100
0000
0000
0000
0001
,
0000
0001
0000
1000
0000
1000
0000
0001
,
0000
0100
0000
0010
0000
1000
0000
0010
,
0000
0001
0000
0010
0000
1000
0000
0100
,
0000
0010
0000
0100
0000
0000
0000
1000
,
0000
0100
0000
0001
0000
0010
0000
1000
,
0000
0100
0000
0010
0000
0001
0000
1000
,
0000
0100
0000
0001
0000
0010
0000
1001
,
0000
1000
0000
1000
0000
0001
0000
0001
,
0000
0100
0000
1000
0000
0010
0000
0001
,
0000
0100
0000
0010
0000
1000
0000
0001
,
0000
0100
0000
1000
0000
0010
0000
1001
,
0000
0001
0000
0001
0000
1000
0000
1000
,
0000
0001
0000
1000
0000
0100
0000
0100
,
0000
0010
0000
0001
0000
0010
0000
0100
,
0000
1000
0000
0100
0000
0001
0000
0100
,
0000
0000
0000
1001
0000
1001
0000
0001
,
0000
1000
0000
0001
0000
1000
0000
0010
,
0000
0100
0000
0001
0000
1000
0000
0100
,
0000
0001
0000
0100
0000
1000
0000
0100
,
0000
0000
0000
1001
0000
1001
0000
1000
,
0000
1000
0000
0000
0000
1000
0000
0000
0000
0001
0000
0000
0000
0001
0000
0000
0000
0001
0000
0000
0000
1001
0000
0000
,
0000
0000
0000
0110
0000
0000
0000
0000
;

//---------------dance-single - ----------------
#NOTEDATA:;
#CHARTNAME:;
#STEPSTYPE:dance-single;
#DESCRIPTION:;
#CHARTSTYLE:;
#DIFFICULTY:Beginner;
#METER:3;
#RADARVALUES:0.192212,0.291929,0.180845,0.057870,0.000000,186.000000,161.000000,25.000000,8.000000,0.000000,0.000000,0.000000,0.000000,0.000000,0.192212,0.291929,0.180845,0.057870,0.000000,186.000000,161.000000,25.000000,8.000000,0.000000,0.000000,0.000000,0.000000,0.000000;
#CREDIT:TonyAkita;
#NOTES:
0000
0000
0000
0000
,
0000
0000
0000
0000
,
0001
0001
0001
0000
,
1000
1000
1000
0000
,
0001
0000
0001
0000
,
1000
0000
1000
0000
,
0001
0000
1000
0000
,
0010
0000
1001
0000
,
1000
0000
1000
0000
,
0001
0000
0001
0000
,
1000
0000
0001
0000
,
0010
0000
1001
0000
,
0001
0000
0010
0000
,
1000
0000
0010
0000
,
0001
0000
1000
0000
,
0100
0000
1001
0000
,
1000
1000
1000
0000
,
0001
0000
0001
0000
,
1000
1000
1000
0000
,
0100
0000
0010
0000
,
0001
0001
0001
0000
,
1000
0000
1000
0000
,
0001
0001
0001
0000
,
0100
0000
1001
0000
,
1000
1000
1000
0000
,
0001
0001
0001
0000
,
1000
1000
1000
0000
,
0100
0000
1000
0000
,
0001
0001
0001
0000
,
1000
1000
1000
0000
,
0001
0001
0001
0000
,
0100
0000
0001
0000
,
1001
0000
1000
0000
,
0010
0000
0001
0000
,
0010
0000
1000
0000
,
0220
0000
0330
0000
,
1001
0000
0001
0000
,
0010
0000
1000
0000
,
0010
0000
0001
0000
,
0220
0000
0330
0000
,
1000
1000
1000
0000
,
0001
0000
0010
0000
,
0001
0001
0001
0000
,
1000
0000
0010
0000
,
1001
0000
0100
0000
,
1001
0000
0010
0000
,
1001
0000
0110
0000
,
1001
0000
1001
0000
1001
0000
0000
1000
,
0000
0000
0000
0100
0000
0000
0000
0010
,
0000
0000
0000
0001
0000
0000
0000
0100
,
0000
0000
0000
1000
0000
0000
0000
0100
,
0000
0000
0000
1001
0000
0000
0000
0001
,
0000
0000
0000
0010
0000
0000
0000
0100
,
0000
0000
0000
1000
0000
0000
0000
0010
,
0000
0000
0000
0001
0000
0000
0000
0010
,
0000
0000
0000
1001
0000
0000
0000
1000
,
0000
1000
0000
1000
0000
0000
0000
0001
,
0000
0001
0000
0001
0000
0000
0000
1000
,
0000
1000
0000
1000
0000
0000
0000
0100
,
0000
0000
0000
0010
0000
0000
0000
0001
,
0000
0001
0000
0001
0000
0000
0000
1000
,
0000
1000
0000
1000
0000
0000
0000
0001
,
0000
0001
0000
0001
0000
0000
0000
0100
,
0000
0000
0000
0010
0000
0000
0000
1001
,
0000
0000
0000
1000
0000
0000
0000
0100
,
0000
0000
0000
0001
0000
0000
0000
0100
,
0000
0000
0000
1000
0000
0000
0000
0220
,
0000
0000
0000
0330
0000
0000
0000
1001
,
0000
0000
0000
0001
0000
0000
0000
0100
,
0000
0000
0000
1000
0000
0000
0000
0100
,
0000
0000
0000
0001
0000
0000
0000
0220
,
0000
0000
0000
0330
0000
0000
0000
1001
,
0000
0000
0000
0110
0000
0000
0000
1001
,
0000
0000
0000
0110
0000
0000
0000
0000
;
