#VERSION:0.83;
#TITLE:Getting Away With ...;
#SUBTITLE:(Gran Turismo 4 Vrenna-Walsh Remix);
#ARTIST:Papa Roach;
#TITLETRANSLIT:;
#SUBTITLETRANSLIT:;
#ARTISTTRANSLIT:;
#GENRE:;
#ORIGIN:;
#CREDIT:;
#BANNER:Getting Away With ... (Gran Turismo 4 Vrenna-Walsh Remix).png;
#BACKGROUND:Getting Away With ... (Gran Turismo 4 Vrenna-Walsh Remix)-bg.png;
#PREVIEWVID:;
#JACKET:Getting Away With ... (Gran Turismo 4 Vrenna-Walsh Remix)-jacket.png;
#CDIMAGE:;
#DISCIMAGE:;
#LYRICSPATH:;
#CDTITLE:;
#MUSIC:Getting Away With ... (Gran Turismo 4 Vrenna-Walsh Remix).ogg;
#OFFSET:-0.063000;
#SAMPLESTART:38.496181;
#SAMPLELENGTH:16.799999;
#SELECTABLE:YES;
#BPMS:0.000=125.000,
195.000=62.500,
211.000=125.000;
#STOPS:129.750=0.480;
#DELAYS:;
#WARPS:;
#TIMESIGNATURES:0.000=4=4;
#TICKCOUNTS:0.000=4;
#COMBOS:0.000=1;
#SPEEDS:0.000=1.000=0.000=0;
#SCROLLS:0.000=1.000;
#FAKES:;
#LABELS:0.000=Song Start;
#BGCHANGES:;
#KEYSOUNDS:;
#ATTACKS:
;

//---------------dance-single - ----------------
#NOTEDATA:;
#CHARTNAME:;
#STEPSTYPE:dance-single;
#DESCRIPTION:;
#CHARTSTYLE:;
#DIFFICULTY:Challenge;
#METER:11;
#RADARVALUES:0.415692,0.561224,0.299758,0.146223,0.175468,398.000000,357.000000,41.000000,20.000000,105.000000,0.000000,0.000000,0.000000,0.000000,0.415692,0.561224,0.299758,0.146223,0.175468,398.000000,357.000000,41.000000,20.000000,105.000000,0.000000,0.000000,0.000000,0.000000;
#CREDIT:;
#NOTES:
// measure 0
0000
0000
0000
0000
,  // measure 1
0000
0000
0000
0000
,  // measure 2
0000
0000
0000
0000
,  // measure 3
0000
0000
0000
0000
,  // measure 4
0001
0000
0010
0000
1100
0000
0000
0000
0001
0010
0000
0000
0110
0000
0000
0000
,  // measure 5
1000
0000
0100
0000
0011
0000
0000
0000
1000
0100
0000
0000
0110
0000
0000
0000
,  // measure 6
2000
0001
3020
0230
,  // measure 7
0302
0000
2000
3003
,  // measure 8
0001
0001
0100
0100
1000
0100
0001
0001
,  // measure 9
1000
1000
0100
0100
0001
0100
1000
0000
,  // measure 10
0001
0001
0100
0100
1000
0100
0001
0000
,  // measure 11
1000
1000
0001
0001
1000
0000
1001
0000
,  // measure 12
1000
1000
0100
0100
0001
0100
1000
1000
,  // measure 13
0001
0001
0100
0100
1000
0100
0001
0000
,  // measure 14
1000
1000
0100
0100
0001
0100
1000
0000
,  // measure 15
0001
0001
1000
1000
0001
0000
1001
0000
,  // measure 16
0100
0000
0000
0000
1001
0000
0000
0000
0100
0010
0000
0000
1001
0000
0000
0000
,  // measure 17
MMMM
0000
0000
0000
1001
0000
0000
0000
0100
0010
0000
0000
1001
0000
0000
0000
,  // measure 18
0001
0010
0100
1000
0001
0000
1000
0000
,  // measure 19
0001
1000
0001
1000
,  // measure 20
0001
0100
0010
0000
0110
MMMM
0110
0000
,  // measure 21
0010
1000
0001
0000
1001
MMMM
1001
0000
,  // measure 22
0001
0010
0100
0000
0110
MMMM
0110
0000
,  // measure 23
1001
0000
0000
1000
0010
0000
0000
0010
0100
0000
0000
0100
0001
0000
0000
0000
,  // measure 24
0001
0010
0100
0000
0110
MMMM
0110
0000
,  // measure 25
0100
1000
0001
0000
1001
MMMM
1001
0000
,  // measure 26
0001
0000
0100
0000
0010
0000
0000
0000
0110
0000
MMMM
0000
0110
0000
0000
1000
,  // measure 27
0001
0000
0000
0001
0010
0000
0000
0010
0100
0000
0000
0100
1000
0000
0000
1000
,  // measure 28
0010
0000
0000
0010
0100
0000
0000
0100
0001
0000
0000
0001
1000
0000
0000
0000
,  // measure 29
MMMM
MMMM
MMMM
MMMM
,  // measure 30
1000
1000
MMMM
0000
MMMM
0000
MMMM
0000
,  // measure 31
1000
1000
MMMM
0000
MMMM
0000
MMMM
0000
,  // measure 32
1000
0000
1000
0000
0001
1000
0001
1000
0000
0000
0000
0000
0001
0000
0100
0000
,  // measure 33
1000
0100
0001
0100
1000
0100
0010
0100
,  // measure 34
0010
0100
0001
1000
0001
1000
0001
0010
,  // measure 35
1000
0010
0001
0010
1000
0010
0100
0010
,  // measure 36
0100
0000
0010
0000
0001
1000
0000
0000
1001
0000
0000
0000
1000
0000
0100
0000
,  // measure 37
0001
0100
1000
0100
0001
0100
0010
0100
,  // measure 38
0010
0100
1000
0001
1000
0001
1000
0010
,  // measure 39
0001
0010
1000
0010
0001
0010
0100
0010
,  // measure 40
0100
0000
0010
0000
1000
0001
0000
0000
1001
0000
0000
0000
2000
0000
0000
0000
,  // measure 41
0010
0001
0001
3200
,  // measure 42
0010
0001
0001
0320
,  // measure 43
1000
0100
0100
0032
,  // measure 44
0010
0000
2003
0000
0001
0000
3002
1000
,  // measure 45
1000
1000
MMM0
0000
0010
0000
2003
0001
,  // measure 46
0001
0001
0MMM
0000
0100
0000
3002
1000
,  // measure 47
1000
1000
MMM0
0000
0100
0000
1000
1000
,  // measure 48
1000
1000
1003
0010
0100
0100
0010
0000
,  // measure 49
0000
0000
0000
0000
,  // measure 50
0000
0000
0000
0000
0000
0000
0000
0000
0000
0000
0000
0000
0000
0001
1000
0000
,  // measure 51
1000
0100
0010
0000
0001
1000
0001
0000
0000
0001
1000
0000
0001
0100
0010
0000
,  // measure 52
0010
1000
0001
0000
1001
0000
0110
0000
1001
0000
MMMM
0000
1000
0000
0100
0000
,  // measure 53
0010
0000
0110
MMMM
0110
0000
0010
0001
,  // measure 54
1000
0000
1001
MMMM
1001
0000
1000
0010
,  // measure 55
0100
0000
0000
0000
0110
0000
MMMM
0000
0110
0000
0000
0000
1001
0000
0000
0001
,  // measure 56
0010
0000
0000
0010
0100
0000
0000
0100
1000
0000
0000
0000
1000
0000
0010
0000
,  // measure 57
0100
0000
0110
MMMM
0110
0000
0100
0001
,  // measure 58
1000
0000
1001
MMMM
1001
0000
1000
0100
,  // measure 59
0010
0000
0000
0000
0110
0000
MMMM
0000
0110
0000
0000
0001
1000
0000
0000
1000
,  // measure 60
0010
0000
0000
0010
0100
0000
0000
0100
0001
0000
0000
0001
0010
0000
0000
0010
,  // measure 61
0100
0000
0000
0100
1000
0000
0000
1000
0001
0000
0000
0001
0100
0000
0000
0100
,  // measure 62
1000
0000
0000
1000
0001
0000
0000
0001
0010
0000
0000
0010
2000
0000
0000
3100
,  // measure 63
0020
0000
0000
0031
2000
0000
0000
3010
0200
0000
0000
0000
0302
0000
0000
0000
,  // measure 64
0100
0000
0000
0000
0000
0100
0000
0000
1000
0000
0000
0000
0000
0000
0000
0000
,  // measure 65
1000
0000
0000
0000
0000
1000
0000
0000
0010
0000
0000
0000
0000
0000
0000
0000
,  // measure 66
0010
0000
0000
0000
0000
0010
0000
0000
2003
0000
0000
0002
3003
0000
0000
0000
;
