#TITLE:Candyland;
#SUBTITLE:;
#ARTIST:Tobu;
#TITLETRANSLIT:;
#SUBTITLETRANSLIT:;
#ARTISTTRANSLIT:;
#GENRE:ELECTRONIC;
#CREDIT:;
#MUSIC:Candyland.ogg;
#BANNER:Candyland.png;
#BACKGROUND:Candyland-bg.png;
#CDTITLE:;
#SAMPLESTART:59.989;
#SAMPLELENGTH:15.000;
#SELECTABLE:YES;
#OFFSET:0.001;
#BPMS:0.000=128.000;
#STOPS:;
#DISPLAYBPM:128.000;
#BGCHANGES:;
#FGCHANGES:;

//--------------- dance-single - forcednature ----------------
#NOTES:
     dance-single:
     forcednature:
     Beginner:
     1:
     0,0,0,0,0:
0000
0000
0000
0000
,
0000
0000
0000
0000
,
0000
0000
0000
0000
,
0000
0000
0000
0000
,
1000
0000
0000
0000
,
0001
0000
0000
0000
,
0010
0000
0000
0000
,
0100
0000
0000
0000
,
1000
0000
0000
0000
,
0010
0000
0000
0000
,
1000
0000
0000
0000
,
0100
0000
0000
0000
,
0010
0000
0000
0000
,
0001
0000
0000
0000
,
0100
0000
0000
0000
,
0010
0000
0010
0000
,
0010
0000
0000
0000
,
1000
0000
0000
0000
,
0001
0000
0000
0000
,
0100
0000
0000
0000
,
0001
0000
0000
0000
,
0010
0000
0000
0000
,
0100
0000
0000
0000
,
1000
0000
0000
0000
,
0010
0000
0000
0000
,
1000
0000
0000
0000
,
0001
0000
0000
0000
,
0100
0000
0000
0000
,
0010
0000
0010
0000
,
0100
0000
0000
0000
,
0100
0000
0100
0000
,
0020
0000
0030
0000
,
1000
0000
0000
0000
,
0001
0000
0100
0000
,
0001
0000
0000
0000
,
1000
0000
0100
0000
,
0010
0000
0000
0000
,
0100
0000
1000
0000
,
0010
0000
0000
0000
,
0100
0000
0001
0000
,
0000
1001
0000
0000
,
1000
0000
0100
0000
,
1000
0000
0000
0000
,
0010
0000
0100
0000
,
0001
0000
0000
0000
,
0010
0000
0100
0000
,
1000
0000
0000
0000
,
0010
0000
0100
0000
,
0000
1001
0000
0000
,
1000
0000
0010
0000
,
1000
0000
0000
0000
,
0001
0000
0100
0000
,
0001
0000
0000
0000
,
1000
0000
0100
0000
,
1000
0000
0000
0000
,
0000
0001
0000
0010
;

//--------------- dance-single - forcednature ----------------
#NOTES:
     dance-single:
     forcednature:
     Easy:
     3:
     0,0,0,0,0:
0000
0000
0000
0000
,
0000
0000
0000
0000
,
0000
0000
0000
0000
,
0000
0000
0000
0000
,
1000
0001
0001
0000
,
0100
0000
0010
0000
,
1000
0001
0001
0000
,
0010
0000
0100
0000
,
1000
1000
0001
0000
,
0100
0100
0010
0000
,
0001
0001
1000
0000
,
0100
0100
0010
0000
,
1000
0001
1000
0001
,
1000
0001
1000
0000
,
0001
1000
0001
1000
,
0001
1000
0001
0000
,
0020
0000
0000
0030
,
0100
1000
0100
0000
,
0020
0000
0000
0030
,
0100
0001
0100
0000
,
0020
0000
0000
0030
,
1000
0001
1000
0000
,
0020
0000
0000
0030
,
0001
1000
0001
0000
,
0200
0000
0301
0000
,
0100
1000
0100
0000
,
0020
0000
0031
0000
,
0010
1000
0010
0000
,
1000
0001
1000
0001
,
0100
0010
0100
0000
,
0010
0010
0010
0010
,
0010
0100
0000
0000
,
1001
0001
0100
0000
,
0001
0010
0100
1000
,
0010
0100
0010
0000
,
1000
0001
0100
0001
,
1000
0100
0010
0000
,
0001
1000
0100
1000
,
0010
0100
0001
0000
,
0010
0001
1000
0100
,
0000
0110
1000
0001
,
0000
1000
0010
0100
,
0001
1000
0100
0010
,
0000
0100
1000
0001
,
0010
0001
1000
0010
,
0000
0100
0001
1000
,
0100
1000
0001
0100
,
0000
0010
0000
0010
,
0000
0110
0001
1000
,
0000
0100
1000
0001
,
0010
0001
1000
0010
,
0000
1000
0100
0010
,
0001
1000
0100
1000
,
0000
0001
0100
0010
,
1000
0001
0100
0010
,
0000
0100
0000
0010
;

//--------------- dance-single - forcednature ----------------
#NOTES:
     dance-single:
     forcednature:
     Medium:
     5:
     0,0,0,0,0:
0000
0000
0000
0000
,
0000
0000
0000
0000
,
0000
0000
0000
0000
,
0000
0000
0000
0000
,
1000
0001
0100
0000
,
0010
1000
0001
0100
,
0010
1000
0100
0000
,
0010
0001
1000
0100
,
0020
0000
0000
0200
0000
0330
0000
0000
,
2000
0000
0000
0002
0000
3003
0000
0000
,
2000
0000
0000
0020
0000
3030
0000
0000
,
0200
0000
0000
0002
0000
0303
0000
0000
,
0010
0010
0010
0010
,
0010
0010
0010
0010
,
0100
0100
0100
0100
,
0100
0100
0100
0100
,
0000
1000
0000
0001
0000
0000
0100
0000
,
0000
0001
0000
1000
0000
0010
0000
0100
,
0000
0001
0000
0010
0000
0000
0100
0000
,
0000
1000
0000
0001
0000
1000
0000
0100
,
0000
1000
0000
0010
0000
0000
0100
0000
,
0000
0001
0000
0100
0000
1000
0000
0100
,
0000
1000
0000
0001
0000
0000
0010
0000
,
0000
0101
0000
1010
,
0000
0010
0000
1000
0000
0000
0001
0000
,
0000
0100
0000
0001
0000
0010
0000
0000
,
0000
0100
0000
1000
0000
0010
0000
0000
,
0000
1000
0000
0001
0000
0000
0100
0000
,
0000
0010
0000
1000
0000
0000
0001
0000
,
0000
1100
0000
0101
,
1000
0001
1000
0001
,
1000
0100
0100
0000
,
1000
0001
0000
0100
0000
0000
0010
0000
,
0000
1000
0000
0100
0000
1000
0000
0001
,
0000
0100
0000
0010
0000
0000
1000
0000
,
0000
0001
0000
0010
0000
0100
0000
1000
,
0000
0010
0000
0100
0000
0000
0001
0000
,
0000
1000
0000
0001
0000
0100
0000
0010
,
0000
1000
0000
0100
0000
0000
0010
0000
,
0000
0001
0000
1000
0000
0010
0000
0100
,
0000
0001
1000
0001
0000
0000
0010
0000
,
0000
0100
0000
1000
0000
0010
0000
0100
,
0000
0001
0000
1000
0000
0000
0100
0000
,
0000
1000
0000
0010
0000
0100
0000
0001
,
0000
1000
0000
0100
0000
0000
0010
0000
,
0000
0100
0000
1000
0000
0001
0000
0010
,
0000
0001
0000
1000
0000
0000
0010
0000
,
0000
0100
0000
0001
0000
1000
0000
0010
,
0000
0100
0001
0100
0000
0000
0010
0000
,
0000
1000
0000
0100
0000
0010
0000
0100
,
0000
1000
0000
0001
0000
0000
0010
0000
,
0000
0100
0000
1000
0000
0001
0000
1000
,
0000
0010
0000
0100
0000
0000
0001
0000
,
0000
1000
0000
0001
0000
0100
0000
0010
,
0000
1000
0000
0001
0000
0000
0010
0000
,
0000
0100
0000
1000
0000
0010
0000
0100
;

//--------------- dance-single - forcednature ----------------
#NOTES:
     dance-single:
     forcednature:
     Hard:
     8:
     0,0,0,0,0:
0000
0000
0000
0000
,
0000
0000
0000
0000
,
0000
0000
0000
0000
,
0000
0000
0000
0000
,
1000
0010
1000
0001
0100
0000
0000
0001
,
0010
0100
1000
0100
0010
0100
1000
0010
,
0100
0001
1000
0010
1000
0000
0000
0001
,
0010
0001
1000
0100
0010
0001
0010
0100
,
2000
0000
0000
0002
0000
0000
3003
0000
,
0002
0000
0000
0200
0003
0000
0310
1000
,
0200
0000
0000
0020
0000
0000
0330
0000
,
0002
0000
0000
2003
0000
0000
3100
1000
,
0010
0000
0010
0100
0001
0000
0001
0000
,
0010
0000
0010
0100
1000
0000
1000
0001
,
0100
0000
0100
0010
1000
0000
1000
0000
,
0100
0000
0100
0010
0001
0000
0001
1000
,
0010
1000
0001
0100
0000
0000
0110
0000
,
0000
0001
0010
0100
0000
1000
0001
1000
,
0000
0010
1000
0001
0000
0000
0110
0000
,
0000
1000
0100
1000
0000
0001
0100
0010
,
0000
1000
0100
0010
0000
0000
1001
0000
,
0000
0001
0100
0010
0000
1000
0010
0100
,
0000
0001
0010
0100
0000
0000
1001
0000
,
0000
1100
0000
0101
,
0000
0001
1000
0010
0000
0000
1001
0000
,
0000
1000
0100
0010
0000
0100
0000
0000
,
0000
1000
0001
0100
0000
0010
0000
0000
,
0000
0100
0001
0010
0000
0100
0010
0001
,
0000
1000
0010
0100
0001
0100
0010
1000
,
0001
0010
0100
1000
0010
0100
0001
1000
,
0100
0010
0100
0010
0001
1000
0001
1000
,
0010
1000
0001
0100
0010
0100
0010
0000
,
1001
1100
0101
1001
,
0001
0010
0100
1000
0010
0100
0001
0000
,
1010
1001
0101
1001
,
1000
0100
1000
0001
0010
0100
1000
0000
,
1010
0110
0101
1001
,
0001
0100
0010
1000
0100
0010
0001
0000
,
0101
1001
1100
1001
,
1000
0010
1000
0001
0010
0100
1000
0000
,
0000
1001
1010
0101
,
0001
0010
0001
1000
0010
0100
0001
0000
,
1100
1001
0110
0101
,
0001
0010
0001
1000
0010
0100
0001
0000
,
1001
1100
1001
0011
,
0001
0100
0010
1000
0010
0100
0001
0000
,
0101
1001
1010
0110
,
0000
0010
0000
0010
0000
0100
0000
0100
,
0000
0101
1001
1010
,
1000
0100
0010
0001
1000
0100
0010
0000
,
0110
1100
1001
0011
,
0001
0100
0010
1000
0010
0100
0001
0000
,
1001
1100
1001
0101
,
1000
0010
0100
0001
0010
0100
1000
0000
,
0000
0100
0000
1000
0000
0001
0000
0010
,
0000
0001
0000
1000
0000
0010
0000
0100
;

//--------------- dance-single - forcednature ----------------
#NOTES:
     dance-single:
     forcednature:
     Challenge:
     10:
     0,0,0,0,0:
0000
0000
0000
0000
,
0000
0000
0000
0000
,
0000
0000
0000
0000
,
0000
0000
0000
0000
,
1000
0001
0100
0001
0100
0000
0000
0010
,
1000
0100
0010
0100
1000
0010
0001
0010
,
1000
0100
0010
0100
1000
0000
0000
0001
,
0010
1000
0010
0001
0100
0010
1000
0001
,
1000
0100
0001
0100
0010
0001
1000
0010
,
0100
1000
0100
0010
1000
0100
0010
0001
,
1000
0010
0001
0010
0100
0010
1000
0001
,
1000
0100
0001
0100
0010
0001
1000
0010
,
1010
1010
0101
0101
,
0011
0011
1001
1100
,
1001
1001
0110
0110
,
1000
0001
1000
0001
1000
0001
1000
0001
,
0000
1000
0100
0001
0000
0000
0110
0000
,
0000
0000
0001
0000
0100
0000
0010
0000
0000
0000
1000
0000
0001
0010
0001
0000
,
0000
1000
0010
0100
0000
0000
1001
0000
,
0000
0000
0001
0000
0010
0000
0001
0000
0000
0000
1000
0000
0010
1000
0010
0000
,
0000
0100
0001
1000
0000
0000
0110
0000
,
0000
0000
0001
0000
1000
0000
0100
0000
0000
0000
0010
0000
0001
0010
0001
0000
,
0000
1000
0010
0100
0000
0000
1001
0000
,
1000
0000
1100
1000
0001
0000
0011
0000
,
1000
0000
0000
0001
0000
0000
0100
0000
0010
1000
0000
1000
0002
0000
0000
0003
,
0010
0000
0000
0100
0000
0000
1000
0000
0001
0100
0000
0100
0020
0000
0000
0030
,
1000
0000
0000
0001
0000
0000
1000
0000
0010
0100
0000
0100
0002
0000
0000
0003
,
1000
0000
0000
0100
0000
0000
0010
0000
0100
1000
0000
1000
0020
0000
0000
0030
,
0100
0000
0001
0000
1000
0000
0010
0000
1000
0000
0001
0000
0020
0000
0000
0030
,
0100
0000
1000
0000
0001
0000
1000
0000
0010
0000
0100
0000
0002
0000
0000
0003
,
1000
0001
0100
0010
1000
0010
0001
0010
,
1000
0000
0001
0000
0100
0000
0010
0000
1000
0000
0100
0000
1000
0001
1000
0000
,
0010
1000
0001
0100
0010
0000
1001
0000
,
1000
0000
0100
0000
0001
0000
0100
0000
0010
0000
0001
0000
1000
0001
1000
0000
,
0001
0100
0010
1000
0100
0000
1001
0000
,
1000
0000
0010
0000
0001
0000
0010
0000
0100
0000
0001
0000
1000
0001
1000
0000
,
0010
0100
0001
1000
0100
0000
0110
0000
,
1000
0000
0010
0000
0100
0000
1000
0000
0100
0000
0010
0000
1000
0001
1000
0000
,
0001
0010
0100
1000
0010
0000
1001
0000
,
0000
0000
0001
0000
0100
0000
1000
0000
0000
0000
0100
0000
0010
0100
0010
0000
,
0000
1000
0110
0001
1000
0000
1100
0000
,
0001
0000
0100
0000
1000
0000
0100
0000
0010
0000
1000
0000
0001
1000
0001
0000
,
1000
0010
1000
0100
0010
0000
0110
0000
,
1000
0000
0100
0000
0001
0000
0100
0000
1000
0000
0010
0000
1000
0100
1000
0000
,
0001
0100
0010
1000
0100
0000
1001
0000
,
0001
0000
0010
0000
1000
0000
0010
0000
0001
0000
0100
0000
0001
0010
0001
0000
,
1000
0100
0010
0001
0100
0000
1001
0000
,
0000
0000
1000
0000
0010
0000
0001
0000
0000
0000
0010
0000
1000
0100
1000
0000
,
0000
0100
1001
0001
1000
0000
0110
0000
,
0001
0000
1000
0000
0100
0000
0001
0000
0100
0000
0010
0000
0001
1000
0001
0000
,
1000
0100
0010
0001
0100
0000
1001
0000
,
1000
0000
0001
0000
0010
0000
1000
0000
0010
0000
0100
0000
1000
0001
1000
0000
,
0001
0100
0010
1000
0100
0000
0110
0000
,
0001
0000
1000
0000
0100
0000
0001
0000
0100
0000
1000
0000
0001
1000
0001
0000
,
0000
0010
0001
0100
0000
0000
0110
0000
,
0000
0000
0001
0000
1000
0000
0100
0000
0000
0000
0001
0000
0100
0010
0100
0000
;

//--------------- dance-double - forcednature ----------------
#NOTES:
     dance-double:
     forcednature:
     Easy:
     3:
     0,0,0,0,0:
00000000
00000000
00000000
00000000
,
00000000
00000000
00000000
00000000
,
00000000
00000000
00000000
00000000
,
00000000
00000000
00000000
00000000
,
00010000
00001000
00010000
00000000
,
00000010
00000000
00001000
00000000
,
00000001
00000010
00000001
00000000
,
00001000
00000000
00000100
00000000
,
00010000
00001000
00010000
00000000
,
00001000
00000000
01000000
00000000
,
00100000
10000000
00100000
00000000
,
10000000
00000000
01000000
00000000
,
00100000
00100000
00100000
00100000
,
00010000
00100000
00010000
00000000
,
00000010
00000010
00000010
00000010
,
00001000
00000010
00001000
00000000
,
00000100
00000000
00000000
00000000
,
00010000
00001000
01000000
00010000
,
10000000
00000000
00000000
00000000
,
00100000
10000000
00010000
01000000
,
00100000
00000000
00000000
00000000
,
01000000
00001000
00010000
00001000
,
00100000
00000000
00000000
00000000
,
00010000
00000000
00010000
00000000
,
00100000
00001000
00010000
00000000
,
00000010
00001000
00000100
00000010
,
00000000
00000001
00000100
00000010
,
00000000
00001000
00000100
00000000
,
00010000
00010000
00010000
00000000
,
00001000
00001000
00001000
00000000
,
00010000
00001000
00010000
00001000
,
00010000
00001000
00010000
00000000
,
01000000
01000000
01000000
00000000
,
10000000
00100000
01000000
00010000
,
01000000
00100000
10000000
00000000
,
01000000
00100000
00010000
01000000
,
00001000
00010000
00000100
00000000
,
00001000
00000010
00001000
00000001
,
00000100
00000010
00001000
00000000
,
00000100
00010000
00001000
00100000
,
00001000
00010000
00000100
00000000
,
00010000
00001000
01000000
00010000
,
10000000
01000000
00100000
00000000
,
01000000
10000000
00010000
00100000
,
01000000
00100000
00010000
00000000
,
01000000
00001000
00010000
00000100
,
00001000
00000010
00000100
00000000
,
00000001
00000010
00000100
00001000
,
00000010
00000100
00000001
00000000
,
00000100
00000001
00001000
00000100
,
00001000
00000001
00000100
00000000
,
00000010
00010000
00001000
01000000
,
00010000
10000000
01000000
00000000
,
00100000
01000000
10000000
00010000
,
01000000
00100000
10000000
00000000
,
00010000
00100000
01000000
10000000
;

//--------------- dance-double - forcednature ----------------
#NOTES:
     dance-double:
     forcednature:
     Medium:
     5:
     0,0,0,0,0:
00000000
00000000
00000000
00000000
,
00000000
00000000
00000000
00000000
,
00000000
00000000
00000000
00000000
,
00000000
00000000
00000000
00000000
,
00001000
00010000
00000100
00000000
,
00001000
00000001
00000100
00000010
,
00001000
00000100
00000010
00000000
,
00000100
00010000
00001000
00100000
,
00010000
00010000
00010000
00010000
,
01000000
01000000
01000000
01000000
,
10000000
10000000
10000000
10000000
,
00100000
00100000
00100000
00100000
,
00010000
00001000
00010000
00001000
,
00010000
00001000
00010000
00001000
,
00000100
00000010
00000100
00000010
,
00000100
00000010
00000100
00000010
,
00000000
00000100
00000000
00020000
00000000
00030000
00001000
00000000
,
00000000
01000000
00000000
00010000
00000000
10000000
00000000
00100000
,
00000000
10000000
00000000
02000000
00000000
03000000
00100000
00000000
,
00000000
00010000
00000000
01000000
00000000
00001000
00000000
00010000
,
00000000
00000010
00000000
00002000
00000000
00003000
00000100
00000000
,
00000000
00010000
00000000
00001000
00000000
00010000
00000000
00000010
,
00000000
00001000
00000000
00000002
00000000
00000003
00000100
00000000
,
00000000
00000001
00000000
00000010
,
00000000
00000100
00000000
00020000
00000000
00030000
00001000
00000000
,
00000000
00100000
00000000
00010000
00000000
01000000
00000000
00000000
,
00000000
00100000
00000000
10000000
00000000
00010000
00000000
00000000
,
00000000
01000000
00000000
00001000
00000000
00010000
00000000
00000100
,
00000000
00001000
00000000
00000002
00000000
00000003
00000100
00000000
,
00000000
00000010
00000000
00001000
,
00000100
00000100
00000100
00000100
,
00000010
00000100
00001000
00000000
,
00011000
00000000
00000000
01000000
00000000
00000000
00001000
00000000
,
00000000
10000000
00000000
00010000
00000000
01000000
00000000
00100000
,
00000000
01000000
00000000
00010000
00000000
00000000
00100000
00000000
,
00000000
01000000
00000000
10000000
00000000
00010000
00000000
01000000
,
00000000
00001000
00000000
00010000
00000000
00000000
00000100
00000000
,
00000000
00001000
00000000
00000010
00000000
00000100
00000000
00000001
,
00000000
00000010
00000000
00000100
00000000
00000000
00001000
00000000
,
00000000
00000010
00000000
00000100
00000000
00000001
00000000
00001000
,
00000000
00000110
00000000
00010000
,
00000000
00001000
00000000
01000000
00000000
00010000
00000000
01000000
,
00000000
00100000
00000000
10000000
00000000
00000000
01000000
00000000
,
00000000
10000000
00000000
00100000
00000000
10000000
00000000
01000000
,
00000000
00100000
00000000
00010000
00000000
00000000
01000000
00000000
,
00000000
00001000
00000000
00010000
00000000
00000010
00000000
00000100
,
00000000
00000001
00000000
00000010
00000000
00000000
00000100
00000000
,
00000000
00001000
00000000
00000001
00000000
00000100
00000000
00000010
,
00000000
00001001
00000000
00000001
,
00000000
00001000
00000000
00000100
00000000
00001000
00000000
00000010
,
00000000
00000100
00000000
00000001
00000000
00000000
00001000
00000000
,
00000000
00000100
00000000
00010000
00000000
00001000
00000000
00100000
,
00000000
00010000
00000000
00100000
00000000
00000000
00001000
00000000
,
00000000
01000000
00000000
00010000
00000000
10000000
00000000
00100000
,
00000000
01000000
00000000
00010000
00000000
00000000
00100000
00000000
,
00000000
00001000
00000000
00010000
00000000
00000010
00000000
00001000
;

//--------------- dance-double - forcednature ----------------
#NOTES:
     dance-double:
     forcednature:
     Hard:
     8:
     0,0,0,0,0:
00000000
00000000
00000000
00000000
,
00000000
00000000
00000000
00000000
,
00000000
00000000
00000000
00000000
,
00000000
00000000
00000000
00000000
,
00010000
00001000
01000000
00010000
00100000
00000000
00000000
01000000
,
10000000
00010000
00100000
01000000
10000000
00010000
01000000
00100000
,
01000000
00010000
00100000
00001000
00010000
00000000
00000000
00000010
,
00001000
00000001
00000100
00000010
00001000
00000100
00000010
00000100
,
00001000
00000001
00000010
00000100
00001000
00000001
00000100
00000010
,
00001000
00000100
00010000
00001000
01000000
00010000
10000000
00100000
,
10000000
00010000
00100000
01000000
10000000
00010000
01000000
00100000
,
01000000
00010000
00100000
00001000
00010000
00000010
00001000
00000001
,
00000100
00001001
00001100
00011000
,
01010000
10010000
10100000
01100000
,
01010000
00110000
00011000
00001100
,
00001001
00001010
00000110
00000101
,
00000001
00000010
00000100
00002000
00000000
00000000
00003010
00000000
,
00000000
00010000
00001000
01000000
00000000
00001000
00010000
00000100
,
00000000
00010000
00001000
00200000
00000000
00000000
00310000
00000000
,
00000000
10000000
00100000
01000000
00000000
00010000
00100000
01000000
,
00000000
10000000
00010000
02000000
00000000
00000000
03001000
00000000
,
00000000
00010000
00000100
00001000
00000000
00000001
00000100
00000010
,
00000000
00001000
00000100
00000020
00000000
00000000
00000230
00000000
,
00000000
00020300
00000000
00032000
,
00000000
01003000
00010000
10010000
00000000
00000000
00100000
00000000
,
00000000
01000000
00010000
00110000
00000000
00001000
00000000
00000000
,
00000000
00010000
00000010
00001100
00000000
00000001
00000000
00000000
,
00000000
00000010
00000100
00001100
00000000
00000010
00000100
00000001
,
00000000
00001000
00000100
00010100
00000000
00000000
00002000
00000000
,
00000000
02003000
00000000
03010000
,
10000000
00100000
10000000
01000000
00100000
00010000
01000000
00100000
,
10000000
00010000
01000000
00100000
00000000
10000000
00010000
10000000
,
00010000
00100000
01000000
10000000
00100000
00000000
01000000
00000000
,
00010000
00100000
00001000
00010000
00000100
00001000
00000001
00000100
,
00000010
00001000
00000100
00000010
00000001
00000000
00000100
00000000
,
00000010
00001000
00000001
00000010
00000100
00001000
00000001
00000100
,
00000010
00001000
00000100
00010000
00001000
00000000
01000000
00000000
,
00010000
10000000
00100000
10000000
00010000
00100000
01000000
10000000
,
00010000
01000000
00100000
01000000
00010000
00000000
00100000
00000000
,
00000000
00001000
00010000
00000100
00000000
00001000
00000001
00000100
,
00000000
00000000
00001001
00000001
00001000
00000000
00000100
00000000
,
00010000
00001000
01000000
00010000
10000000
00100000
10000000
01000000
,
00100000
01000000
10000000
00010000
00100000
00000000
00001000
00000000
,
00010000
00000010
00001000
00000001
00000100
00000010
00001000
00000100
,
00000010
00000001
00000100
00000010
00001000
00000000
00000100
00000000
,
00000010
00000100
00001000
00000001
00000100
00000001
00000010
00000001
,
00001000
00000010
00001000
00000100
00010000
00000000
00001000
00000000
,
00000000
01000000
00010000
10000000
00000000
00100000
10000000
00010000
,
00000000
00000000
10010000
10000000
00100000
00000000
01000000
00000000
,
00010000
00100000
01000000
00100000
00010000
00100000
00001000
00010000
,
00000100
00001000
00000001
00000100
00000010
00000000
00001000
00000000
,
00000100
00010000
00001000
00100000
00001000
00010000
00000010
00010000
,
00001000
01000000
00010000
10000000
01000000
00000000
00100000
00000000
,
01000000
10000000
00010000
01000000
00001000
00010000
00000100
00001000
,
00000000
00000100
00000010
00000001
00000000
00000000
00001000
00000000
,
00000000
00000100
00010000
00001000
00000000
00100000
00001000
00010000
;

//--------------- dance-double - forcednature ----------------
#NOTES:
     dance-double:
     forcednature:
     Challenge:
     10:
     0,0,0,0,0:
00000000
00000000
00000000
00000000
,
00000000
00000000
00000000
00000000
,
00000000
00000000
00000000
00000000
,
00000000
00000000
00000000
00000000
,
00001000
00010000
00000100
00001000
00000100
00000000
00000000
00001000
,
00000001
00000100
00000010
00001000
00000100
00000001
00000100
00001000
,
00000010
00000100
00001000
00000100
00000010
00000000
00000000
00001000
,
00000100
00010000
00001000
00100000
00010000
10000000
00100000
01000000
,
10000000
01000000
00100000
20000000
00000000
00000000
00000000
31000000
,
00100000
00010000
01000000
00002000
00000000
00000000
00013000
00000100
,
00001000
00000010
00000100
00002000
00000000
00000000
00000000
00003100
,
00000001
00001000
00000100
00020000
00000000
00000000
01030000
10000000
,
11000000
10010000
01010000
10010000
,
10100000
10010000
01010000
00011000
,
00001100
00001001
00000011
00001001
,
00000110
00001010
00000101
00000110
,
00000001
00000100
00001000
00000200
00000000
00000300
00000110
00000000
,
00000000
00000000
00000001
00000000
00000010
00000000
00001000
00000000
00000000
00000000
00000010
00000000
00000100
00001000
00000100
00000000
,
00000000
00010000
00001000
02000000
00000000
03000000
01100000
00000000
,
00000000
00000000
10000000
00000000
00100000
00000000
10000000
00000000
00000000
00000000
01000000
00000000
00100000
00010000
00100000
00000000
,
00000000
00010000
01000000
00002000
00000000
00003000
00001100
00000000
,
00000000
00000000
00000001
00000000
00000100
00000000
00000010
00000000
00000000
00000000
00001000
00000000
00000100
00010000
00000100
00000000
,
00000000
00010000
00001000
02000000
00000000
03000000
02100000
00000000
,
00000000
03000000
12000000
00000000
00000000
03000000
02010000
03000000
,
01000000
00000000
00000000
00000000
00000000
00000000
00000000
00000000
00000000
00100000
00000000
00000000
00000000
00000000
00000000
00000000
00000000
00000000
01000000
00000000
00000000
00000000
00000000
00000000
00010000
00000000
00000000
00100000
00000000
00000000
00000000
00000000
00000000
00100000
00000000
00000000
02000000
00000000
00000000
00000000
00000000
00000000
00000000
00000000
03000000
00000000
00000000
00000000
,
00010000
00000000
00000000
00000000
00000000
00000000
00000000
00000000
00000000
00001000
00000000
00000000
00000000
00000000
00000000
00000000
00000000
00000000
00000100
00000000
00000000
00000000
00000000
00000000
00000001
00000000
00000000
00001000
00000000
00000000
00000000
00000000
00000000
00001000
00000000
00000000
00000200
00000000
00000000
00000000
00000000
00000000
00000000
00000000
00000300
00000000
00000000
00000000
,
00000010
00000000
00000000
00000000
00000000
00000000
00000000
00000000
00000000
00000001
00000000
00000000
00000000
00000000
00000000
00000000
00000000
00000000
00000100
00000000
00000000
00000000
00000000
00000000
00001000
00000000
00000000
00010000
00000000
00000000
00000000
00000000
00000000
00010000
00000000
00000000
00200000
00000000
00000000
00000000
00000000
00000000
00000000
00000000
00300000
00000000
00000000
00000000
,
10000000
00000000
00000000
00000000
00000000
00000000
00000000
00000000
00000000
00010000
00000000
00000000
00000000
00000000
00000000
00000000
00000000
00000000
01000000
00000000
00000000
00000000
00000000
00000000
00001000
00000000
00000000
00010000
00000000
00000000
00000000
00000000
00000000
00010000
00000000
00000000
00000020
00000000
00000000
00000000
00000000
00000000
00000000
00000000
00000030
00000000
00000000
00000000
,
00001000
00000000
00000000
00000100
00000000
00000000
00000001
00000000
00000000
00000100
00000000
00000000
00001000
00000000
00000000
00000010
00000000
00000000
00000200
00000000
00000000
00000000
00000300
00000000
,
00000001
00000000
00000000
00000100
00000000
00000000
00001000
00000000
00000000
00000100
00000000
00000000
00000010
00000000
00000000
00010000
00000000
00000000
00002000
00000000
00000000
00000000
00003000
00000000
,
00100000
00010000
10000000
00100000
00010000
00100000
10000000
01000000
,
00010000
00000000
00001000
00000000
00010000
00000000
00100000
00000000
10000000
00000000
00010000
00000000
01000000
00100000
01000000
00000000
,
10000000
01000000
00010000
10000000
01000000
00000000
01010000
00000000
,
00001000
00000000
00000010
00000000
00001000
00000000
00000001
00000000
00000010
00000000
00000100
00000000
00001000
00000001
00001000
00000000
,
00000010
00000100
00000001
00000010
00000100
00000000
00000110
00000000
,
00010000
00000000
00001000
00000000
01000000
00000000
00010000
00000000
10000000
00000000
00100000
00000000
10000000
01000000
10000000
00000000
,
00100000
01000000
00010000
00100000
01000000
00000000
10010000
00000000
,
00001000
00000000
00010000
00000000
01000000
00000000
00010000
00000000
00001000
00000000
00000010
00000000
00000001
00001000
00000001
00000000
,
00001000
00000010
00000100
00001000
00010000
00000000
01100000
00000000
,
00000000
00000000
10000000
00000000
01000000
00000000
00010000
00000000
00000000
00000000
01000000
00000000
10000000
00100000
10000000
00000000
,
00000000
00010000
10010000
10000000
00100000
00000000
01100000
00000000
,
00001000
00000000
00010000
00000000
00000010
00000000
00000100
00000000
00000001
00000000
00000010
00000000
00001000
00010000
00001000
00000000
,
00100000
00010000
10000000
00100000
01000000
00000000
10010000
00000000
,
10000000
00000000
01000000
00000000
10000000
00000000
00100000
00000000
01000000
00000000
10000000
00000000
01000000
00010000
01000000
00000000
,
00001000
00010000
00000100
00000010
00001000
00000000
00011000
00000000
,
00000010
00000000
00001000
00000000
00000100
00000000
00000001
00000000
00000100
00000000
00000010
00000000
00000100
00001000
00000100
00000000
,
00010000
00001000
00100000
01000000
00010000
00000000
01100000
00000000
,
00000000
00000000
10000000
00000000
00100000
00000000
00010000
00000000
00000000
00000000
00001000
00000000
00000100
00000010
00000100
00000000
,
00000000
00000001
00001001
00001000
00000100
00000000
00011000
00000000
,
01000000
00000000
00010000
00000000
10000000
00000000
01000000
00000000
00100000
00000000
10000000
00000000
00100000
00010000
00100000
00000000
,
00001000
00010000
00000010
00000100
00001000
00000000
00011000
00000000
,
00000100
00000000
00001000
00000000
00000001
00000000
00000100
00000000
00001000
00000000
00000100
00000000
00000010
00001000
00000010
00000000
,
00010000
00001000
00100000
01000000
10000000
00000000
10010000
00000000
,
10000000
00000000
00100000
00000000
10000000
00000000
01000000
00000000
00010000
00000000
00001000
00000000
00100000
00010000
00100000
00000000
,
00000000
00001000
00010000
00000010
00000000
00000000
00000110
00000000
,
00000000
00000000
00000001
00000000
00000100
00000000
00001000
00000000
00000000
00000000
00010000
00000000
00000100
00000010
00000100
00000000
;
