#TITLE:Break the Rules;
#SUBTITLE:;
#ARTIST:kors k feat.ЯIRE;
#TITLETRANSLIT:;
#SUBTITLETRANSLIT:;
#ARTISTTRANSLIT:;
#GENRE:;
#CREDIT:hooky;
#BANNER:Break the Rules.png;
#BACKGROUND:Break the Rules-bg.png;
#LYRICSPATH:;
#CDTITLE:;
#MUSIC:Break the Rules.ogg;
#OFFSET:0.000000;
#SAMPLESTART:16.620005;
#SAMPLELENGTH:12.760000;
#SELECTABLE:YES;
#BPMS:0.000000=130.000000
;
#STOPS:
;
#BGCHANGES:;
#KEYSOUNDS:;
#ATTACKS:;

//---------------dance-single - hooky----------------
#NOTES:
     dance-single:
     hooky:
     Hard:
     13:
     0.568531,0.638806,0.254374,0.123084,0.443102,485.000000,454.000000,31.000000,15.000000,0.000000,0.000000,0.568531,0.638806,0.254374,0.123084,0.443102,485.000000,454.000000,31.000000,15.000000,0.000000,0.000000:
// measure 0
0000
0000
0000
0000
,  // measure 1
0000
0000
0000
0000
,  // measure 2
0000
0000
0000
0000
,  // measure 3
0000
0000
0000
0000
,  // measure 4
0000
0000
0000
0000
,  // measure 5
0001
1000
0010
0000
0100
0100
0100
0000
,  // measure 6
0010
1000
0001
0000
1000
1000
1000
0000
,  // measure 7
0100
0100
0010
0000
0010
0010
0001
1000
,  // measure 8
2002
3000
0010
0103
,  // measure 9
0100
0000
0010
1000
0010
0000
0100
0000
0010
0000
0000
0010
0000
0000
0100
0010
,  // measure 10
0100
0000
0001
0000
0010
0000
0001
0000
0100
0000
0001
0100
0000
0000
0010
0000
,  // measure 11
0010
0000
1000
0100
1000
0000
0001
0000
0100
0000
0000
0100
0000
0000
0001
0000
,  // measure 12
0001
0000
0010
0000
0001
0000
0001
0000
0010
0000
0000
1100
0000
0000
0101
0000
,  // measure 13
0000
0000
1000
0010
0100
0000
0010
0000
0100
0000
0000
0100
0000
0000
0100
0001
,  // measure 14
0100
0000
0010
0000
1000
0000
0100
0010
0100
0000
0010
0001
0000
0000
0100
0000
,  // measure 15
0000
0000
0010
0100
0001
0000
0100
0000
0001
0000
0000
0001
0000
0000
1000
0000
,  // measure 16
1000
0000
1000
0000
0001
0000
0001
0000
1010
0000
0000
1100
0000
0000
0110
0000
,  // measure 17
1001
0000
0000
0001
0100
0000
0100
0000
0010
0000
0000
1000
0100
0000
1000
0000
,  // measure 18
0001
0000
0000
0001
0010
0000
0001
0000
1000
0000
0010
0000
1000
0000
1000
0000
,  // measure 19
0001
0000
0000
0001
0100
0000
0010
0000
0100
0000
0000
0100
0010
0000
0100
0000
,  // measure 20
0001
0000
0000
0001
0010
0000
0001
0000
0010
0000
0010
0000
0100
0000
0000
0000
,  // measure 21
0010
0000
0000
0010
0100
0000
0010
0000
0001
0000
1000
0000
0010
0000
0100
0000
,  // measure 22
0001
0000
0000
0001
0010
0000
0001
0000
0100
0000
0100
0000
0010
0000
1000
0000
,  // measure 23
0002
0000
0103
0010
1000
0100
1000
0000
,  // measure 24
0120
0100
1000
0031
,  // measure 25
1100
0000
0000
0100
1000
0000
0010
0000
0100
0000
0100
0000
0001
0000
0100
0000
,  // measure 26
0101
0000
0000
0001
0010
0000
0001
0000
0100
0000
0001
0000
1000
0000
0010
0000
,  // measure 27
0200
0000
0301
0001
0020
0000
0031
0100
,  // measure 28
0020
0000
1000
0000
0001
0000
0130
0100
,  // measure 29
0110
0000
0000
0000
1000
0000
0001
0000
0010
0000
0000
0001
0100
0000
0100
0000
,  // measure 30
0010
1000
0010
0001
0010
0100
0010
0100
,  // measure 31
1010
0000
0010
0100
0011
0000
0001
0010
,  // measure 32
2002
0000
0000
0000
0000
0000
0000
0000
3003
0000
0001
1000
0001
0000
0001
0000
,  // measure 33
0101
0000
0001
1000
0000
0010
0000
0010
0000
0000
0100
0000
0100
0000
0010
0000
,  // measure 34
0010
0000
1000
0100
0000
0100
0000
1000
0000
0000
0001
0000
1000
0000
0001
0000
,  // measure 35
0010
0000
0001
0000
0010
0000
0001
1000
0000
0000
0001
0000
1000
0000
0001
0000
,  // measure 36
0100
0000
0010
0100
0000
0001
0000
0010
0000
0000
0000
0000
0001
0000
1000
0000
,  // measure 37
0001
0000
0100
0001
0000
0001
0000
0001
0000
0000
0010
0000
0001
0000
0100
0000
,  // measure 38
0010
0000
1000
0010
0000
1000
0000
0001
0000
0000
0100
0000
0010
0000
1000
0000
,  // measure 39
1000
0000
0001
0000
1000
0001
0000
0100
0000
0000
0100
0000
0001
0000
0001
0000
,  // measure 40
1000
0000
0001
0010
0000
0001
0000
0020
0000
0000
0000
0000
0031
0000
0001
0000
,  // measure 41
1000
0000
0010
0100
0000
0001
0000
0100
0000
0000
0001
0000
0001
0000
1000
0000
,  // measure 42
0001
0000
0010
0001
0000
0010
0000
0100
0000
0000
0010
0000
0001
0000
1000
0000
,  // measure 43
0100
0000
0010
0000
0100
0010
0000
0001
0000
0000
0010
0000
0100
0000
0100
0000
,  // measure 44
1000
0000
0001
1000
0000
0001
0000
0100
0000
0000
0000
0000
0001
0000
1000
0000
,  // measure 45
0002
0010
0013
0000
0200
0010
0310
0000
,  // measure 46
0002
1000
1003
0000
1000
0100
0010
0010
,  // measure 47
0011
0000
0100
0100
0101
0000
0001
0001
,  // measure 48
0022
0000
0000
0000
0033
0000
0000
0001
0001
0000
0100
0000
0001
0000
0100
0000
,  // measure 49
0010
0000
0010
0000
1000
0000
0100
0000
1000
0000
0001
1000
0000
0000
0010
0100
,  // measure 50
0010
0000
0100
0000
0001
0000
0010
0000
0001
0000
0000
0001
0000
0000
0001
0000
,  // measure 51
0000
0000
0100
0001
0100
0000
0010
0100
0010
0100
0000
0010
0000
0000
1000
0000
,  // measure 52
0100
0000
1000
0000
0010
0000
0100
0000
0011
0000
0000
1100
0000
0000
1010
0000
,  // measure 53
0000
0000
0010
0100
0010
0000
0010
1000
0100
0000
0000
0100
0000
0000
1000
0010
,  // measure 54
0100
0000
0100
0001
0010
0000
0001
0100
0001
0100
0000
0010
0000
0000
0010
0000
,  // measure 55
0000
0000
0100
0001
0010
0000
0010
0001
0100
0001
0000
0100
0000
0000
0010
0000
,  // measure 56
0010
0000
1000
0000
1000
0000
0001
0000
0101
0000
0000
1010
0000
0000
1100
0000
,  // measure 57
0000
0000
0010
0100
0001
0000
0100
0010
0100
0001
0000
0100
0000
0000
0010
1000
,  // measure 58
0010
0000
0100
0010
0100
0010
1000
0000
0100
1000
0000
0010
0000
0000
0010
0000
,  // measure 59
0000
0000
0100
0001
0010
0000
0010
0001
0100
0000
0001
0100
0000
0000
0001
0000
,  // measure 60
0001
0000
1000
0000
1000
0000
0010
0000
0110
0000
0000
1100
0000
0000
0011
0000
,  // measure 61
0000
0000
0100
0010
1000
0000
0100
1000
0100
1000
0000
0001
0000
0000
0100
0001
,  // measure 62
0010
0000
0010
0001
0100
0000
0001
1000
0001
0100
0001
0100
0000
0000
0101
0000
,  // measure 63
0000
0000
0010
0100
0001
0000
0001
1000
0010
1000
0010
0100
0000
0000
0010
0000
,  // measure 64
1000
0000
0001
0000
0100
0000
0001
0000
0011
0000
0000
0101
0000
0000
1001
0000
;
