#VERSION:0.83;
#TITLE:You are the Miserable (Laur Remix);
#SUBTITLE:;
#ARTIST:t+pazolite;
#TITLETRANSLIT:;
#SUBTITLETRANSLIT:;
#ARTISTTRANSLIT:;
#GENRE:;
#CREDIT:;
#MUSIC:You are the Miserable (Laur Remix).ogg;
#BANNER:You are the Miserable (Laur Remix).png;
#BACKGROUND:You are the Miserable (Laur Remix)-bg.png;
#CDTITLE:;
#SAMPLESTART:111.208;
#SAMPLELENGTH:15.000;
#SELECTABLE:YES;
#OFFSET:1.213;
#BPMS:0.000=190.000
,32.000=95.000
,34.000=190.000
,82.000=380.000
,83.000=190.000
,194.000=95.000
,210.000=190.000
;
#STOPS:82.000=0.158;
#DISPLAYBPM:95.000:190.000;
#BGCHANGES:;
#FGCHANGES:;

//--------------- dance-single - Talkion ----------------
#NOTEDATA:;
#STEPSTYPE:dance-single;
#DESCRIPTION:Talkion;
#DIFFICULTY:Beginner;
#METER:5;
#RADARVALUES:0,0,0,0,0;
#NOTES:
0000
0000
0000
0000
,
0000
0000
0000
0000
,
0000
0000
0000
0000
,
0000
0000
0000
0000
,
0000
0000
0000
0000
,
1000
0000
0000
1000
0000
0000
0000
0000
,
0001
0000
0000
0001
0000
0000
0000
0000
,
0100
0000
0000
0100
0000
0000
0000
0000
,
0010
0000
1000
0000
,
1000
0000
1000
0000
,
1000
0000
0001
0000
,
0001
0000
0001
0000
,
0001
0000
0100
0000
,
0100
0000
0100
0000
,
0100
0000
0100
0010
,
0100
0010
0100
0000
,
0000
0000
0001
0000
,
0001
0000
0001
0000
,
0001
0000
1000
0000
,
1000
0000
1000
0000
,
1000
0000
0000
0000
,
0010
0000
0010
0000
,
0010
0000
0100
0100
,
0100
0000
2002
0000
,
3003
0000
0001
0000
,
0001
0000
1000
0000
,
1000
0000
0001
0000
,
0001
0000
1000
0001
,
1000
0000
0010
0000
,
0010
0000
0100
0000
,
0100
0000
0010
0100
,
0010
0000
0200
0000
,
0300
0000
0001
0000
,
0010
0000
1000
0000
,
0010
0010
0001
0000
,
0100
0000
1000
0000
,
0100
0100
0001
0000
,
0010
0000
1000
0000
,
0010
0010
0001
0000
,
0100
0000
2000
0000
,
3000
0000
0100
0000
,
0010
0000
1000
0000
,
0100
0100
0010
0000
,
0001
0000
0100
0000
,
0010
0010
0100
0000
,
0001
0000
1000
0000
,
0100
0100
0010
0000
,
0100
0000
2000
0000
,
3000
0000
0001
0000
,
0000
0001
0010
0000
,
0000
0010
1000
0000
,
0000
1000
0100
0000
,
0000
0100
0001
0000
,
0010
0000
0100
0000
,
1000
0000
0001
0000
,
0100
0000
0010
0000
,
1000
0000
0001
0000
,
0010
0000
0100
0000
,
1000
0000
0001
0000
,
0100
0000
0010
0000
,
1000
0000
0100
0000
,
0100
0000
0100
0000
,
0100
0000
0010
0000
,
0010
0000
0010
0000
,
0010
0000
0001
0001
,
0001
0000
1000
1000
,
1000
0000
0001
1000
,
0001
1000
0020
0000
,
0030
0000
0100
0000
,
1001
0000
0010
0000
,
1001
0000
0100
0000
,
1001
0000
0010
0000
,
1001
0000
1000
0000
,
0110
0000
0001
0000
,
0110
0000
1000
0000
,
0110
0000
0001
0000
,
0110
0000
0100
0000
,
1001
0000
0010
0000
,
1001
0000
0100
0000
,
1001
0000
0010
0000
,
1001
0000
0001
0000
,
0110
0000
1000
0000
,
0110
0000
0001
0000
,
0010
0000
0200
0000
,
0300
0000
1000
0000
,
1000
0000
0001
0001
,
0001
0000
0100
0000
,
0100
0000
0010
0010
,
0010
0000
1000
0000
,
1000
0000
0100
0100
,
0100
0000
0010
0000
,
0010
0000
0001
0001
,
0001
0000
1000
0000
,
1000
0000
0010
0010
,
0100
0100
0001
0000
,
0001
0000
0010
0010
,
0100
0100
1000
0000
,
1000
0000
0010
0010
,
0100
0100
0001
0000
,
0001
0000
1000
0100
,
1000
0100
2000
0000
,
0000
0000
3000
0000
,
0000
0000
2000
0000
,
0000
0000
3000
0000
,
0000
0000
2000
0000
,
0000
0000
3000
0000
,
0000
0000
2000
0000
,
0000
0000
3000
0000
;

//--------------- dance-single - Talkion ----------------
#NOTEDATA:;
#STEPSTYPE:dance-single;
#DESCRIPTION:Talkion;
#DIFFICULTY:Easy;
#METER:11;
#RADARVALUES:0,0,0,0,0;
#NOTES:
0000
0000
0000
0000
,
0000
0000
0000
0000
,
0000
0000
0000
0000
,
0000
0000
0000
0000
,
0000
0000
0000
0000
,
1001
0000
0000
0101
0000
0000
0000
0000
,
1001
0000
0000
1100
0000
0000
0000
0000
,
1001
0000
0000
0110
0000
0000
0000
0000
,
0001
0010
0100
1000
0001
0000
0000
0000
,
0001
0001
0100
0000
,
0100
0100
0010
0000
,
0010
0010
1000
0100
,
0010
0001
1000
1100
,
0100
0110
0010
0011
,
0001
0000
1001
0000
1000
0010
0100
0010
,
0100
0010
0100
0010
1000
0000
0001
0010
,
0100
0110
0001
0001
,
0001
0001
0001
0001
,
0001
0000
0001
1000
0100
0000
0100
0000
,
0100
0000
0100
0000
0100
0000
0100
0010
,
0001
0010
0100
0000
0100
0000
1001
0000
,
0010
0010
0010
0010
,
0010
0000
0010
0000
1000
0100
0010
0100
,
1000
0100
0010
0000
2002
0000
0000
0000
,
0000
0000
3003
0000
0010
0001
0010
0000
,
0001
0000
0100
0000
0010
0100
0010
0000
,
1000
0000
0001
0000
1000
0100
1000
0000
,
0100
0000
0010
0000
0001
1000
0001
0000
,
0100
0000
0100
0000
0010
1000
0001
0000
,
0010
0001
1000
0000
0010
1000
0001
0000
,
0010
0001
1000
0000
0010
0000
0110
0000
,
0110
0110
2002
0000
,
0000
0000
3003
0000
0100
1000
0100
0000
,
0001
0100
0001
0000
0100
1000
0100
0000
,
0010
0000
1001
0000
0100
0001
0100
0000
,
1000
0100
1000
0000
0100
0001
0100
0000
,
0020
0000
0130
0000
0001
0010
0001
0000
,
0010
1000
0010
0000
0001
0010
0001
0000
,
0100
0000
1001
0000
0010
1000
0010
0000
,
0001
0010
0001
0000
0220
0000
0330
0000
,
0010
0000
0010
0000
1000
0100
1000
0000
,
0001
0100
0010
0000
1000
0100
1000
0000
,
0001
0000
0110
0000
0001
0010
0001
0000
,
0100
0010
1000
0000
0001
0010
0001
0000
,
0200
0000
0310
0000
1000
0100
0010
0000
,
0001
0100
0010
0000
1000
0100
0001
0000
,
0100
0000
1001
0000
0010
0001
1000
0001
,
0010
0001
1000
0001
0200
0000
0000
0000
,
0000
0000
0310
1000
,
0100
0010
0001
0100
,
0010
1000
0001
0010
,
0100
1000
0010
0100
,
0001
0000
1000
0000
0100
0000
0000
0100
,
0010
0000
0000
0010
0001
0000
0000
0001
,
0100
0000
0110
0000
0010
0000
0000
0010
,
1000
0000
0000
1000
0100
0000
0000
0100
,
0010
0000
0110
0000
0100
0000
0000
0100
,
1000
0000
0000
1000
0001
0000
0000
0001
,
0100
0000
0110
0000
0010
0000
0000
0010
,
1000
0000
0000
1000
0001
0000
0010
0000
,
0100
1000
0001
0001
,
0001
0001
0001
0001
,
0001
0000
0001
0100
0010
0000
0010
0000
,
0010
0010
0010
0010
,
0010
1000
0010
1000
0001
0000
0010
0000
,
0001
0010
0001
0000
1000
0000
0010
0000
,
1000
0010
1000
0000
0001
1000
0001
1000
,
0001
1000
0001
1000
0020
0000
0000
0000
,
0000
0030
0120
1030
,
1100
1100
1002
0013
,
0011
0011
2001
3010
,
1010
1010
0001
0010
,
0100
0010
0001
0000
0210
0000
0301
0000
,
0011
0011
2001
3100
,
1100
1100
1002
0103
,
0101
0101
0010
0100
,
0010
0100
0000
0000
1001
0000
0001
0000
,
0110
1100
1001
1000
,
0110
0101
1001
0010
,
1100
0101
1000
0100
,
0010
0100
1000
0000
0110
0000
0001
0000
,
0110
1001
0110
1000
,
0110
1001
0110
0001
,
0010
0100
2000
0000
,
0000
0000
0000
0000
3000
0000
0000
0000
0002
0000
0000
0203
0000
0000
0310
0000
,
2000
0000
0000
3200
0000
0000
0310
0000
0002
0000
0000
2003
0000
0000
3001
0000
,
0100
0000
0010
0000
0100
0000
0000
0000
0020
0000
0000
2030
0000
0000
3001
0000
,
0020
0000
0000
0032
0000
0000
1003
0000
0020
0000
0000
0230
0000
0000
0310
0000
,
1000
0000
0001
0000
1000
0000
0000
0000
0200
0000
0000
0320
0000
0000
0031
0000
,
0200
0000
0000
0320
0000
0000
1030
0000
0002
0000
0000
0023
0000
0000
0031
0000
,
1000
0000
0010
0000
1000
0000
0000
0000
0002
0000
0000
0023
0000
0000
0130
0000
,
2000
0000
0000
3200
0000
0000
0310
0000
0001
0000
0000
0000
1000
0000
0000
0000
,
0001
0000
1000
0000
1001
0000
0000
0000
0020
0000
0000
0032
0000
0000
0103
0000
,
0020
0000
0000
2030
0000
0000
3100
0000
0002
0000
0000
0203
0000
0000
1300
0000
,
0001
0000
0100
0000
0001
0000
0000
0000
0200
0000
0000
0302
0000
0000
0013
0000
,
0200
0000
0000
2300
0000
0000
3010
0000
0002
0000
0000
0023
0000
0000
1030
0000
,
0001
0000
0010
0000
0001
0000
0000
0000
0020
0000
0000
2030
0000
0000
3010
0000
,
0002
0000
0000
0203
0000
0000
1300
0000
0200
0000
0000
0302
0000
0000
1003
0000
,
0100
0000
0010
0000
0100
0000
0000
0000
2000
0000
0000
3020
0000
0000
0031
0000
,
2000
0000
0000
3200
0000
0000
0301
0000
1000
0000
0100
0000
0010
0000
0001
0000
,
0010
0100
1000
0001
0200
0000
0000
0000
,
0000
0000
0300
0000
,
0000
0000
0200
0000
,
0000
0000
0300
0000
,
0000
0000
0200
0000
,
0000
0000
0300
0000
,
0000
0000
0200
0000
,
0000
0000
0300
0000
;

//--------------- dance-single - Talkion ----------------
#NOTEDATA:;
#STEPSTYPE:dance-single;
#DESCRIPTION:Talkion;
#DIFFICULTY:Medium;
#METER:14;
#RADARVALUES:0,0,0,0,0;
#NOTES:
0000
0000
0000
0000
,
0000
0000
0000
0000
,
0000
0000
0000
0000
,
0000
0000
0000
0000
,
0000
0000
0000
0000
,
2200
0000
3300
2002
0000
3003
0001
0100
,
0202
0000
0303
2002
0000
3003
1000
0100
,
0220
0000
0330
0022
0000
0033
0001
1000
,
1020
0000
0100
0130
0001
0000
0001
0000
,
0001
0001
1000
1000
,
1000
1000
0010
0010
,
0100
0100
0001
0001
,
1000
0000
1000
0000
0100
0001
0100
0000
,
0001
0010
0001
0000
0010
1000
0010
0000
,
1000
0100
1000
0000
0100
0010
0100
0010
,
0001
0000
0100
0000
1000
0000
0100
0000
0001
0000
1000
0001
1000
0000
0100
0000
,
0010
0001
1001
0000
1010
0000
1010
0000
,
1010
1010
0011
0011
,
0011
0000
0010
0001
1001
0000
1001
0000
,
1001
0000
1001
0000
0100
0001
0100
1000
,
0100
0001
0100
0010
0100
0000
0110
0000
,
0110
0110
1100
1100
,
1001
0000
0001
0100
0010
0100
0001
0100
,
1000
0100
0001
0100
0020
0000
0000
0000
,
1000
1000
1030
0000
0001
0010
0011
0000
,
1000
0010
1010
0000
0001
0100
0110
0000
,
1000
0100
0010
0001
1000
0001
1001
0000
,
0001
0100
0101
0000
1000
0010
0001
0010
,
1000
0001
1001
0000
1000
0100
0101
0000
,
0001
0100
1100
0000
1000
0010
0011
0000
,
0001
0010
1010
0000
0001
0010
0100
1000
,
0100
0010
0001
0100
2000
0000
0000
0000
,
0100
0100
3100
0000
0010
1000
0100
1000
,
0010
1000
0100
1000
0001
0100
1000
0100
,
0001
0100
0110
0000
0100
0001
0010
0001
,
0100
0001
0010
0001
1000
0010
0100
0010
,
1000
0001
1000
0001
1000
0000
0000
0000
0001
0000
0010
0000
0100
0000
0010
0000
,
0001
0100
0010
0100
0001
0010
1000
0010
,
0001
1000
1001
0000
1000
0010
0100
0010
,
1000
0100
0010
0001
2000
0000
3020
0000
,
0130
0010
0110
0000
0100
0100
0100
0000
,
0100
0010
1000
0100
0010
0001
0100
0010
,
0100
0001
1001
0000
1000
0100
0001
0100
,
1000
0100
0010
0001
0100
0010
0100
0001
,
1000
0001
1000
0001
1000
0000
0000
0000
0001
0000
0010
0000
1000
0000
0010
0000
,
0001
0010
1000
0010
0100
1000
0001
0100
,
1000
0100
0110
0000
0100
0001
0001
1000
,
1000
0001
0001
0100
0010
1000
0100
0010
,
0001
0000
1000
0000
0001
0100
0001
0100
0020
0000
0000
0000
2030
0000
0000
0000
,
3200
0000
0010
0310
0002
0000
0203
0000
,
0320
0000
1000
1030
0200
0000
2300
0000
,
3020
0000
0100
0130
0002
0000
0023
0000
,
0230
0000
1000
1300
0001
0000
0001
0100
,
0010
0000
0010
1000
0100
0000
0100
0001
,
0100
1000
0100
0010
0001
0000
0001
0010
,
0100
0000
0100
1000
0010
0000
0010
0001
,
0010
1000
0010
0100
0001
0000
0001
1000
,
0100
0000
0100
0010
1000
0000
1000
0010
,
0001
0010
1000
0010
0100
0000
0100
1000
,
0010
0100
0010
1000
0001
0010
0100
1000
,
0001
0100
0110
0000
1000
0000
1000
0000
,
1000
1000
0001
0001
,
0001
0001
0100
0100
,
0010
0010
1000
1000
,
0001
0010
0100
1000
0001
0100
1000
0100
,
0001
0100
0010
1000
0001
0010
1000
0001
,
0100
0010
0001
1000
0001
0001
1000
1000
,
0010
0100
0010
0100
0010
0100
0010
0100
0020
0000
0000
0000
0000
0000
0000
0000
,
0000
0030
1010
1100
,
1010
0000
1000
0001
0000
0000
0011
0000
0000
0101
0000
0000
,
0011
0001
1000
0000
1100
0000
0101
0000
,
1100
0000
0000
0000
0100
0000
0010
0000
0000
0000
0000
0000
0010
0000
0000
0001
0000
0000
0100
0000
0000
0001
0000
0000
,
0010
0001
1001
0000
0101
0000
0011
0000
,
0101
0000
0001
1000
0000
0000
1100
0000
0000
1010
0000
0000
,
1100
1000
0001
0000
0011
0000
1010
0000
,
0011
0000
0000
0000
0010
0000
0100
0000
0000
0000
0000
0000
0100
0000
0000
1000
0000
0000
0001
0000
0000
0100
0000
0000
,
0010
0000
0000
0020
0000
0000
0000
0000
0000
0000
0000
0000
0130
0000
0000
0000
0100
0000
0001
0000
0000
0000
0000
0000
,
1100
0101
1001
0110
,
1001
1000
0200
0000
0310
0000
1001
0000
,
0101
0000
0000
0000
0100
0000
0010
0000
0000
0000
0000
0000
0010
0000
0000
1000
0000
0000
0100
0000
0000
1000
0000
0000
,
0010
1000
1001
0000
0101
0000
1100
0000
,
1010
0000
0010
0001
0000
0000
0011
0000
0000
1010
0000
0000
,
1100
0000
0000
0100
0000
0000
0001
0000
0000
0000
0000
0000
2000
0000
0000
0000
0000
0000
3100
0000
0000
0000
0100
0000
,
0010
0000
0010
0001
0000
0001
2000
0000
0000
0000
0000
0000
,
0001
0000
0001
0000
3001
0000
0000
0000
1000
0000
0100
2000
0000
0000
3001
0000
,
0100
0000
0010
0200
0000
0000
0301
0000
1000
0000
0100
0020
0000
0000
0130
0000
,
1000
0000
0001
1000
0001
0000
0000
0000
0001
0000
0100
0002
0000
0000
1003
0000
,
0100
0000
0010
0200
0000
0000
1300
0000
0001
0000
0100
2000
0000
0000
3100
0000
,
0001
0000
0110
0000
0110
0000
0000
0000
1000
0000
0100
0020
0000
0000
0031
0000
,
0010
0000
0100
2000
0000
0000
3001
0000
0100
0000
0010
0002
0000
0000
0013
0000
,
0100
0000
0010
0100
0010
0000
0000
0000
0010
0000
1000
0200
0000
0000
0310
0000
,
0001
0000
0100
0020
0000
0000
1030
0000
0001
0000
0010
0000
1000
0000
0001
0000
,
0100
0000
1000
0000
1001
0000
0000
0000
0001
0000
0100
0020
0000
0000
0130
0000
,
1000
0000
0100
0020
0000
0000
1030
0000
0100
0000
0010
0002
0000
0000
1003
0000
,
0010
0000
1000
0010
1000
0000
0000
0000
1000
0000
0100
0020
0000
0000
0130
0000
,
0001
0000
0100
0020
0000
0000
0031
0000
0100
0000
0010
2000
0000
0000
3001
0000
,
0010
0000
1001
0000
1001
0000
0000
0000
1000
0000
0100
0002
0000
0000
0103
0000
,
1000
0000
0001
0200
0000
0000
1300
0000
0001
0000
0010
0200
0000
0000
0301
0000
,
1000
0000
0001
1000
0001
0000
0000
0000
0001
0000
0010
2000
0000
0000
3010
0000
,
0001
0000
0100
0020
0000
0000
1030
0000
0001
0010
0001
0000
1000
0010
1000
0000
,
0001
0010
0100
0000
1000
0001
1000
0001
0200
0000
0000
0000
0000
0000
0000
0000
,
0000
0000
0300
0000
,
0000
0000
0020
0000
,
0000
0000
0030
0000
,
0000
0000
2000
0000
,
0000
0000
3000
0000
,
0000
0000
0002
0000
,
0000
0000
0003
0000
;

//--------------- dance-single - Talkion ----------------
#NOTEDATA:;
#STEPSTYPE:dance-single;
#DESCRIPTION:Talkion;
#DIFFICULTY:Hard;
#METER:17;
#RADARVALUES:0,0,0,0,0;
#NOTES:
0000
0000
0000
0000
,
0000
0000
0000
0000
,
0000
0000
0000
0000
,
0000
0000
0000
0000
,
0000
0000
0000
0000
,
2200
0000
0000
0000
3300
0000
0202
0000
0000
0000
0303
0000
1000
0100
0010
0000
,
0022
0000
0000
0000
0033
0000
2020
0000
0000
0000
3030
0000
0001
0010
0100
0000
,
2002
0000
0000
0000
3003
0000
0220
0000
0000
0000
0330
0000
0001
0010
0100
1000
,
0002
0000
0203
0000
0010
0010
0310
0000
1000
0000
0000
0000
1000
0000
0000
0000
,
0100
0100
0001
0001
,
1000
0000
1000
0010
0001
0000
0001
0000
,
0100
0100
1000
1000
,
0001
0000
0001
0010
1000
0000
1000
0100
,
0010
0001
0100
0010
1000
0000
1000
0001
,
0010
0100
1000
0010
0100
0001
0001
1000
,
1000
0100
0010
0001
1000
0001
1000
0001
0100
0000
0010
0100
0010
0000
0001
0000
,
0010
1000
1001
0000
0011
0000
0011
0000
,
1010
1010
0011
1010
,
1001
0000
0000
0000
0110
0000
0001
1000
0100
0000
0000
0000
1100
0000
0000
0000
,
1100
0000
0101
0000
0101
0000
0010
0010
,
0010
0000
1000
0001
1000
0000
0200
0000
0020
0000
0330
0000
0110
0000
0000
0000
,
0001
0010
0100
1000
0001
0100
1000
0100
,
0001
0000
1000
0000
0001
0000
0010
0100
0010
0000
0200
0000
1300
0000
0200
0000
,
0301
0200
1300
0001
0200
0000
0000
0000
,
0000
0000
0310
0000
1000
1000
0100
0001
,
0100
0010
0011
0000
0001
0001
0100
1000
,
0100
0010
1010
1000
0001
0010
1000
0001
,
0100
1000
1001
0000
0001
0100
2000
3200
,
0302
1003
1001
0000
0011
0001
0011
0000
,
1010
1000
1010
0000
0101
0001
0101
0000
,
1100
1000
1100
0000
0001
0100
1000
0001
,
0010
1000
0100
0010
0002
0000
0000
0000
,
0000
0000
0003
0000
0001
0100
1000
0100
,
0001
0100
0010
0100
0001
1000
0100
0010
,
0001
0000
0001
1000
0002
0000
0103
0000
0001
0000
0010
0000
1000
0000
0010
0000
,
0001
0010
0100
0010
0001
1000
0010
0100
,
0010
0100
0010
0100
0001
0000
1000
0001
1000
0000
0100
0000
0001
0000
0100
0000
,
1000
0100
0010
0100
1000
0001
0100
0010
,
1000
0000
1000
0001
2000
0000
3100
0000
1000
0000
0010
0000
0001
0000
0010
0000
,
1000
0010
0100
0010
2000
0000
3002
0000
,
0013
0000
0010
0100
0010
0000
0000
0000
0110
0000
0110
0000
0110
0000
0000
0000
,
1000
0010
0001
1000
0100
0001
1000
0100
,
0010
0000
0010
0001
0200
0000
0310
0000
0100
0000
0001
0000
0010
0000
1000
0000
,
0001
0100
1000
0001
0100
0010
0100
0001
,
1000
0001
1000
0001
0010
0000
0100
0010
0100
0000
1000
0000
1001
0000
0000
0000
,
0001
0100
1000
0001
0010
1000
0001
0010
,
0100
0000
0100
1000
0020
0000
0130
0000
0010
0000
1000
0000
0200
0000
0301
0000
,
0200
0000
1300
0000
0200
0000
0301
0000
0100
0010
0100
0010
0100
0010
0001
1000
,
0001
0100
0010
0100
0010
0100
0010
1000
0002
0000
0000
0000
0023
0000
0000
0000
,
0230
0000
0000
0000
0000
0000
0000
0000
1300
0000
0001
1000
0001
0000
0000
0000
2000
0000
0000
0000
0000
0000
0000
0000
3020
0000
0000
0000
0000
0000
0000
0000
,
0230
0000
0000
0000
0000
0000
0000
0000
0301
0000
1000
0001
1000
0000
0000
0000
0200
0000
0000
0000
0000
0000
0000
0000
0302
0000
0000
0000
0000
0000
0000
0000
,
0203
0000
0000
0000
0000
0000
0000
0000
1300
0000
0001
1000
0001
0000
0000
0000
0200
0000
0000
0000
0000
0000
0000
0000
2300
0000
0000
0000
0000
0000
0000
0000
,
3200
0000
0000
0000
0000
0000
0000
0000
0301
0000
1000
0001
1000
0000
0000
0000
0100
0000
0000
0000
0010
0000
0000
0000
0001
0000
0000
0000
0001
0000
0100
0000
,
0010
0000
0100
0000
0001
0000
0001
1000
0100
0000
0010
0000
0100
0000
0100
1000
,
0010
0000
0100
0000
0110
0000
0000
0000
0100
0000
0001
0000
0010
0000
0010
0100
,
1000
0000
0010
0000
0100
0000
0100
0010
1000
0000
0001
0000
0010
0000
0010
0001
,
1000
0000
0001
0000
1001
0000
0000
0000
1000
0000
0010
0000
0100
0000
0100
0010
,
0001
0000
0010
0000
0100
0000
0100
0001
0010
0000
0100
0000
0010
0000
0010
0001
,
0100
0000
0010
0000
0110
0000
0000
0000
0010
0000
1000
0000
0100
0000
0100
1000
,
0001
0000
0100
0000
0010
0000
0010
0100
1000
0000
0100
0000
0010
0000
0010
1000
,
0001
1000
1001
0000
0011
0000
0011
0000
,
0011
0000
0010
0100
1100
0000
1100
0000
,
1100
0000
1000
0001
0101
0000
0101
0000
,
0101
0000
0100
0010
0110
0000
0110
0000
,
0110
0000
0010
0000
0100
0000
0001
1000
0001
0000
0010
0000
0100
0000
1000
0000
,
0001
0000
1000
0000
0010
0000
0100
0010
0100
0000
0001
0000
1000
0000
0100
0010
,
0100
0000
1000
0000
0001
0000
0100
0010
0100
0001
1000
0001
1000
0100
0010
0001
,
1000
0010
0100
0010
0100
0010
0100
0010
0200
0000
0000
0000
0000
0000
0000
0000
,
0000
0300
0101
1100
,
0101
0000
0100
1100
0000
0000
0011
0000
0000
1010
0000
0000
,
0011
0010
0110
0000
1100
0000
0101
0000
,
1100
0000
0000
0000
0000
0000
0000
0000
0100
0000
0000
0000
0101
0000
0000
0000
0000
0000
0000
0000
0000
0000
0000
0000
0001
0000
0000
0000
0000
0000
1000
0000
0000
0000
0000
0000
1000
0000
0000
0000
0000
0000
0001
0000
0000
0100
0000
0000
,
0001
0100
0010
0100
0001
0000
0000
0000
0011
0000
0000
0000
1010
0000
0000
0000
,
0011
0000
0010
1010
0000
0000
0101
0000
0000
1100
0000
0000
,
0101
0100
0110
0000
1010
0000
0011
0000
,
1010
0000
0000
0000
0000
0000
0000
0000
0010
0000
0000
0000
0011
0000
0000
0000
0000
0000
0000
0000
0000
0000
0000
0000
0001
0000
0000
0000
0000
0000
1000
0000
0000
0000
0000
0000
1000
0000
0000
0000
0000
0000
0001
0000
0000
0100
0000
0000
,
0010
0000
0000
0220
0000
0000
0000
0000
0000
0330
0000
0000
1001
0000
0000
0000
0001
0000
0110
0000
0000
0000
0000
0000
,
1001
0000
0000
0000
0000
0000
0000
0000
1000
0000
0000
0000
0110
0000
0000
0000
0000
0000
0000
0000
0000
0000
0000
0000
1001
0000
0000
0000
0000
0000
0001
0000
0000
0000
0000
0000
0010
0000
0000
0000
0000
0000
0100
0000
0000
0010
0000
0000
,
0100
0000
0000
1000
0000
0000
1001
0000
0000
0000
0000
0000
0110
0000
0000
0000
0010
0000
1001
0000
0000
0000
0000
0000
,
0110
0000
0000
0000
0000
0000
0000
0000
0100
0000
0000
0000
1001
0000
0000
0000
0000
0000
0000
0000
0000
0000
0000
0000
1000
0000
0000
0000
0000
0000
0001
0000
0000
0000
0000
0000
0001
0000
0000
0000
0000
0000
1000
0000
0000
0100
0000
0000
,
1000
0000
0000
0100
0000
0000
0010
0000
0000
0100
0000
0000
1000
0000
0000
0000
0000
0000
0000
0000
0000
0000
0000
0000
0101
0000
0000
0000
0000
0000
0000
0000
0010
0000
0000
0000
1100
0000
0000
0000
0000
0000
0000
0000
0000
0000
0000
0000
,
1010
0000
0000
0000
0000
0000
0000
0000
0100
0000
0000
0000
0011
0000
0000
0000
0000
0000
0000
0000
0000
0000
0000
0000
1001
0000
0000
0000
0000
0000
1000
0000
0000
0000
0000
0000
0100
0000
0000
0000
0000
0000
0010
0000
0000
0100
0000
0000
,
0010
0000
0000
0001
0000
0000
1001
0000
0000
0000
0000
0000
0001
0000
0100
0000
1000
0000
0001
0000
0010
0000
1000
0000
,
0100
0010
0001
1000
0001
0100
0020
0000
0000
0000
0000
0000
,
0130
0000
0001
0010
0100
1000
0010
0100
0002
0000
1003
0200
0000
0310
0100
0000
,
2000
0000
3001
0200
0000
0310
0100
0000
0002
0000
1003
0200
0000
0301
0100
0000
,
0010
0000
0100
0010
0001
0000
0001
0000
2000
0000
3001
0020
0000
0130
0010
0000
,
0002
0000
1003
0020
0000
0130
0010
0000
2000
0000
3001
0020
0000
1030
0010
0000
,
0100
0000
0010
0100
1000
0001
1000
0001
0200
0000
0310
2000
0000
3100
0010
0000
,
0200
0000
1300
0020
0000
0130
0010
0000
0002
0000
0013
0200
0000
0301
1000
0000
,
0100
0000
0010
0100
1000
0000
1000
0000
0020
0000
0130
0002
0000
0013
0100
0000
,
0020
0000
0031
0200
0000
0310
0100
0000
2000
0000
3200
0000
0301
0000
0001
0010
,
0100
1000
0010
0100
0001
0000
0000
0000
0002
0000
1003
0200
0000
0310
0001
0000
,
2000
0000
3001
0200
0000
0310
1000
0000
0002
0000
0013
0200
0000
0301
0100
0000
,
1000
0000
0001
0100
0010
0000
0010
0000
2000
0000
3100
0020
0000
0130
1000
0000
,
0002
0000
0103
0020
0000
0130
0001
0000
2000
0000
3100
0002
0000
0103
1000
0000
,
0001
0000
0100
0010
1000
0001
1000
0001
0020
0000
0130
0020
0000
0031
0100
0000
,
0020
0000
0130
0020
0000
1030
0100
0000
0020
0000
1030
0020
0000
0031
0010
0000
,
0100
0000
0010
0001
0100
0000
0100
0000
2000
0000
3100
0002
0000
0013
1000
0000
,
0020
0000
0031
0200
0000
0310
1000
0000
0001
0010
0001
0010
0100
1000
0100
1000
,
0001
0100
0010
1000
0100
0010
0001
1000
0020
0000
0000
0000
0000
0000
0000
0000
,
0000
0000
0130
0000
,
0000
0000
0200
0000
,
0000
0000
0301
0000
,
0000
0000
0002
0000
,
0000
0000
1003
0000
,
0000
0000
2000
0000
,
0000
0000
3100
0000
;
