#TITLE:Walk Thru Fire;
#SUBTITLE:;
#ARTIST:Vicetone feat. Meron Ryan;
#TITLETRANSLIT:;
#SUBTITLETRANSLIT:;
#ARTISTTRANSLIT:;
#GENRE:;
#CREDIT:;
#BANNER:;
#BACKGROUND:;
#LYRICSPATH:;
#CDTITLE:cdtitle.png;
#MUSIC:walkthrufire.ogg;
#OFFSET:0.000000;
#SAMPLESTART:55.862072;
#SAMPLELENGTH:18.620686;
#SELECTABLE:YES;
#BPMS:0.000000=116.000000
;
#STOPS:
;
#BGCHANGES:;
#KEYSOUNDS:;
#ATTACKS:;

//---------------dance-single - ----------------
#NOTES:
     dance-single:
     :
     Hard:
     11:
     0.395270,0.397497,0.046764,0.085735,0.171469,355.000000,349.000000,6.000000,11.000000,16.000000,0.000000,0.395270,0.397497,0.046764,0.085735,0.171469,355.000000,349.000000,6.000000,11.000000,16.000000,0.000000:
// measure 0
0000
0000
0000
0000
,  // measure 1
0000
0000
0000
0000
,  // measure 2
0000
0000
0000
0000
,  // measure 3
0000
0000
0000
0000
,  // measure 4
0000
0000
0001
0000
0000
0100
0000
0010
,  // measure 5
0100
0000
0000
0010
0000
0000
1000
0000
0000
0000
0000
0000
0000
0000
0000
0000
,  // measure 6
0100
0000
1000
0000
0000
0100
0000
0010
,  // measure 7
0000
0100
1000
0001
0100
0000
0010
0000
,  // measure 8
0100
0000
0001
0000
0000
1000
0000
0100
,  // measure 9
0010
0000
0000
0100
0000
0000
1000
0000
0000
0000
0000
0000
0000
0000
0000
0000
,  // measure 10
0001
0000
0010
0000
0000
0001
0000
1000
,  // measure 11
0000
0010
0100
0010
1000
0000
0001
1000
,  // measure 12
0100
0000
1000
0100
0000
1000
0100
0000
0010
0000
0001
0000
0000
0000
0000
0000
,  // measure 13
0001
0000
0100
0001
0000
0100
0001
0000
1000
0000
0010
0000
0100
0000
0010
0000
,  // measure 14
1000
0000
0000
0100
1000
0000
0001
0000
0000
0000
1000
0000
0001
0000
0100
0000
,  // measure 15
0010
0000
0000
0100
0000
0000
0000
0000
0000
0000
0000
0000
0000
0000
0100
0000
,  // measure 16
0001
0000
0010
0001
0000
0010
0001
0000
0010
0000
0100
0000
0000
0000
0000
0000
,  // measure 17
1000
0000
0010
1000
0000
0010
1000
0000
0100
0000
0010
0000
0001
0000
0100
0000
,  // measure 18
0010
0000
0000
0100
0010
0000
1000
0000
0000
0000
0001
0000
0100
0000
0010
0000
,  // measure 19
1000
0000
0000
0001
0000
0000
0000
0000
1000
0000
0010
0000
1000
0000
0200
0000
,  // measure 20
0000
0000
1300
0000
1000
0010
0100
0001
,  // measure 21
0000
0000
0001
0000
0001
0010
0001
0200
,  // measure 22
0000
0000
0301
0000
0001
0010
0100
1000
,  // measure 23
0000
0000
1000
0000
1000
0100
1000
0020
,  // measure 24
0000
0000
0130
0000
0100
0001
0010
0001
,  // measure 25
0000
0000
0000
0000
1000
0000
0000
0000
1000
0000
0100
0000
0001
0000
0100
0010
,  // measure 26
0000
0000
0100
0010
0000
0000
0000
0000
0001
0000
0100
0000
1000
0000
0100
0010
,  // measure 27
0000
0000
M10M
0000
M01M
0000
M10M
0000
M01M
0000
0000
0100
0000
0000
0010
0000
,  // measure 28
1001
0000
0000
0000
1000
0000
0010
0000
0100
0000
0010
0000
1000
0000
0001
1000
,  // measure 29
0000
0001
0010
0001
1000
0000
1000
0001
,  // measure 30
0010
0000
0000
0000
0001
0000
0100
0000
0001
0000
0010
0000
0100
0000
1000
0001
,  // measure 31
0000
1000
0100
0010
0001
0000
0101
1000
,  // measure 32
1100
0000
0000
0000
0001
0000
0010
0000
0100
0000
0010
0000
0001
0000
1000
0001
,  // measure 33
0000
1000
0010
1000
0001
0000
0001
1000
,  // measure 34
0010
0000
0000
0000
1000
0000
0100
0000
1000
0000
0010
0000
0100
0000
0001
1000
,  // measure 35
0000
0000
0001
0000
0100
0000
0010
0000
2000
0000
0000
3100
0000
0000
0100
0000
,  // measure 36
0010
0000
0000
0010
0000
0000
0010
0000
0100
0000
0000
0100
0000
0000
1000
0000
,  // measure 37
0001
0000
0000
0001
0000
0000
0001
0000
0100
0000
1000
0000
0100
0000
0010
0000
,  // measure 38
0100
0000
0000
0100
0000
0000
0100
0000
0010
0000
0000
0010
0000
0000
0010
0000
,  // measure 39
1000
0000
0000
1000
0000
0000
1000
0000
0001
0000
0010
0000
1000
0000
0010
0000
,  // measure 40
0001
0000
0010
0001
0000
0010
0001
0000
0100
0000
0010
0000
0000
0000
0000
0000
,  // measure 41
1000
0000
0010
1000
0000
0010
1000
0000
0100
0000
1000
0000
0010
0000
0001
0000
,  // measure 42
0010
0000
0000
0100
0010
0000
1000
0000
0000
0000
1000
0000
0100
0000
0001
0000
,  // measure 43
0100
0000
0000
0010
0000
0000
0000
0000
0010
0000
0001
0000
0100
0000
0020
0000
,  // measure 44
0100
0000
0130
0000
0100
0001
0010
0200
,  // measure 45
1000
0300
1000
0000
1000
0100
0010
0200
,  // measure 46
0010
0000
0310
0000
0010
0100
1000
0020
,  // measure 47
0100
0030
0100
0000
0100
0001
0010
2000
,  // measure 48
0010
0000
3010
0000
0010
0100
1000
0020
,  // measure 49
0100
0000
0030
0000
0100
0000
0000
0000
0001
0000
0100
0000
1000
0000
0100
0010
,  // measure 50
0000
0000
1000
0001
0000
0000
0000
0000
1000
0000
0100
0000
0001
0000
0100
0010
,  // measure 51
0000
0000
M10M
0000
M01M
0000
M10M
0000
M01M
0000
0000
0100
0000
0000
0010
0000
,  // measure 52
1001
0000
0000
0000
1000
0000
0100
0000
0010
0000
1000
0000
0010
0000
0100
0010
,  // measure 53
0000
0010
0001
0100
1000
0000
1000
0100
,  // measure 54
0001
0000
0000
0000
0001
0000
0100
0000
0010
0000
0001
0000
0010
0000
0100
0010
,  // measure 55
0000
0010
1000
0100
0001
0000
0101
0100
,  // measure 56
1100
0000
0000
0000
1000
0000
0010
0000
0100
0000
1000
0000
0100
0000
0001
0100
,  // measure 57
0000
0100
1000
0001
0010
0000
0010
1000
,  // measure 58
0001
0000
0000
0000
0001
0000
0010
0000
0100
0000
0001
0000
0100
0000
1000
0100
,  // measure 59
0000
0000
0010
0000
1000
0000
0001
0000
0200
0000
0000
0310
0000
0000
0001
0000
,  // measure 60
1000
0000
0000
0000
;
