#VERSION:0.83;
#TITLE:Saiyajin;
#SUBTITLE:;
#ARTIST:Thaehan;
#TITLETRANSLIT:;
#SUBTITLETRANSLIT:;
#ARTISTTRANSLIT:;
#GENRE:Happy Hardcore;
#ORIGIN:;
#CREDIT:;
#BANNER:Saiyajin.png;
#BACKGROUND:Saiyajin-bg.png;
#PREVIEWVID:;
#JACKET:Saiyajin-jacket.png;
#CDIMAGE:;
#DISCIMAGE:;
#LYRICSPATH:;
#CDTITLE:cdtitle.png;
#MUSIC:Saiyajin.ogg;
#OFFSET:-0.134490;
#SAMPLESTART:2.787157;
#SAMPLELENGTH:10.666667;
#SELECTABLE:YES;
#DISPLAYBPM:180.000000;
#BPMS:0.000=180.000,
256.000=82.286,
260.000=1440.000;
#STOPS:;
#DELAYS:;
#WARPS:;
#TIMESIGNATURES:0.000=4=4;
#TICKCOUNTS:0.000=4;
#COMBOS:0.000=1;
#SPEEDS:0.000=1.000=0.000=0;
#SCROLLS:0.000=1.000;
#FAKES:;
#LABELS:0.000=Song Start;
#BGCHANGES:;
#KEYSOUNDS:;
#ATTACKS:
;

//---------------dance-single - ----------------
#NOTEDATA:;
#CHARTNAME:;
#STEPSTYPE:dance-single;
#DESCRIPTION:;
#CHARTSTYLE:;
#DIFFICULTY:Challenge;
#METER:16;
#RADARVALUES:0.821374,1.259578,0.200814,0.496750,0.480896,544.000000,523.000000,19.000000,47.000000,4.000000,1.000000,5.000000,0.000000,0.000000,0.821374,1.259578,0.200814,0.496750,0.480896,544.000000,523.000000,19.000000,47.000000,4.000000,1.000000,5.000000,0.000000,0.000000;
#CREDIT:;
#DISPLAYBPM:180.000000;
#NOTES:
0000
0000
0000
0000
,
0000
0000
0000
0000
,
1002
0000
1000
1000
1000
0000
0013
0001
,
2000
0000
0000
0000
3010
0000
1000
0001
2000
0000
0000
0000
3200
0000
0000
0000
,
0310
0001
0100
0010
0100
0001
0010
0100
,
1000
0000
0001
0100
0001
0000
0010
0000
1000
0000
0010
0000
0001
0000
0100
0000
,
0020
0000
1000
0000
0031
0010
0100
0010
,
2000
0000
0000
0000
3100
0000
0010
0001
2000
0000
0000
0000
3010
0000
0100
0000
,
0001
0000
0001
0000
0001
0010
0100
0010
0001
0000
0001
0000
0001
0010
0100
0010
,
0001
0000
0011
0000
0001
0010
0100
0010
0001
0000
0011
0000
0010
0001
0100
0010
,
2000
0000
0001
0001
0001
0000
3010
1000
,
0002
0000
0000
0000
0013
0000
0001
1000
0002
0000
0000
0000
0203
0000
0000
0000
,
0310
1000
0100
0010
0100
1000
0010
0100
,
0001
0000
1000
0100
1000
0000
0010
0000
0001
0000
0010
0000
1000
0000
0100
0000
,
0020
0000
0001
0000
1030
0010
0100
0010
,
0002
0000
0000
0000
0103
0000
0010
1000
0002
0000
0000
0000
0013
0000
0100
0000
,
1000
0000
1000
0000
1000
0010
0100
0010
1000
0000
1000
0000
1000
0010
0100
0010
,
1000
0000
1010
0000
1000
0010
0100
0010
1000
0000
1010
0000
1000
0010
0100
0001
,
1000
0000
0001
0010
0100
0010
0100
0010
0001
0000
1000
0000
0001
0000
0100
0000
,
0010
0000
0010
0000
1000
0001
1000
0001
0010
0000
0010
0000
0200
0000
0000
0000
,
0310
0000
0001
1000
0001
0000
0100
0000
0010
1000
0010
1000
0001
0010
0001
0010
,
0100
0000
0100
0000
0010
0000
0001
1000
0040
0000
0000
0000
0130
0000
0100
0000
,
0001
0000
1000
0010
0100
0010
0100
0010
1000
0000
0001
0000
1000
0000
0100
0000
,
0010
0000
0010
0000
0001
1000
0001
1000
0010
0000
0010
0000
0200
0000
0000
0000
,
0310
0000
1000
0001
1000
0000
0100
0000
0010
0001
0010
0001
1000
0010
1000
0010
,
0100
0000
0100
0000
0001
0000
1000
0200
0000
0000
0000
0000
0000
0000
0000
0000
,
0310
0001
1000
0010
0100
0001
1000
0100
,
0010
0001
1000
0010
0100
0001
1000
0100
,
0010
0100
0010
0001
1000
0010
1000
0001
,
1000
0100
1000
0010
0100
0001
0010
0001
,
0100
0001
1000
0100
0010
0001
1000
0010
,
0100
0001
1000
0100
0010
0001
1000
0010
,
1000
1000
0100
0010
0001
0001
0100
0010
,
1000
0001
1000
0001
1000
0001
1000
0002
2000
0000
0000
3003
M00M
0000
0000
0000
,
0001
0000
0010
0000
1000
0000
0010
0002
0000
0000
0013
0000
0110
0000
0010
0000
,
0001
1000
0001
0000
0100
0000
0010
2000
0000
0000
3010
0000
0110
0000
0010
0000
,
1000
0000
1000
0100
1000
0000
0001
0000
0001
0000
0001
0100
0001
0000
1000
0000
,
0100
0000
0000
0000
0000
0000
0000
0000
0010
0000
0000
0000
0001
0000
0000
0000
4000
0000
0040
0000
0000
3000
0000
0030
0400
0000
0004
0000
0000
0300
0000
0003
,
1000
0000
0010
0000
0001
0000
0010
2000
0000
0000
3010
0000
0110
0000
0010
0000
,
1000
0001
1000
0000
0100
0000
0010
0002
0000
0000
0013
0000
0110
0000
0010
0000
,
0001
0000
0001
0100
0001
0000
1000
0000
1000
0000
1000
0100
1000
0000
0001
0000
,
0200
0000
0010
0000
0010
0000
0010
0000
0310
0000
0000
0000
0100
0010
1000
0001
,
0010
0000
1100
0000
0011
0000
0001
0100
,
1000
0000
0100
0000
0010
0100
0001
0200
0000
0000
0301
0000
1000
0000
0100
0000
,
0110
0000
0011
0000
1000
0010
0001
0010
,
2000
0000
0000
0000
3200
0000
0320
0000
0032
0000
0000
0000
2003
0000
3010
1000
,
0001
0000
0001
0010
0001
0000
0001
0100
0001
0000
1000
0100
1000
0000
1000
0010
,
1000
0000
0001
0000
0020
0000
0200
0000
0000
0000
0000
0330
0MM0
0000
0000
0000
,
1002
0000
1000
0010
1000
0000
0013
0001
,
0200
0000
0000
0000
1300
0000
0100
0010
2000
0000
0000
0000
3002
0000
0000
0000
,
1003
0100
0001
0100
0010
1000
0010
0001
,
0100
0000
0010
1000
0100
0000
0001
0000
1000
0000
0001
0000
0100
0000
1000
0000
,
0020
0000
0100
0000
0031
0010
1000
0100
,
0002
0000
0000
0000
0103
0000
0010
0001
0200
0000
0000
0000
0301
0000
0100
0000
,
0010
0000
0010
0000
0010
1000
0001
1000
0100
0000
0100
0000
0100
1000
0001
1000
,
0010
0000
1010
0000
0010
1000
0001
1000
0100
0000
1100
0000
1000
0010
0100
0001
,
2000
0000
0001
0010
0001
0000
3010
1000
,
0200
0000
0000
0000
0301
0000
0100
0010
0002
0000
0000
0000
2003
0000
0000
0000
,
3001
0100
1000
0100
0010
0001
0010
1000
,
0100
0000
0010
0001
0100
0000
1000
0000
0001
0000
1000
0000
0100
0000
0001
0000
,
0020
0000
0100
0000
1030
0010
0001
0100
,
2000
0000
0000
0000
3100
0000
0010
1000
0200
0000
0000
0000
1300
0000
0100
0000
,
0010
0000
0010
0000
0010
0001
1000
0001
0100
0000
0100
0000
0100
0001
1000
0001
,
0010
0000
0011
0000
0010
0001
1000
0001
0100
0000
0101
0000
0100
0001
0010
0100
,
1000
0000
0000
0000
,
1121
0000
0000
0000
,
0000
0000
0000
0000
,
0000
0000
0000
0000
,
0000
0000
0000
0000
,
0000
0000
0000
0000
,
0000
0000
0000
0000
,
0000
0000
0000
0000
,
0000
0000
0000
0000
,
0000
0000
0000
0000
,
0000
0000
0000
0000
,
0000
0000
0000
0000
,
0000
0000
0000
0000
,
0000
0000
0000
0000
,
0000
0000
0000
0000
,
0000
0000
0000
0000
,
0000
0000
0000
0000
,
0000
0000
0000
0000
,
0000
0000
0000
0000
,
0000
0000
0000
0000
,
0000
0000
0000
0000
,
0000
0030
0000
0000
0000
0000
0000
0000
;

//---------------dance-single - ----------------
#NOTEDATA:;
#CHARTNAME:;
#STEPSTYPE:dance-single;
#DESCRIPTION:;
#CHARTSTYLE:;
#DIFFICULTY:Hard;
#METER:13;
#RADARVALUES:0.617540,0.809729,0.169106,0.549596,0.010569,409.000000,393.000000,16.000000,52.000000,0.000000,0.000000,0.000000,0.000000,0.000000,0.617540,0.809729,0.169106,0.549596,0.010569,409.000000,393.000000,16.000000,52.000000,0.000000,0.000000,0.000000,0.000000,0.000000;
#CREDIT:;
#DISPLAYBPM:180.000000;
#NOTES:
// measure 0
0000
0000
0000
0000
,  // measure 1
0000
0000
0000
0000
,  // measure 2
1002
0000
0100
0000
0100
0000
1003
0010
,  // measure 3
0200
0000
0310
1000
0200
0000
0320
0000
,  // measure 4
0031
0100
0001
0100
0001
1000
0001
1000
,  // measure 5
0001
0010
0100
1000
0010
0100
0001
1000
,  // measure 6
0200
0000
0010
0000
1300
0100
0010
0001
,  // measure 7
0200
0000
0310
1000
0200
0000
0310
0001
,  // measure 8
1000
1000
0010
0100
0001
0001
0010
0100
,  // measure 9
1000
0010
0001
0010
1000
0100
0001
0100
,  // measure 10
2000
0000
0100
0000
0100
0000
3001
0010
,  // measure 11
0200
0000
0310
0001
0200
0000
0320
0000
,  // measure 12
1030
0100
1000
0100
1000
0001
1000
0001
,  // measure 13
1000
0010
0100
0001
0010
0100
1000
0001
,  // measure 14
0200
0000
0010
0000
0301
0100
0010
1000
,  // measure 15
0200
0000
0310
0001
0200
0000
0310
1000
,  // measure 16
0001
0001
0010
0100
1000
1000
0010
0100
,  // measure 17
0001
0010
1000
0010
0001
0100
1000
0100
,  // measure 18
0001
0010
0100
0010
0001
0001
1000
1000
,  // measure 19
0010
0100
0001
0010
0001
0100
0020
0000
,  // measure 20
1030
0010
0001
0010
1000
0001
0010
0100
,  // measure 21
0010
0010
0001
1000
0010
0000
0110
0000
,  // measure 22
1000
0010
0100
0010
1000
1000
0001
0001
,  // measure 23
0010
0100
1000
0010
1000
0100
0020
0000
,  // measure 24
0031
0010
1000
0010
0001
1000
0010
0100
,  // measure 25
0010
0000
1000
0000
0001
0000
0000
2002
0000
0000
0000
0000
3003
0000
0000
0000
,  // measure 26
2000
0100
0010
0100
,  // measure 27
3002
0100
0010
0100
,  // measure 28
2003
0010
0001
0100
,  // measure 29
3002
0100
1000
0010
,  // measure 30
0203
1000
0010
0001
,  // measure 31
0320
1000
0100
0001
,  // measure 32
1030
0010
1000
0010
0100
0001
0100
0001
,  // measure 33
1000
0100
0010
0002
2000
0000
3003
0000
,  // measure 34
0001
0010
1000
0010
0001
0000
0011
0000
,  // measure 35
1000
0010
0001
0010
1000
0000
1010
0000
,  // measure 36
1000
0100
1000
0000
0001
0100
0001
0000
,  // measure 37
0110
1000
0002
0023
,  // measure 38
0031
0100
1000
0100
0001
0000
0101
0000
,  // measure 39
1000
0100
0001
0100
1000
0000
1100
0000
,  // measure 40
0001
0010
0001
0000
1000
0010
1000
0000
,  // measure 41
0001
0010
0001
1000
0020
0000
0130
0010
,  // measure 42
1010
0000
0011
0000
1010
0000
1000
0100
,  // measure 43
0010
0000
0001
0000
0100
0000
0000
0010
0000
0000
1000
0000
0100
0000
0010
0000
,  // measure 44
0011
0000
1010
0000
0001
0010
0100
1000
,  // measure 45
0020
0000
0032
0023
2030
0000
3200
0000
,  // measure 46
0310
0010
0001
0001
1000
1000
0010
0010
,  // measure 47
0100
0001
2000
0200
0000
0000
3300
0000
,  // measure 48
0012
0000
1000
0000
1000
0000
0103
0010
,  // measure 49
0002
0000
0013
0100
0002
0000
0023
0000
,  // measure 50
0130
1000
0100
1000
0010
1000
0010
1000
,  // measure 51
0010
0001
0010
0100
1000
0100
0001
0010
,  // measure 52
0200
0000
0010
0000
0301
0100
1000
0010
,  // measure 53
0002
0000
0013
1000
0200
0000
0310
0001
,  // measure 54
1000
1000
0010
0100
1000
1000
0100
0010
,  // measure 55
1000
0100
0001
0100
1000
0010
0001
0010
,  // measure 56
2000
0000
0001
0000
0001
0000
3100
0010
,  // measure 57
2000
0000
3010
0100
2000
0000
3020
0000
,  // measure 58
0130
0001
0100
0001
0010
0001
0010
0001
,  // measure 59
0010
1000
0010
0100
0001
0100
1000
0010
,  // measure 60
0200
0000
0010
0000
1300
0100
0001
0010
,  // measure 61
2000
0000
3010
0001
0200
0000
0310
1000
,  // measure 62
0001
0001
0010
0100
0001
0001
0100
0010
,  // measure 63
0001
0001
0100
0010
1000
1000
0100
0010
,  // measure 64
1001
0000
0000
0000
,  // measure 65
2002
0000
0000
0000
,  // measure 66
0000
0000
0000
0000
,  // measure 67
0000
0000
0000
0000
,  // measure 68
0000
0000
0000
0000
,  // measure 69
0000
0000
0000
0000
,  // measure 70
0000
0000
0000
0000
,  // measure 71
0000
0000
0000
0000
,  // measure 72
0000
0000
0000
0000
,  // measure 73
0000
0000
0000
0000
,  // measure 74
0000
0000
0000
0000
,  // measure 75
0000
0000
0000
0000
,  // measure 76
0000
0000
0000
0000
,  // measure 77
0000
0000
0000
0000
,  // measure 78
0000
0000
0000
0000
,  // measure 79
0000
0000
0000
0000
,  // measure 80
0000
0000
0000
0000
,  // measure 81
0000
0000
0000
0000
,  // measure 82
0000
0000
0000
0000
,  // measure 83
0000
0000
0000
0000
,  // measure 84
0000
0000
0000
0000
,  // measure 85
0000
3003
0000
0000
0000
0000
0000
0000
;

//---------------dance-single - ----------------
#NOTEDATA:;
#CHARTNAME:;
#STEPSTYPE:dance-single;
#DESCRIPTION:;
#CHARTSTYLE:;
#DIFFICULTY:Medium;
#METER:8;
#RADARVALUES:0.439375,0.629789,0.338213,0.475612,0.000000,291.000000,259.000000,32.000000,45.000000,0.000000,0.000000,0.000000,0.000000,0.000000,0.439375,0.629789,0.338213,0.475612,0.000000,291.000000,259.000000,32.000000,45.000000,0.000000,0.000000,0.000000,0.000000,0.000000;
#CREDIT:;
#DISPLAYBPM:180.000000;
#NOTES:
// measure 0
0000
0000
0000
0000
,  // measure 1
0000
0000
0000
0000
,  // measure 2
1002
0000
0000
0000
1003
0000
0001
0010
,  // measure 3
0002
0000
0000
0013
0200
0000
2300
0000
,  // measure 4
3001
0001
0100
0100
,  // measure 5
0010
1000
0100
0010
,  // measure 6
0200
0000
0310
0001
,  // measure 7
0200
0000
0000
0310
1000
0000
0001
0000
,  // measure 8
0010
0100
0010
0100
,  // measure 9
0011
1100
0011
1100
,  // measure 10
2001
0000
0000
0000
3001
0000
1000
0010
,  // measure 11
2000
0000
0000
3010
0200
0000
0302
0000
,  // measure 12
1003
1000
0100
0100
,  // measure 13
0010
0001
0100
0010
,  // measure 14
0200
0000
0310
1000
,  // measure 15
0200
0000
0000
0310
0001
0000
1000
0000
,  // measure 16
0010
0100
0010
0100
,  // measure 17
1010
0101
1010
0101
,  // measure 18
1000
0100
0010
0100
,  // measure 19
1000
0010
0001
0010
,  // measure 20
1000
0010
1000
0000
0001
0100
0001
0000
,  // measure 21
1000
0100
0100
0010
,  // measure 22
0001
0100
0010
0100
,  // measure 23
0001
0010
1000
0010
,  // measure 24
0001
0010
0001
0000
1000
0100
1000
0000
,  // measure 25
0001
0100
1001
0000
,  // measure 26
2000
0100
0100
0100
,  // measure 27
3002
0100
0100
0100
,  // measure 28
2003
0010
0001
0010
,  // measure 29
3002
0010
1000
0010
,  // measure 30
2003
0100
0001
0010
,  // measure 31
3002
0100
1000
0010
,  // measure 32
1003
0100
0010
0001
,  // measure 33
0100
0010
2002
3003
,  // measure 34
0001
0010
0001
0000
0012
0000
1003
0000
,  // measure 35
1000
0010
1000
0000
2010
0000
3001
0000
,  // measure 36
1000
0100
0001
0100
,  // measure 37
1000
0001
0200
0320
,  // measure 38
1030
0100
1000
0000
2100
0000
3001
0000
,  // measure 39
0001
0100
0001
0000
0102
0000
1003
0000
,  // measure 40
0001
0010
1000
0010
,  // measure 41
0001
0010
0001
0010
0001
0000
1000
0010
,  // measure 42
1000
0000
0010
0000
0100
0000
0001
0010
,  // measure 43
0001
0000
0010
0000
0100
0000
1000
0010
,  // measure 44
1000
0000
0001
0000
0010
0001
0010
0001
,  // measure 45
0020
0032
2003
3010
,  // measure 46
0101
1010
1100
0011
,  // measure 47
0001
1000
0002
2000
0000
0000
3003
0000
,  // measure 48
2010
0000
0000
0000
3001
0000
0100
0010
,  // measure 49
0200
0000
0000
0301
2000
0000
3200
0000
,  // measure 50
0301
0001
0100
0100
,  // measure 51
1000
0010
0001
0010
,  // measure 52
2000
0000
3100
0010
,  // measure 53
0002
0000
0000
0103
0010
0000
1000
0000
,  // measure 54
0001
0010
0001
0010
,  // measure 55
0011
1010
1100
0101
,  // measure 56
0012
0000
0000
0000
1003
0000
0100
0010
,  // measure 57
0200
0000
0000
1300
0002
0000
0203
0000
,  // measure 58
1300
1000
0100
0100
,  // measure 59
0001
0010
1000
0010
,  // measure 60
0002
0000
0103
0010
,  // measure 61
2000
0000
0000
3100
0010
0000
0001
0000
,  // measure 62
1000
0010
1000
0010
,  // measure 63
1010
0011
0101
1100
,  // measure 64
1001
0000
0000
0000
,  // measure 65
2002
0000
0000
0000
,  // measure 66
0000
0000
0000
0000
,  // measure 67
0000
0000
0000
0000
,  // measure 68
0000
0000
0000
0000
,  // measure 69
0000
0000
0000
0000
,  // measure 70
0000
0000
0000
0000
,  // measure 71
0000
0000
0000
0000
,  // measure 72
0000
0000
0000
0000
,  // measure 73
0000
0000
0000
0000
,  // measure 74
0000
0000
0000
0000
,  // measure 75
0000
0000
0000
0000
,  // measure 76
0000
0000
0000
0000
,  // measure 77
0000
0000
0000
0000
,  // measure 78
0000
0000
0000
0000
,  // measure 79
0000
0000
0000
0000
,  // measure 80
0000
0000
0000
0000
,  // measure 81
0000
0000
0000
0000
,  // measure 82
0000
0000
0000
0000
,  // measure 83
0000
0000
0000
0000
,  // measure 84
0000
0000
0000
0000
,  // measure 85
0000
3003
0000
0000
0000
0000
0000
0000
;

//---------------dance-single - ----------------
#NOTEDATA:;
#CHARTNAME:;
#STEPSTYPE:dance-single;
#DESCRIPTION:;
#CHARTSTYLE:;
#DIFFICULTY:Easy;
#METER:5;
#RADARVALUES:0.291407,0.449849,0.095122,0.391059,0.000000,193.000000,184.000000,9.000000,37.000000,0.000000,0.000000,0.000000,0.000000,0.000000,0.291407,0.449849,0.095122,0.391059,0.000000,193.000000,184.000000,9.000000,37.000000,0.000000,0.000000,0.000000,0.000000,0.000000;
#CREDIT:;
#DISPLAYBPM:180.000000;
#NOTES:
// measure 0
0000
0000
0000
0000
,  // measure 1
0000
0000
0000
0000
,  // measure 2
0002
0000
0013
0010
,  // measure 3
0200
0000
0310
0001
,  // measure 4
1000
0000
0010
0000
,  // measure 5
0100
0010
1000
0001
,  // measure 6
0020
0000
0130
1000
,  // measure 7
0020
0000
0130
0010
,  // measure 8
1000
1000
0001
0001
,  // measure 9
1000
0001
1000
0001
,  // measure 10
2000
0000
3010
0010
,  // measure 11
0200
0000
0310
1000
,  // measure 12
0001
0000
0010
0000
,  // measure 13
0100
0010
0001
1000
,  // measure 14
0020
0000
0130
0001
,  // measure 15
0020
0000
0130
0010
,  // measure 16
0001
0001
1000
1000
,  // measure 17
0001
1000
0002
0003
,  // measure 18
0100
0000
0010
0000
,  // measure 19
1000
0010
1000
0000
,  // measure 20
0011
0000
1010
0000
,  // measure 21
1000
0100
0010
0000
,  // measure 22
0100
0000
0010
0000
,  // measure 23
0001
0010
0001
0000
,  // measure 24
1010
0000
0011
0000
,  // measure 25
0100
0010
1001
0000
,  // measure 26
2000
0000
0000
0000
,  // measure 27
3020
0000
0000
0000
,  // measure 28
0230
0000
0000
0000
,  // measure 29
0302
0000
0000
0000
,  // measure 30
2003
0000
3200
0000
,  // measure 31
0320
0000
0032
0000
,  // measure 32
1003
0010
0100
0001
,  // measure 33
0010
0010
0020
0030
,  // measure 34
0001
0010
0200
0300
,  // measure 35
1000
0010
0200
0300
,  // measure 36
0001
0100
0001
0100
,  // measure 37
0002
0003
1001
1001
,  // measure 38
1000
0100
0020
0030
,  // measure 39
0001
0100
0020
0030
,  // measure 40
1000
0001
1000
0001
,  // measure 41
0020
0000
0030
0010
,  // measure 42
0001
0001
0001
0100
,  // measure 43
0010
0100
0001
0000
,  // measure 44
1000
1000
0100
0010
,  // measure 45
0002
0000
0000
0003
,  // measure 46
0100
0100
0010
0010
,  // measure 47
1000
0002
2000
3003
,  // measure 48
2000
0000
3100
0100
,  // measure 49
0020
0000
0130
1000
,  // measure 50
0010
0000
0100
0000
,  // measure 51
0010
0100
0001
0010
,  // measure 52
0200
0000
0310
0001
,  // measure 53
0200
0000
0310
1000
,  // measure 54
0001
0001
0010
0010
,  // measure 55
0100
1000
0010
0100
,  // measure 56
0002
0000
0103
0100
,  // measure 57
0020
0000
0130
0001
,  // measure 58
0010
0000
0100
0000
,  // measure 59
0010
0100
1000
0010
,  // measure 60
0200
0000
0310
1000
,  // measure 61
0200
0000
0310
0001
,  // measure 62
1000
1000
0010
0010
,  // measure 63
0100
0001
0010
0100
,  // measure 64
1001
0000
0000
0000
,  // measure 65
2002
0000
0000
0000
,  // measure 66
0000
0000
0000
0000
,  // measure 67
0000
0000
0000
0000
,  // measure 68
0000
0000
0000
0000
,  // measure 69
0000
0000
0000
0000
,  // measure 70
0000
0000
0000
0000
,  // measure 71
0000
0000
0000
0000
,  // measure 72
0000
0000
0000
0000
,  // measure 73
0000
0000
0000
0000
,  // measure 74
0000
0000
0000
0000
,  // measure 75
0000
0000
0000
0000
,  // measure 76
0000
0000
0000
0000
,  // measure 77
0000
0000
0000
0000
,  // measure 78
0000
0000
0000
0000
,  // measure 79
0000
0000
0000
0000
,  // measure 80
0000
0000
0000
0000
,  // measure 81
0000
0000
0000
0000
,  // measure 82
0000
0000
0000
0000
,  // measure 83
0000
0000
0000
0000
,  // measure 84
0000
0000
0000
0000
,  // measure 85
0000
3003
0000
0000
0000
0000
0000
0000
;

//---------------dance-single - ----------------
#NOTEDATA:;
#CHARTNAME:;
#STEPSTYPE:dance-single;
#DESCRIPTION:;
#CHARTSTYLE:;
#DIFFICULTY:Beginner;
#METER:2;
#RADARVALUES:0.140419,0.270570,0.105691,0.232521,0.000000,93.000000,83.000000,10.000000,22.000000,0.000000,0.000000,0.000000,0.000000,0.000000,0.140419,0.270570,0.105691,0.232521,0.000000,93.000000,83.000000,10.000000,22.000000,0.000000,0.000000,0.000000,0.000000,0.000000;
#CREDIT:;
#OFFSET:-0.134490;
#BPMS:0.000000=180.000000
;
#STOPS:;
#DELAYS:;
#WARPS:;
#TIMESIGNATURES:0.000000=4=4
;
#TICKCOUNTS:0.000000=4
;
#COMBOS:0.000000=1
;
#SPEEDS:0.000000=1.000000=0.000000=0
;
#SCROLLS:0.000000=1.000000
;
#FAKES:;
#LABELS:0.000000=Song Start
;
#DISPLAYBPM:180.000000;
#NOTES:
// measure 0
0000
0000
0000
0000
,  // measure 1
0000
0000
0000
0000
,  // measure 2
0002
0000
0003
0000
,  // measure 3
0010
0000
0010
0000
,  // measure 4
0010
0000
0000
0000
,  // measure 5
0001
0000
0000
0000
,  // measure 6
2000
0000
3000
0000
,  // measure 7
0020
0000
0030
0000
,  // measure 8
0100
0000
0100
0000
,  // measure 9
1001
0000
1001
0000
,  // measure 10
2000
0000
3000
0000
,  // measure 11
0010
0000
0010
0000
,  // measure 12
0010
0000
0000
0000
,  // measure 13
1000
0000
0000
0000
,  // measure 14
0002
0000
0003
0000
,  // measure 15
0020
0000
0030
0000
,  // measure 16
0100
0000
0100
0000
,  // measure 17
1001
0000
1001
0000
,  // measure 18
1000
0000
0000
0000
,  // measure 19
0001
0000
0000
0000
,  // measure 20
0010
0000
0100
0000
,  // measure 21
0010
0000
0000
0000
,  // measure 22
0001
0000
0000
0000
,  // measure 23
1000
0000
0000
0000
,  // measure 24
0010
0000
0100
0000
,  // measure 25
0010
0000
0000
0000
,  // measure 26
2000
0000
3000
0000
,  // measure 27
0002
0000
0003
0000
,  // measure 28
2000
0000
3000
0000
,  // measure 29
0002
0000
0003
0000
,  // measure 30
2000
0000
3000
0000
,  // measure 31
0200
0000
0300
0000
,  // measure 32
0020
0000
0030
0000
,  // measure 33
0002
0000
0003
0000
,  // measure 34
0100
0000
0000
0000
,  // measure 35
0100
0000
0000
0000
,  // measure 36
0010
0000
1000
0000
,  // measure 37
0100
0000
0000
0000
,  // measure 38
0100
0000
0000
0000
,  // measure 39
0100
0000
0000
0000
,  // measure 40
0010
0000
0001
0000
,  // measure 41
0200
0000
0300
0000
,  // measure 42
0010
0000
0010
0000
,  // measure 43
1000
0000
0001
0000
,  // measure 44
0010
0000
0010
0000
,  // measure 45
0002
0000
0003
0000
,  // measure 46
0100
0000
0100
0000
,  // measure 47
1001
0000
0000
0000
,  // measure 48
2000
0000
3000
0000
,  // measure 49
0100
0000
0010
0000
,  // measure 50
0100
0000
0000
0000
,  // measure 51
1000
0000
0000
0000
,  // measure 52
0020
0000
0030
0000
,  // measure 53
0200
0000
0300
0000
,  // measure 54
0001
0000
1000
0000
,  // measure 55
1001
0000
0110
0000
,  // measure 56
0002
0000
0003
0000
,  // measure 57
0100
0000
0010
0000
,  // measure 58
0100
0000
0000
0000
,  // measure 59
0001
0000
0000
0000
,  // measure 60
0020
0000
0030
0000
,  // measure 61
0200
0000
0300
0000
,  // measure 62
1000
0000
0001
0000
,  // measure 63
1001
0000
0110
0000
,  // measure 64
1001
0000
0000
0000
;
