#TITLE:Rightfully;
#SUBTITLE:;
#ARTIST:Mili;
#TITLETRANSLIT:;
#SUBTITLETRANSLIT:;
#ARTISTTRANSLIT:;
#GENRE:;
#CREDIT:;
#BANNER:Rightfully.png;
#BACKGROUND:Rightfully-bg.png;
#LYRICSPATH:;
#CDTITLE:;
#MUSIC:Rightfully.ogg;
#OFFSET:-0.700000;
#SAMPLESTART:56.057796;
#SAMPLELENGTH:21.098900;
#SELECTABLE:YES;
#BPMS:0.000000=45.500000
,16.000000=91.000000
,44.000000=182.000000
,148.000000=91.000000
,179.500000=75.000000
,180.250000=91.000000
;
#STOPS:36.000000=0.659000,
43.500000=1.978000
;
#BGCHANGES:;
#KEYSOUNDS:;
#ATTACKS:;

//---------------dance-single - ----------------
#NOTES:
     dance-single:
     :
     Hard:
     10:
     0.351504,0.561931,0.142502,0.399004,0.133001,259.000000,244.000000,15.000000,42.000000,0.000000,0.000000,0.351504,0.561931,0.142502,0.399004,0.133001,259.000000,244.000000,15.000000,42.000000,0.000000,0.000000:
// measure 0
0000
0000
0000
0000
,  // measure 1
0000
0000
0000
0000
,  // measure 2
0002
0000
2003
0000
,  // measure 3
3020
0000
0000
0000
2000
0000
0000
0030
0002
0000
0000
3000
0020
0000
0000
0033
,  // measure 4
0011
0011
0000
0010
0100
1000
0000
1000
,  // measure 5
0001
0100
0010
0000
0110
0000
0000
0000
,  // measure 6
0020
0100
2030
0001
,  // measure 7
3200
0010
2300
3001
,  // measure 8
1001
1001
0001
0100
0010
0010
0000
1000
,  // measure 9
1001
0000
2000
0000
3020
0000
0130
0100
,  // measure 10
0001
0010
0100
0100
1000
0010
0100
0100
,  // measure 11
0110
0000
0010
1000
0001
0000
0001
0010
,  // measure 12
0100
0010
0100
1000
,  // measure 13
0001
0000
0001
1000
0010
1000
0001
0010
,  // measure 14
0100
0000
0010
1001
,  // measure 15
0002
0023
2030
3200
,  // measure 16
0302
1000
0010
0013
,  // measure 17
0020
0100
0031
0002
,  // measure 18
0203
0010
0001
0301
,  // measure 19
0002
1000
0010
2003
,  // measure 20
3020
0000
0100
0000
1030
0000
0010
1000
,  // measure 21
0001
0000
0001
0000
1000
0100
0010
0000
,  // measure 22
1000
0000
1000
0010
0100
0000
0100
0010
,  // measure 23
0001
0000
0001
1000
0020
0000
0230
0000
,  // measure 24
2300
3200
0302
0023
,  // measure 25
0230
0000
0310
0100
1000
0000
0001
0100
,  // measure 26
1000
0000
0100
0000
0001
0000
0001
1000
,  // measure 27
0020
0100
1030
0001
,  // measure 28
0010
0000
0100
1000
0001
0100
0010
0100
,  // measure 29
0120
0000
0130
0000
0001
0010
0100
0000
,  // measure 30
0110
0011
1001
0000
,  // measure 31
0110
0000
0001
1000
0100
0001
1000
0000
,  // measure 32
0001
0000
1000
0001
0100
0010
0100
0000
,  // measure 33
0220
0000
0000
0000
0330
0000
0100
1000
,  // measure 34
0001
0000
0001
0001
1000
0000
0000
0000
,  // measure 35
0002
1000
0023
0230
,  // measure 36
0320
0000
0031
0010
0100
0000
1000
0000
,  // measure 37
0002
1000
1000
1000
,  // measure 38
2003
0001
0001
3001
,  // measure 39
0001
0000
0000
0001
0000
0000
1000
0000
0001
0000
0000
0000
1000
0000
0000
0000
0001
0000
0000
1000
0000
0000
0100
0000
0010
0000
0000
0000
0001
0000
0000
0000
,  // measure 40
1000
0000
0000
1000
0000
0000
0001
0000
1000
0000
0000
0000
0001
0000
0000
0000
1000
0000
1000
0000
0001
0000
1000
0000
1000
0000
0000
0000
0000
0000
0000
0000
,  // measure 41
0001
1000
0010
0100
0010
0000
0010
0000
0100
0010
0100
0001
1000
0000
0100
0000
,  // measure 42
0010
0100
0010
0001
1000
0000
1000
0000
0001
1000
0010
1000
0001
0010
0100
0000
,  // measure 43
1000
0000
0000
0100
0000
0000
0010
0000
0001
0000
0000
0000
1000
0000
0000
0000
0010
0000
0000
1000
0000
0000
0001
0000
0010
0000
0000
0000
0100
0000
0000
0000
,  // measure 44
0010
0000
0000
0001
0000
0000
1000
0000
0010
0000
0000
0000
0100
0000
0000
0000
0010
0000
1000
0000
0001
0000
0010
0000
0100
0000
1000
0000
0001
0000
0100
0000
,  // measure 45
0000
0220
0000
0000
0000
0000
0000
0000
0330
0000
0000
0000
0000
0000
0000
0000
;
