#TITLE:Love So Soft;
#SUBTITLE:;
#ARTIST:Kelly Clarkson;
#TITLETRANSLIT:;
#SUBTITLETRANSLIT:;
#ARTISTTRANSLIT:;
#GENRE:;
#CREDIT:hooky;
#BANNER:;
#BACKGROUND:;
#LYRICSPATH:;
#CDTITLE:;
#MUSIC:Love So Soft.ogg;
#OFFSET:0.000000;
#SAMPLESTART:38.692947;
#SAMPLELENGTH:15.000000;
#SELECTABLE:YES;
#DISPLAYBPM:130.000000;
#BPMS:0.000000=130.000000
,84.000000=65.000000
,128.000000=130.000000
;
#STOPS:
;
#BGCHANGES:;
#KEYSOUNDS:;
#ATTACKS:;

//---------------dance-single - ----------------
#NOTES:
     dance-single:
     :
     Hard:
     10:
     0.354721,0.550183,0.198115,0.112265,0.138681,376.000000,346.000000,30.000000,17.000000,0.000000,0.000000,0.354721,0.550183,0.198115,0.112265,0.138681,376.000000,346.000000,30.000000,17.000000,0.000000,0.000000:
// measure 0
0000
0000
0000
0000
,  // measure 1
0000
0000
0000
0000
,  // measure 2
0000
0000
0000
0000
,  // measure 3
0000
0000
0000
0000
,  // measure 4
0000
0000
0000
0000
0000
0010
0010
0010
,  // measure 5
1000
0000
0001
1000
0000
0010
0100
0001
,  // measure 6
0001
0000
1000
0001
0000
0001
0010
0100
,  // measure 7
1000
0000
1000
0001
0000
0001
0100
0010
,  // measure 8
0100
0001
0001
0010
0000
0001
0001
0100
,  // measure 9
0010
0000
1000
0010
0000
1000
0100
1000
,  // measure 10
0001
0000
0001
0101
0000
0100
0100
0100
,  // measure 11
0000
0010
0010
0010
0000
1000
0100
0001
,  // measure 12
0100
2000
0000
0000
0000
0001
3000
0001
,  // measure 13
0100
0000
0101
0000
0001
0010
0100
0000
,  // measure 14
1000
0000
1010
0000
1000
0010
0100
0000
,  // measure 15
0001
0001
1000
1000
0010
0010
0100
0100
,  // measure 16
0001
0001
0001
0000
1000
0000
1100
0000
,  // measure 17
1010
0000
0100
0000
0001
0100
0010
0000
,  // measure 18
0100
0000
0110
0000
0010
0100
1000
0000
,  // measure 19
0100
0100
0001
0001
0100
0100
1000
1000
,  // measure 20
0100
0001
0010
0011
,  // measure 21
0110
0000
1010
0000
1010
0000
0100
1000
1100
0000
1100
0000
0011
0000
0001
0100
,  // measure 22
0001
0001
1000
1000
0001
0001
1000
1000
0020
0000
0100
0130
0001
0000
0010
0000
,  // measure 23
1100
0000
0011
0000
1100
0000
1000
0001
0101
0000
1010
0000
0101
0000
0001
1000
,  // measure 24
0001
0001
0100
0100
1000
1000
0100
0100
0001
0000
0010
0001
0100
0000
0011
0000
,  // measure 25
0200
0000
0301
0000
2000
0001
0000
3001
0000
0000
0110
0000
2020
0000
3030
0000
,  // measure 26
0020
0000
1030
0000
0002
1000
0000
1003
0000
0000
0110
0000
0202
0000
0303
0000
,  // measure 27
0001
0100
0001
0000
0001
0100
0001
0000
1000
0010
0100
0000
1000
0010
0100
0000
,  // measure 28
0001
0001
1000
0000
0001
0001
1000
0000
1000
1000
0001
0000
1000
0000
1001
0000
,  // measure 29
0010
1000
0100
0000
0010
1000
0100
0000
0010
0001
0010
0000
0010
0001
0010
0000
,  // measure 30
0001
0001
1000
0000
1000
0010
0100
0000
0100
0001
0010
0001
0100
0000
0001
0000
,  // measure 31
2002
0000
0000
0000
0000
0000
0000
0000
0000
0000
0000
0000
3003
0000
1000
0001
,  // measure 32
1000
0000
1000
0001
1000
0010
0100
0001
,  // measure 33
0200
0000
0000
0000
0010
0010
0310
0000
,  // measure 34
2010
0000
0100
0000
0010
0010
0100
0000
,  // measure 35
3001
0000
0100
0000
0001
1000
0100
0000
,  // measure 36
1000
1000
0001
0100
0001
0001
0010
0001
,  // measure 37
0100
0000
0100
0000
0001
0000
0001
0000
1000
0000
0000
0000
1100
0000
1000
0100
,  // measure 38
1000
0000
0010
0000
0100
0000
0000
0000
0100
0000
0100
0000
0001
0000
0010
0001
,  // measure 39
0010
0000
0001
0000
0100
0000
0000
0000
0010
0000
0010
0000
0100
0000
0001
0100
,  // measure 40
0010
0000
0100
0000
0010
0000
1000
0000
0100
0000
1000
0000
1000
0000
0001
1000
,  // measure 41
0001
0100
0100
0001
0100
0000
0110
0000
,  // measure 42
1000
0000
0000
0100
0000
0100
0000
2000
,  // measure 43
0000
0000
0001
0000
3001
0100
0110
0000
,  // measure 44
0010
1000
0100
0000
0010
1000
0100
0000
,  // measure 45
1000
0100
0001
0100
1000
0010
0001
0010
,  // measure 46
1000
1000
0001
0000
1000
1000
0001
0200
,  // measure 47
0000
0010
0000
1000
0000
0001
0301
0000
,  // measure 48
0100
0000
0010
0000
1000
0000
0100
0000
1000
0000
0001
0000
1000
0010
0000
0000
,  // measure 49
0100
0000
0000
0000
0010
1000
0000
0000
0010
1000
0000
0000
1000
0001
0000
0000
,  // measure 50
0001
0100
0010
0100
0001
0010
0010
0000
,  // measure 51
0001
1000
0100
1000
0010
0010
0100
0000
,  // measure 52
0010
0100
0001
0001
1000
0100
1000
2000
,  // measure 53
0000
0010
0001
3100
;
