#TITLE:It Makes You Forget (Itgehane);
#SUBTITLE:;
#ARTIST:Peggy Gou;
#TITLETRANSLIT:;
#SUBTITLETRANSLIT:;
#ARTISTTRANSLIT:;
#GENRE:;
#CREDIT:;
#MUSIC:[Week 4] - It Makes You Forget (Itgehane).ogg;
#BANNER:[Week 4] - It Makes You Forget (Itgehane)-bn.png;
#BACKGROUND:[Week 4] - It Makes You Forget (Itgehane)-bg.png;
#CDTITLE:;
#SAMPLESTART:53.614;
#SAMPLELENGTH:15.000;
#SELECTABLE:YES;
#OFFSET:1.826;
#BPMS:0.000=125.000;
#STOPS:;
#LASTBEATHINT:1.720833;
#BGCHANGES:;
#FGCHANGES:;

//--------------- dance-single - ----------------
#NOTES:
     dance-single:
     :
     Hard:
     11:
     0.480846,0.554499,0.086751,0.138801,0.533516,388,378,10,16,0,0,0.480846,0.554499,0.086751,0.138801,0.533516,388,378,10,16,0,0:
0000
0000
0000
0000
,
0000
0000
0000
0000
,
0000
0000
0000
0000
,
0000
0000
0000
0000
,
0000
0000
0000
0000
,
0000
0000
0010
0000
0001
0000
0001
1000
0000
1000
0000
1000
0100
0000
0010
0000
,
0000
0000
0001
0000
0100
0000
0100
0010
0000
0010
0000
0010
1000
0000
0001
0000
,
0000
0000
0110
0000
0010
0000
0010
0100
0000
0100
0000
0100
0001
0000
0010
0000
,
0000
0000
0110
0000
0100
0000
0100
0010
0000
0010
0000
0010
0001
0000
1000
0000
,
0100
0000
1000
0000
0001
0000
0001
0100
0000
0100
0000
0100
0010
0000
1000
0000
,
0100
0000
0010
0000
0001
0000
0001
0010
0000
0010
0000
0010
0100
0000
1000
0000
,
0010
0000
0100
0000
0001
0000
0001
1000
0000
1000
0000
1000
0100
0000
1000
0000
,
1100
0011
0101
1010
,
0100
0000
0010
0000
1000
0000
1000
0001
0000
0001
0000
0001
0010
0000
0100
0000
,
0001
0000
0100
0000
0010
0000
0010
0001
0000
0001
0000
0001
0010
0001
0100
0010
,
1000
0000
0010
0000
0100
0000
0100
0001
0000
0001
0000
0001
0100
0000
1000
0000
,
0100
0000
0010
0000
1000
0000
1000
0100
0000
0100
0000
0100
0010
0001
0100
0010
,
0100
0000
0010
0000
1000
0000
1000
0010
0000
0010
0000
0010
0100
0000
0001
0000
,
0010
0000
0001
0000
1000
0000
1000
0100
0000
0100
0000
0100
0010
0000
0001
0000
,
0100
0000
0010
0000
0010
0000
0010
0100
0000
0100
0000
0100
0010
0000
1000
0000
,
1010
0101
0011
1100
,
0010
0000
0100
0000
1000
0000
0010
0100
0000
0000
0000
0001
0010
0000
0100
0000
,
1000
0000
0000
0010
0000
0100
0000
0010
0000
0000
0000
0000
0000
0000
0000
0000
,
0100
0000
0001
0000
0010
0000
0100
0010
0000
0000
0001
0000
0100
0000
0010
0000
,
1000
0000
0000
0000
0001
0000
0000
0100
0000
0000
0000
0000
0000
0000
0000
0000
,
0010
0000
1000
0000
0100
0000
0010
0001
0000
0000
0100
0000
0010
0000
1000
0000
,
0001
0000
0100
0000
0010
0000
1000
0100
0000
0000
0000
0000
0000
0000
0000
0000
,
0100
0000
0000
0000
0001
0000
0000
0001
0000
0000
0010
0000
0001
0000
0100
0000
,
0010
0000
0000
0000
1000
0000
0001
0100
0000
0000
0000
0000
0000
0000
0010
0000
,
2000
0000
0010
0000
0001
0000
3100
0010
,
0002
0000
0000
0200
0000
0000
0000
0000
0000
0000
0000
0000
0303
0000
0010
0000
,
0200
0001
0010
0301
,
1000
0000
0000
1000
0000
0100
0000
0010
0000
0000
0000
0000
0000
0000
0000
0000
,
0002
0000
0100
0000
1000
0000
0013
0100
,
2000
0000
0000
0020
0000
0000
0000
0000
0000
0000
0000
0000
3030
0000
0100
0000
,
0020
1000
0100
1030
,
0001
0000
0000
0000
0001
0000
0000
0100
0000
0000
0000
0000
0000
0000
0000
0000
,
0010
0000
0000
0000
1000
0000
0000
0100
0000
0000
0000
0100
1000
0000
0001
0000
,
0010
0000
0000
0000
0001
0000
0000
0100
0000
0000
0000
0100
0001
0000
1000
0000
,
0010
0000
0000
0000
0001
0000
0000
0010
0000
0000
0000
0010
0100
0000
0001
0000
,
0010
0000
0000
0000
0001
0100
0000
1000
0000
0000
0000
0100
0001
0000
0010
0000
,
0100
0000
0000
0000
1000
0000
0000
0010
0000
0000
0000
0010
1000
0000
0001
0000
,
0100
0000
0000
0000
0001
0000
0000
0010
0000
0000
0000
0010
0001
0000
1000
0000
,
0100
0000
0000
0000
0001
0000
0000
0100
0000
0000
0000
0100
0010
0000
0001
0000
,
0100
0000
0000
0000
0001
0010
0000
1000
0000
0000
0000
0010
0001
0000
0100
0000
,
0010
0100
0010
0000
0000
0000
0100
0001
0010
0100
0000
0100
1000
0000
0001
0000
,
0100
0000
0000
0000
0100
0010
0000
1000
0000
0000
0000
0000
0000
0000
0000
0100
,
1000
0100
0010
0000
0001
0000
0010
0100
0000
0000
0000
0000
0000
0000
0000
0000
,
0010
0000
0010
0000
0010
0000
0001
0100
0000
0100
0000
0100
0010
0000
0000
0000
,
0100
0000
0001
0000
0100
0000
0010
1000
0000
1000
0000
1000
0100
0000
1000
0000
,
0010
0000
0100
0000
0001
0000
0010
0100
0000
0000
0000
0000
0000
0000
0000
0000
,
1000
0000
0100
0000
0010
0001
0000
0200
0000
0000
0302
0000
0000
2003
0000
0000
,
3200
0000
0000
0320
0000
0000
0032
0000
0000
0203
0000
0000
0320
0000
0000
1030
,
0100
0000
1000
0000
0000
0000
0000
0000
0010
0100
0000
0100
0001
0000
0010
0000
,
0100
0000
0010
0000
0000
0000
0000
0000
0001
0100
0000
0100
0010
0000
1000
0000
,
0100
0000
1000
0000
0000
0000
0000
0000
0010
0100
0000
0100
0001
0000
0010
0000
,
0100
0000
0010
0000
0000
0000
0000
0000
0001
0100
0000
0100
0010
0000
1000
0000
,
0100
0000
0001
0000
0000
0000
0000
0100
1000
0001
0000
0001
0100
0000
0010
0000
,
0100
0000
1000
0000
0000
0000
0000
0100
0001
1000
0000
1000
0100
0000
0010
0000
,
0100
0000
0001
0000
0000
0000
0000
0100
1000
0010
0000
0010
0100
0000
0001
0000
,
0010
0000
1000
0000
0000
0000
0000
0010
0001
1000
0000
1000
0010
0000
0100
0000
;
