#VERSION:0.83;
#TITLE:Emmene-moi au Futur;
#SUBTITLE:;
#ARTIST:YELLE;
#TITLETRANSLIT:;
#SUBTITLETRANSLIT:;
#ARTISTTRANSLIT:;
#GENRE:;
#ORIGIN:;
#CREDIT:;
#BANNER:emmene-moiaufutur-bn.png;
#BACKGROUND:emmene-moiaufutur-bg.png;
#PREVIEWVID:;
#JACKET:emmene-moiaufutur-jacket.png;
#CDIMAGE:;
#DISCIMAGE:;
#LYRICSPATH:;
#CDTITLE:cdtitle.png;
#MUSIC:emmene-moiaufutur.ogg;
#OFFSET:-0.399000;
#SAMPLESTART:117.596214;
#SAMPLELENGTH:13.813515;
#SELECTABLE:YES;
#BPMS:0.000=138.996;
#STOPS:;
#DELAYS:;
#WARPS:;
#TIMESIGNATURES:0.000=4=4;
#TICKCOUNTS:0.000=4;
#COMBOS:0.000=1;
#SPEEDS:0.000=1.000=0.000=0;
#SCROLLS:0.000=1.000;
#FAKES:;
#LABELS:0.000=Song Start;
#BGCHANGES:;
#KEYSOUNDS:;
#ATTACKS:
;

//---------------dance-single - ----------------
#NOTEDATA:;
#CHARTNAME:TonyAkita;
#STEPSTYPE:dance-single;
#DESCRIPTION:;
#CHARTSTYLE:;
#DIFFICULTY:Hard;
#METER:13;
#RADARVALUES:0.543194,0.797307,0.305547,0.101849,0.162958,560.000000,515.000000,45.000000,15.000000,0.000000,0.000000,0.000000,0.000000,0.000000,0.543194,0.797307,0.305547,0.101849,0.162958,560.000000,515.000000,45.000000,15.000000,0.000000,0.000000,0.000000,0.000000,0.000000;
#CREDIT:;
#NOTES:
// measure 0
0000
0000
0000
0000
,  // measure 1
0000
0000
0000
0000
,  // measure 2
0000
0000
0000
0000
,  // measure 3
0000
0000
0000
0000
,  // measure 4
1000
0001
0100
0010
0000
0010
0000
1000
,  // measure 5
0001
0010
1000
0010
0001
0100
0010
0000
,  // measure 6
1000
0100
0010
0001
0000
0001
0000
1000
,  // measure 7
1000
0010
1000
0000
0001
0000
1000
0100
0010
0001
0000
0010
0001
0010
0001
0000
,  // measure 8
0011
0000
0001
1001
0000
1100
0000
0101
,  // measure 9
0000
1000
0100
0010
0001
0000
0000
1000
,  // measure 10
1100
0000
0001
0101
0000
1010
0000
1100
,  // measure 11
0000
1000
0010
0100
0001
0000
0000
0010
,  // measure 12
0011
0000
0001
0101
0000
1001
0000
1010
,  // measure 13
0000
0010
0100
0001
1000
0000
0000
0001
,  // measure 14
0011
0000
1000
1010
0000
0110
0000
1001
,  // measure 15
0000
0000
0001
0000
0010
0000
0100
0000
1000
0000
0000
0000
0100
1000
0100
1000
,  // measure 16
0010
0100
0001
0100
1000
0100
0001
0010
,  // measure 17
0000
0100
0100
1000
0001
0000
0110
0000
,  // measure 18
1000
0010
0001
0010
1000
0100
0001
0100
,  // measure 19
0000
1000
1000
0010
0100
0000
0011
0000
,  // measure 20
0010
0100
1000
0100
0001
0100
1000
0010
,  // measure 21
0000
0100
0100
0001
1000
0000
0110
0000
,  // measure 22
0001
0010
1000
0010
0001
0100
0010
1000
,  // measure 23
0010
1000
0010
0000
0100
0000
0001
0010
0100
1000
0000
0001
0100
0010
0100
0010
,  // measure 24
0200
0000
1000
0000
0300
0100
0001
0010
,  // measure 25
0000
0000
0100
1000
0001
0100
0010
1000
,  // measure 26
0002
0000
0010
0000
0003
0001
0010
0100
,  // measure 27
0000
0000
1000
0100
0001
1000
0100
0001
,  // measure 28
0020
0000
1000
0000
0030
0010
0001
0100
,  // measure 29
0000
0000
0010
1000
0001
0010
0100
1000
,  // measure 30
0002
0000
0100
0000
0003
0001
0100
0010
,  // measure 31
0000
0000
1000
0010
0001
1000
0010
0001
,  // measure 32
1000
0100
0001
0000
0000
0001
0100
1000
,  // measure 33
0000
0000
0001
0100
1000
0010
0001
0100
,  // measure 34
0010
1000
0100
0000
0000
0100
1000
0010
,  // measure 35
0000
0000
0100
0001
1000
0100
0010
0001
,  // measure 36
1000
0010
0001
0000
0000
0001
0010
1000
,  // measure 37
0000
0000
0001
0010
1000
0100
0001
0010
,  // measure 38
0100
1000
0010
0000
0000
0010
1000
0100
,  // measure 39
0000
0000
1000
0010
0001
1000
0010
0001
,  // measure 40
0011
1000
0000
1010
0001
0000
0110
1000
,  // measure 41
0000
0010
0010
1000
0001
0100
1000
0000
,  // measure 42
0101
1000
0000
1100
0001
0000
0110
1000
,  // measure 43
0000
0001
0100
1000
0100
0010
0010
0000
,  // measure 44
1010
0001
0000
0011
1000
0000
0110
0001
,  // measure 45
0000
0010
0010
0001
1000
0100
0001
0000
,  // measure 46
1100
0001
0000
0101
1000
0000
2002
0000
,  // measure 47
0000
0000
0000
3003
,  // measure 48
2000
0000
0000
0010
0000
0000
0000
3200
,  // measure 49
0000
0000
0000
0001
0000
0000
0000
0000
,  // measure 50
0320
0000
0000
1000
0000
0000
0000
0032
,  // measure 51
0000
0000
0000
0000
2003
0000
0000
3000
,  // measure 52
0010
1000
0010
0000
0100
0000
0001
0010
0001
0010
0000
0100
1000
0000
0001
0100
,  // measure 53
1000
0100
0001
0000
1000
0000
0010
1000
0010
1000
0000
0001
0010
0000
0100
1000
,  // measure 54
0100
1000
0100
0000
0010
0000
0001
0100
0001
0100
0000
0010
1000
0000
0001
0010
,  // measure 55
1000
0010
0001
0000
1000
0000
0001
0100
0010
1000
0010
1000
0001
1000
0001
1000
,  // measure 56
1001
0000
0001
0000
0010
0000
0100
1000
0100
0000
0001
0000
0100
0000
1000
0010
,  // measure 57
1000
0010
0100
0001
1001
0000
1010
0000
,  // measure 58
0010
0000
1000
0000
0010
0000
0100
0001
0100
0000
1000
0000
0100
0000
0001
0010
,  // measure 59
0001
0010
0100
1000
1001
0000
0011
0000
,  // measure 60
0001
0000
0010
0000
0100
0000
1000
0100
0001
0000
0100
0000
1000
0000
0001
0010
,  // measure 61
1000
0010
0001
1000
1010
0000
0101
0000
,  // measure 62
0001
0000
0100
0000
0010
0000
1000
0010
0001
0000
0010
0000
1000
0000
0001
0100
,  // measure 63
1000
0000
0100
0000
0001
0000
1000
0000
0100
0010
0100
0010
0001
1000
0001
1000
,  // measure 64
0010
0010
0100
0001
0010
0010
0100
1000
,  // measure 65
0010
0010
0100
0001
0010
0010
0100
1000
,  // measure 66
0010
0010
1000
1000
0010
0010
0001
0001
,  // measure 67
0010
0000
0010
0000
1000
0000
0001
0000
1000
0000
0001
0000
1000
0001
1000
0001
,  // measure 68
1000
0010
0001
0000
0000
0001
0010
1000
,  // measure 69
0000
0000
0001
0100
1000
0010
0001
0100
,  // measure 70
0010
1000
0100
0000
0000
0100
1000
0010
,  // measure 71
0000
0000
1000
0100
0001
1000
0100
0001
,  // measure 72
1000
0010
0001
0000
0000
0001
0010
1000
,  // measure 73
0000
0000
0001
0010
1000
0100
0001
0010
,  // measure 74
0100
1000
0010
0000
0000
0010
1000
0100
,  // measure 75
0000
0000
1000
0100
0001
1000
0100
0001
,  // measure 76
0102
0000
0010
0000
0000
0013
0000
1100
,  // measure 77
0000
1000
1010
0000
1000
0010
0100
0001
,  // measure 78
2100
0000
0010
0000
0000
3010
0000
0101
,  // measure 79
0000
0001
0011
0000
0001
0010
0100
1000
,  // measure 80
1020
0000
0000
0000
0000
0001
0000
1030
,  // measure 81
0000
0000
1000
0100
0001
0010
1000
0100
,  // measure 82
0200
0000
0000
0000
0000
0001
0000
1300
,  // measure 83
0000
0000
1000
0100
0001
1000
0100
0010
;

//---------------dance-single - ----------------
#NOTEDATA:;
#CHARTNAME:;
#STEPSTYPE:dance-single;
#DESCRIPTION:;
#CHARTSTYLE:;
#DIFFICULTY:Medium;
#METER:7;
#RADARVALUES:0.333676,0.369627,0.156168,0.108639,0.000000,344.000000,321.000000,23.000000,16.000000,0.000000,0.000000,0.000000,0.000000,0.000000,0.333676,0.369627,0.156168,0.108639,0.000000,344.000000,321.000000,23.000000,16.000000,0.000000,0.000000,0.000000,0.000000,0.000000;
#CREDIT:TonyAkita;
#NOTES:
0000
0000
0000
0000
,
0000
0000
0000
0000
,
0000
0000
0000
0000
,
0000
0000
0000
0000
,
1001
0000
0000
1000
0000
1000
0000
0010
,
0000
0010
0100
0000
0001
0000
0000
0000
,
0011
0000
0000
0001
0000
0001
0000
1000
,
0000
0010
0100
0000
0001
0000
0000
0000
,
1000
0100
0001
0100
,
1000
0000
0001
0100
1000
0000
0000
0000
,
0100
0001
0010
0001
,
0100
0000
0010
0010
1000
0000
0000
0000
,
0001
0010
1000
0010
,
0001
0000
1000
0010
0001
0000
0000
0000
,
0010
1000
0100
1000
,
0010
0000
0100
0100
0001
0000
0000
0000
,
1000
0000
1000
0010
0000
0010
0000
0100
,
0000
0100
0100
0000
1001
0000
0000
0000
,
0001
0000
0001
0010
0000
0010
0000
0100
,
0000
0100
0100
0000
1001
0000
0000
0000
,
1000
0000
1000
0100
0000
0100
0000
0001
,
0000
0100
1000
0000
1100
0000
0000
0000
,
0001
0000
0001
0100
0000
0100
0000
1000
,
0000
0100
0001
0000
1000
0100
0010
0001
,
1000
0000
2000
0000
0000
0010
0000
3010
,
0000
0000
0100
0001
0010
0000
0010
0000
,
0001
0000
0002
0000
0000
0100
0000
0103
,
0000
0000
0010
1000
0100
0000
0100
0000
,
0010
0000
0020
0000
0000
0001
0000
0031
,
0000
0000
1000
0100
0010
0000
0010
0000
,
0100
0000
0200
0000
0000
1000
0000
1300
,
0000
0000
0001
0100
0010
0000
0010
0000
,
1000
0100
0001
0000
0000
0100
0000
0100
,
0000
0000
1000
0100
0010
0001
1000
0000
,
0001
0100
1000
0000
0000
0100
0000
0100
,
0000
0000
0001
0100
0010
1000
0001
0000
,
0010
0010
0010
0000
0000
0001
0000
0001
,
0000
0000
1000
0100
0001
0100
1000
0000
,
0010
0010
0010
0000
0000
1000
0000
1000
,
0000
0000
0001
0100
1000
0100
0001
0000
,
0101
0000
0000
0011
0000
0000
0101
0000
,
0001
0010
0000
0001
0000
0000
1000
0000
,
1010
0000
0000
1100
0000
0000
1010
0000
,
1000
0100
0000
0010
0000
0000
0001
0000
,
0011
0000
0000
1010
0000
0000
0011
0000
,
1000
0010
0000
0001
0000
0000
0010
0000
,
1010
0000
0000
0011
0000
0000
2002
0000
,
0000
0000
0000
3003
,
2000
0000
0000
0000
0000
0000
0000
3020
,
0000
0000
0000
0000
,
0230
0000
0000
0000
0000
0000
0000
0302
,
0000
0000
0013
0000
,
0001
0000
1000
0000
0001
0100
1000
0000
,
0100
0000
0001
0000
0010
0001
0100
0000
,
0010
0000
1000
0000
0001
0010
1000
0000
,
0010
0000
0001
0000
0100
0001
0100
0001
,
0011
0000
0000
0001
0000
0001
0000
0100
,
0000
0001
0010
0100
1000
0000
0000
0000
,
1010
0000
0000
1000
0000
1000
0000
0100
,
0000
1000
0010
0100
0001
0000
0000
0000
,
0011
0000
0000
0001
0000
0001
0000
1000
,
0000
0010
0100
0001
1000
0000
0000
0000
,
1010
0000
0000
1000
0000
1000
0000
0001
,
0000
0010
0100
1000
0001
0000
0000
0000
,
0100
0000
0100
0010
1000
0000
0100
0010
,
0001
0000
0100
0010
1000
0000
0100
0010
,
0001
0100
0010
0100
,
0010
0100
0010
0100
0010
0100
0010
0100
,
0010
0000
0020
0000
0000
1000
0000
1030
,
0000
0000
0100
0010
0001
0000
0001
0000
,
1000
0000
2000
0000
0000
0010
0000
3010
,
0000
0000
0100
0001
0010
0000
0010
0000
,
0100
0000
0200
0000
0000
1000
0000
1300
,
0000
0000
0010
0100
0001
0000
0001
0000
,
1000
0000
2000
0000
0000
0100
0000
3100
,
0000
0000
0010
0001
0100
0000
0100
0000
,
1010
1000
0000
1000
,
0001
0100
0010
0000
0000
0000
0010
0000
,
0011
0001
0000
0001
,
1000
0100
0010
0000
0000
0000
0010
0000
,
0020
0000
0000
0000
0000
1000
0000
1030
,
0000
0000
0001
0010
1000
0010
0001
0000
,
0020
0000
0000
0000
0000
0001
0000
0031
,
0000
0000
1000
0010
0001
0010
1000
0000
;

//---------------dance-single - ----------------
#NOTEDATA:;
#CHARTNAME:;
#STEPSTYPE:dance-single;
#DESCRIPTION:;
#CHARTSTYLE:;
#DIFFICULTY:Easy;
#METER:5;
#RADARVALUES:0.238617,0.284328,0.108639,0.081479,0.000000,246.000000,230.000000,16.000000,12.000000,0.000000,0.000000,0.000000,0.000000,0.000000,0.238617,0.284328,0.108639,0.081479,0.000000,246.000000,230.000000,16.000000,12.000000,0.000000,0.000000,0.000000,0.000000,0.000000;
#CREDIT:TonyAkita;
#NOTES:
0000
0000
0000
0000
,
0000
0000
0000
0000
,
0000
0000
0000
0000
,
0000
0000
0000
0000
,
1000
0000
1000
0000
,
0001
0010
1000
0000
,
0010
0000
0010
0000
,
0001
0100
0010
1000
,
1010
0000
1000
1000
,
0100
0000
0010
0000
,
0011
0000
0001
0001
,
0100
0000
0010
0000
,
1010
0000
1000
0001
,
1000
0000
0010
0000
,
0011
0000
0001
1000
,
0001
0000
0010
0010
,
0100
1000
0100
0001
,
0100
1000
0010
0000
,
0100
0001
0010
1000
,
0100
0010
0010
0000
,
0100
0001
0100
1000
,
0100
0001
0010
0000
,
0100
1000
0010
0001
,
0100
0010
0010
0000
,
1000
1000
0000
0001
,
0002
0000
0013
0100
,
1000
0001
0000
0001
,
2000
0000
3010
0100
,
0001
0001
0000
1000
,
2000
0000
3100
0001
,
0100
1000
0000
0001
,
0002
0000
0103
1000
,
0100
0010
0000
0110
,
1001
0000
0001
0010
,
0100
1000
0000
1100
,
1010
0000
0010
0100
,
0001
0010
0000
0011
,
0101
0000
1000
0100
,
0010
0001
0000
1010
,
1100
0000
1000
0010
,
0100
0000
0000
0100
0000
0000
0100
0000
,
0000
0000
0001
0001
0001
0000
0001
0000
,
0010
0000
0000
0010
0000
0000
0010
0000
,
0000
0000
0100
0100
0100
0000
0100
0000
,
1000
0000
0000
0001
0000
0000
1000
0000
,
0000
0000
0010
0010
0010
0000
0010
0000
,
0100
0000
0000
0100
0000
0000
1001
0000
,
0000
0000
0000
0000
,
2000
0000
0000
0000
0000
0000
0000
3010
,
0000
0000
0000
0000
,
0002
0000
0000
0000
0000
0000
0000
0013
,
0000
0000
0100
0000
,
0000
1000
0000
1000
,
0000
0001
0000
0001
,
0000
0100
0000
0010
,
0000
0100
0001
0001
,
1000
0100
0001
0100
,
1000
0001
0001
0000
,
1000
0010
0001
0010
,
1000
0100
0100
0000
,
0010
0001
1000
0100
,
0001
0010
1000
0000
,
0010
1000
0001
0100
,
1000
0010
0001
0000
,
1000
0000
0010
0000
,
0001
0000
0010
0000
,
0010
0010
0100
0100
,
0010
0100
0010
0100
,
0001
0001
0000
1000
,
2000
0000
3010
0100
,
0001
1000
0000
1000
,
0002
0000
0013
0100
,
1000
0010
0000
0001
,
0020
0000
0130
0001
,
1000
0100
0000
0001
,
0200
0000
1300
0010
,
0110
0000
0000
0000
0000
0001
0000
1000
,
0000
0000
0001
0010
,
0100
0000
1000
0000
0000
0001
0000
1000
,
0000
1000
0010
0100
,
0002
0000
0000
0000
0000
0000
0000
0013
,
0000
0000
0001
1000
,
2000
0000
0000
0000
0000
0000
0000
3010
,
0000
0000
1001
0110
;

//---------------dance-single - ----------------
#NOTEDATA:;
#CHARTNAME:;
#STEPSTYPE:dance-single;
#DESCRIPTION:;
#CHARTSTYLE:;
#DIFFICULTY:Beginner;
#METER:3;
#RADARVALUES:0.137739,0.226784,0.088269,0.061109,0.000000,142.000000,129.000000,13.000000,9.000000,0.000000,0.000000,0.000000,0.000000,0.000000,0.137739,0.226784,0.088269,0.061109,0.000000,142.000000,129.000000,13.000000,9.000000,0.000000,0.000000,0.000000,0.000000,0.000000;
#CREDIT:;
#NOTES:
0000
0000
0000
0000
,
0000
0000
0000
0000
,
0000
0000
0000
0000
,
0000
0000
0000
0000
,
0001
0000
0000
0000
,
0100
0000
0010
0000
,
1000
0000
0000
0000
,
0100
0000
0010
0000
,
0001
0000
0001
0000
,
0000
0100
0100
0000
,
1000
0000
1000
0000
,
0000
0100
0100
0000
,
0001
0000
0001
0000
,
0000
0010
0010
0000
,
1000
0000
1000
0000
,
0000
0010
0010
0000
,
0100
0000
0010
0000
,
0001
0001
0001
0000
,
0100
0000
0010
0000
,
1000
1000
1000
0000
,
0100
0000
0001
0000
,
0100
0100
0100
0000
,
0010
0000
0001
0000
,
1000
1000
1000
0000
,
1001
0000
0000
0010
,
0010
0000
0000
0000
,
1001
0000
0000
0100
,
0100
0000
0000
0000
,
0110
0000
0000
0001
,
0001
0000
0000
0000
,
0110
0000
0000
1000
,
1000
0000
0000
0000
,
0020
0000
0000
0030
,
0010
0000
0100
0000
,
0200
0000
0000
0300
,
0100
0000
0010
0000
,
2000
0000
0000
3000
,
1000
0000
0001
0000
,
0002
0000
0000
0003
,
0001
0000
1000
0000
,
0110
0000
0000
0000
,
1001
0000
0000
0000
,
0110
0000
0000
0000
,
1001
0000
0000
0000
,
0110
0000
0000
0000
,
1001
0000
0000
0000
,
1001
0000
0000
0000
,
0220
0000
0000
0000
,
0330
0000
0000
0000
,
0001
0000
0000
0000
,
2000
0000
0000
3000
,
1000
0000
0100
0000
,
0010
0000
0000
0000
,
0010
0000
0000
0000
,
0100
0000
0000
0000
,
1000
0000
0001
0000
,
0100
0000
0000
0010
,
0010
0000
0000
0000
,
1000
0000
0000
0001
,
0001
0000
0000
0000
,
0010
0000
0000
0100
,
0100
0000
0000
0000
,
1000
0000
0000
0001
,
0001
0000
0000
0000
,
0010
0000
0100
0000
,
0010
0000
0100
0000
,
0010
0000
0100
0100
,
0100
0100
0100
0100
,
0100
0000
0000
1000
,
1000
0000
0001
0000
,
0100
0000
0000
0010
,
0010
0000
1000
0000
,
0001
0000
0000
0010
,
0010
0000
1000
0000
,
0010
0000
0000
0100
,
0100
0000
1000
0000
,
0001
0000
0000
0000
,
0001
0000
0000
0000
,
1000
0000
0000
0000
,
1000
0000
0000
0000
,
0020
0000
0000
0000
,
0030
0000
0000
0000
,
0200
0000
0000
0000
,
0300
0000
1001
0000
;
