#TITLE:EVERY TIME I SEE YOU;
#SUBTITLE:;
#ARTIST:JEMMA & ELISE;
#TITLETRANSLIT:;
#SUBTITLETRANSLIT:;
#ARTISTTRANSLIT:;
#CREDIT:;
#BANNER:;
#BACKGROUND:;
#LYRICSPATH:;
#CDTITLE:;
#MUSIC:EVERY TIME I SEE YOU.ogg;
#OFFSET:-12.556;
#SAMPLESTART:55.598;
#SAMPLELENGTH:12.000;
#SELECTABLE:YES;
#BPMS:0.000=139.400;
#STOPS:;
#BGCHANGES:;

//---------------dance-double - ----------------
#NOTES:
     dance-double:
     :
     Hard:
     11:
     0.433,0.395,0.102,0.045,0.306: // measure 1
00000000
00000000
00000000
00000000
,  // measure 2
00010000
00000000
00000000
00010000
00000000
00000000
01000000
00000000
00100000
00000000
00000000
00100000
00000000
00000000
00001000
00000000
,  // measure 3
00000000
00000100
00000000
00000000
00000100
00000000
00000010
00000000
00001000
00000000
00000000
00000000
00001001
00000000
00000000
00000000
,  // measure 4
00000001
00000000
00000000
00000001
00000000
00000000
00000100
00000000
00001000
00000000
00000000
00001000
00000000
00000000
00010000
00000000
,  // measure 5
00000000
00001000
00000000
00000000
00000010
00000000
00000000
00000100
00000000
00010000
00000000
00000000
00011000
00000000
00000000
00000000
,  // measure 6
00001000
00000000
00000000
00001000
00000000
00000000
00000100
00000000
00000010
00000000
00000000
00000010
00000000
00000000
00010000
00000000
,  // measure 7
01000000
00000000
00000000
01000000
00000000
00000000
00100000
00000000
00010000
00000000
00000000
00000000
10010000
00000000
00000000
00000000
,  // measure 8
10000000
00000000
00000000
10000000
00000000
00000000
01000000
00000000
00010000
00000000
00000000
00010000
00000000
00000000
00001000
00000000
,  // measure 9
00000000
00010000
00000000
00000000
00100000
00000000
00000000
01000000
00000000
00001000
00000000
00000000
00010000
00001000
00010000
00000000
,  // measure 10
00001000
00000100
00000001
00000100
00001000
00000000
00010000
00100000
,  // measure 11
10000000
00000000
00000000
10000000
00000000
00000000
01000000
00000000
00010000
00000000
00000000
00010000
00000000
00000000
00001000
00000000
,  // measure 12
00000010
00000001
00000100
00001000
00000100
00000001
00000010
00000000
,  // measure 13
00000001
00000000
00000000
00000001
00000000
00000000
00001000
00000010
00000100
00000000
00000000
00000100
00000000
00000000
00001000
00000000
,  // measure 14
00010000
01000000
10000000
01000000
00010000
00000000
00001000
00000010
,  // measure 15
00000001
00000000
00000000
00000001
00000000
00000000
00000100
00000000
00001000
00000000
00000000
00001000
00000000
00000000
00010000
00000000
,  // measure 16
00100000
10000000
01000000
00010000
01000000
10000000
00100000
00000000
,  // measure 17
10000000
00000000
00000000
10000000
00000000
00000000
00010000
00100000
01000000
00000000
00000000
01000000
00000000
00000000
00010000
00000000
,  // measure 18
00011000
00000000
00000000
00001000
00000000
00000000
00010000
00000000
00000100
00000000
00000000
00000100
00000000
00000000
00000010
00000000
,  // measure 19
00000001
00000000
00000000
00000100
00000000
00000000
00001000
00000000
00020000
00000000
00000000
00000000
02030000
00000000
00000000
00000000
,  // measure 20
13000000
00000000
00000000
10000000
00000000
00000000
00100000
00000000
01000000
00000000
00000000
01000000
00000000
00000000
00001000
00000000
,  // measure 21
00010000
00000000
00000000
00010000
00000000
00000000
00000100
00000000
00000020
00000000
00000000
00000000
00000032
00000000
00000003
00000000
,  // measure 22
00001001
00000000
00000000
00000000
00000000
00000000
00000001
00000000
00000100
00000000
00000000
00000100
00000000
00000000
00001000
00000000
,  // measure 23
00000000
00000000
00010000
00000000
00000000
00001000
00000000
00000000
00000010
00000000
00000000
00000010
00000000
00000000
00000001
00000000
,  // measure 24
00000100
00000000
00000000
00000000
00000000
00000000
00000100
00000000
00001000
00000000
00000000
00001000
00000000
00000000
00010000
00000000
,  // measure 25
00110000
00000000
00000000
00000000
10100000
00000000
00000000
00000000
10000000
00000000
00000000
01000000
00000000
00000000
00010000
00000000
,  // measure 26
00001000
00000010
00000001
00001000
00000001
00000100
00001000
00010000
,  // measure 27
01000000
10000000
00010000
00000000
10000000
00100000
00010000
00100000
,  // measure 28
10000000
00010000
10000000
00100000
10000000
01000000
00100000
10000000
,  // measure 29
00100000
00000000
00001000
00000000
00010000
00000000
00000100
00001000
00000000
00000010
00000000
00001000
00000001
00000000
00000000
00000000
,  // measure 30
00000001
00000010
00001000
00010000
00100000
10000000
00100000
00010000
,  // measure 31
00001000
00000010
00000001
00000000
00000001
00000100
00001000
00000100
,  // measure 32
00000001
00001000
00000001
00000010
00000001
00001000
00000100
00000001
,  // measure 33
00000100
00010000
00001000
00100000
00010000
01000000
00100000
00000000
,  // measure 34
10000000
01000000
00010000
00001000
00000100
00000001
00000100
00001000
,  // measure 35
00000000
00010000
00000000
00000000
00010000
00000000
00001000
00000000
00001000
00000000
00000000
00000000
00000010
00000000
00000000
00000000
,  // measure 36
00000001
00000000
00000000
00000001
00000000
00000000
00000100
00000000
00001000
00000000
00000000
00001000
00000000
00000000
00010000
00000000
,  // measure 37
00000000
00001000
00000000
00000000
00000010
00000000
00000000
00000100
00000000
00001000
00000000
00000000
00001001
00000000
00000000
00000000
,  // measure 38
00000001
00000100
00001000
00010000
01000000
10000000
01000000
00010000
,  // measure 39
00001000
00000000
00000000
00001000
00000000
00000000
00010000
00000000
00010000
00000000
00000000
00000000
00100000
00000000
00000000
00000000
,  // measure 40
10000000
00000000
00000000
10000000
00000000
00000000
01000000
00000000
00010000
00000000
00000000
00010000
00000000
00000000
00001000
00000000
,  // measure 41
00000000
00010000
00000000
00000000
00010000
00000000
00000000
00100000
00000000
00100000
00000000
00000000
00010000
00001000
00010000
00000000
,  // measure 42
00011000
00000000
00000000
00000000
;

//---------------dance-single - ----------------
#NOTES:
     dance-single:
     :
     Hard:
     12:
     0.545,0.465,0.079,0.023,0.550:
0000
0000
0000
0000
,
1000
0000
0100
1000
0000
1000
0100
0000
0010
0000
0001
0010
0000
0010
0001
0000
,
0000
1001
0000
1000
0001
0000
0100
0000
0010
0000
0000
0010
0100
0000
0000
0000
,
0001
0000
0100
0001
0000
0001
0100
0000
0010
0000
1000
0010
0000
0010
1000
0000
,
0010
0100
0000
0010
0001
0000
0010
0100
0000
0010
1000
0000
0001
0000
0000
0000
,
1000
0000
0100
0010
0000
0001
0010
0000
0100
0000
1000
0010
0000
0100
0010
0000
,
1000
0000
0001
0010
0000
0100
0010
0000
0001
0000
0000
1000
0001
0000
0000
0000
,
0001
0000
0100
0010
0000
1000
0010
0000
0100
0000
0001
0010
0000
0100
0010
0000
,
0001
1000
0000
0010
0100
0000
0001
1000
0000
0100
0010
0000
0001
1000
0001
0000
,
1000
0100
0001
0100
1000
0010
0100
0001
,
0010
0000
0000
0010
0000
0000
0100
0000
1000
0000
0000
1000
0000
0000
0001
0000
,
0100
1000
0100
0010
1000
0001
1000
0000
,
0020
0000
0000
0001
0000
0000
1030
0001
0010
0000
0000
0001
0000
0000
1000
0000
,
0001
0100
1000
0100
0001
0010
0100
1000
,
0010
0000
0000
0010
0000
0000
0100
0000
0001
0000
0000
0001
0000
0000
0010
0000
,
0100
1000
0010
1000
0100
0010
0001
0000
,
0020
0000
0000
0001
0000
0000
1030
0010
0100
0000
0000
0100
0000
0000
1000
0000
,
1010
0000
0000
0010
0000
0000
0100
0000
0001
0000
0000
0001
0000
0000
0100
0000
,
0010
0000
1000
0001
0000
1000
0001
0000
0010
0000
0000
0010
0100
0000
0000
0000
,
0001
0000
0000
0001
0000
0000
0100
0000
0010
0000
0000
0010
0000
0000
0001
0000
,
1000
0000
0010
0100
0000
0010
0100
0000
0001
0000
0000
0001
1000
0000
0000
0000
,
1001
0000
0000
0000
0000
0000
1000
0000
0100
0000
0000
0100
0000
0000
0100
0000
,
0010
0000
0001
1000
0000
0001
1000
0000
0010
0000
0000
0010
0100
0000
0001
0000
,
1001
0000
0000
0000
0000
0000
0001
0000
0100
0000
0000
0100
0000
0000
0010
0000
,
1010
0000
0000
0000
1001
0000
0000
0000
0001
0000
0000
0100
0000
0000
0010
0000
,
1000
0000
0010
0000
0100
0000
0001
0000
1000
0010
0000
0010
0100
0000
0001
0000
,
0010
0000
0100
0000
0010
0000
0001
0000
0100
0010
0000
0010
1000
0000
0001
0000
,
0010
0000
0001
0000
0100
0000
0010
0000
1000
0001
0000
0001
0010
0000
0100
0000
,
1000
0000
0010
1000
0010
1000
0000
0001
0000
0001
0000
0010
0100
0000
0100
0000
,
1000
0000
0010
0000
1000
0000
0100
0000
0010
0001
0000
0001
0100
0000
0010
0000
,
1000
0000
0010
0000
0001
0000
0010
0000
1000
0100
0000
0100
0010
0000
0001
0000
,
0100
0000
1000
0000
0100
0000
0001
0000
0010
0100
0000
0100
1000
0000
0010
0000
,
1000
0100
0010
0001
0100
1000
0100
0000
,
0001
0010
1000
0010
0001
0100
1000
0100
,
0001
1000
0000
0001
1000
0000
0100
0000
0100
0000
0000
0100
0010
0000
0000
0000
,
0010
0000
0001
0100
0000
0010
0100
0000
1000
0000
0100
0010
0000
1000
0010
0000
,
0100
0001
0000
0100
0010
0000
0100
1000
0000
0100
0010
0000
1000
0000
0000
0000
,
1000
0010
0001
0010
1000
0100
0001
0100
,
1000
0000
0010
0100
0000
0010
0100
0000
0001
0000
0000
1000
0001
0000
0000
0000
,
0001
0000
0010
0100
0000
1000
0010
0000
0100
0000
0001
0010
0000
0100
0001
0000
,
0100
0010
0000
0001
0100
0000
0010
1000
0000
0100
0010
0000
0001
1000
0001
0000
,
1001
0000
0000
0000
;

//---------------dance-single - ----------------
#NOTES:
     dance-single:
     :
     Medium:
     9:
     0.336,0.279,0.091,0.011,0.113:
0000
0000
0000
0000
,
1000
1000
0001
0001
,
0000
0010
0000
0000
0100
0000
1000
0000
0001
0000
0000
0000
1001
0000
0000
0000
,
0001
0001
0100
0100
,
0000
0010
0000
0000
0010
0000
0000
1000
0000
1000
0000
0000
0001
0000
0000
0000
,
0100
0100
0010
0010
,
1000
1000
0001
1001
,
0001
0001
0010
0010
,
0100
0000
0000
0100
0000
0000
1000
0000
0001
0000
0000
0000
0100
0000
0000
0000
,
0001
0100
0001
0100
0010
0000
1000
0100
,
0000
0001
0000
0100
0000
0000
0000
0000
,
1000
0010
1000
0000
0001
0010
0001
0000
,
1001
0000
0001
0100
1000
0000
0000
0000
,
0100
0010
1000
0010
0100
0000
0001
0010
,
0000
1000
0000
0010
0000
0000
0000
0010
,
0001
1000
0001
0010
0001
0000
1000
0000
,
0100
0000
0001
0100
1000
0000
0000
1000
,
0010
0000
0000
0010
0000
0000
0100
0000
0001
0000
0000
0000
0000
0000
0001
0000
,
1000
0000
0000
0010
0000
0000
0100
0000
0001
0000
0000
0000
1000
0000
0000
0000
,
0010
0000
0000
0010
0000
0000
1000
0000
0100
0000
0000
0000
0000
0000
0100
0000
,
0010
0000
0000
0010
0000
0000
0001
0000
1000
0000
0000
0000
0010
0000
0000
0000
,
1010
0000
0000
0000
0000
0000
0010
0000
0100
0000
0000
0100
0000
0000
0001
0000
,
0000
0000
0010
0000
0000
0010
0000
0000
0100
0000
0000
0000
1000
0000
0000
0000
,
0020
0000
0000
0130
0000
0100
0001
1000
,
0100
0000
0100
0001
0000
0001
0100
1000
,
1001
0000
0001
0000
0100
0000
0010
1000
,
0000
1000
0001
0000
0010
0001
0010
0001
,
1000
0100
0001
0100
,
1000
0000
1000
0000
0001
0100
0001
0001
,
1000
0000
0010
0000
0001
0000
0010
1000
,
0000
1000
0001
0000
0010
0001
0010
0100
,
1000
0000
1000
0000
0010
0100
0000
1000
,
0000
0000
0100
0001
0000
0001
1000
0000
,
1000
0100
1000
0000
0001
0100
0001
0000
,
0000
0010
0000
0000
0100
0000
1000
0000
0001
0000
0000
0000
1001
0000
0000
0000
,
0001
0001
0100
0100
,
0000
0010
0000
0000
0000
0010
0000
1000
0000
0001
0000
0000
0100
0000
0000
0000
,
0100
0001
1000
0000
0100
1000
0001
0000
,
0100
0000
0000
0100
0000
0000
0010
0000
1000
0000
0000
0000
1001
0000
0000
0000
,
0001
0001
0010
0010
,
0000
0100
0000
0000
1000
0000
0000
0001
0000
0001
0000
0000
0100
0000
0100
0000
,
1001
0000
0000
0000
;

//---------------dance-single - ----------------
#NOTES:
     dance-single:
     :
     Beginner:
     2:
     0.107,0.140,0.079,0.000,0.000:
0000
0000
0000
0000
,
1000
0000
0001
0000
,
0010
0000
0000
0000
,
0001
0000
1000
0000
,
0010
0000
0000
0000
,
1000
0000
0001
0000
,
0010
0000
0000
0000
,
0001
0000
1000
0000
,
0001
0000
0000
0000
,
1000
0000
0000
0000
,
0001
0000
0000
0000
,
0100
0000
0010
0000
,
0100
0000
0000
0000
,
0001
0000
0000
0000
,
1000
0000
0000
0000
,
0100
0000
0010
0000
,
0100
0000
0000
0000
,
1001
0000
0000
0000
,
0001
0000
0000
0000
,
1001
0000
0000
0000
,
1000
0000
0000
0000
,
1001
0000
0000
0000
,
0001
0000
0000
0000
,
1001
0000
1000
0000
,
0001
0000
0001
0000
,
1000
0000
1000
0000
,
0010
0000
0100
0100
,
0100
0000
0001
0000
,
1000
0000
0000
0000
,
0001
0000
0001
0000
,
0010
0000
0100
0100
,
0100
0000
1000
0000
,
0001
0000
0000
0000
,
1001
0000
0000
0000
,
0000
0000
0000
0000
,
1000
0000
0001
0000
,
0010
0000
0100
0000
,
1001
0000
0000
0000
,
0000
0000
0000
0000
,
1000
0000
0010
0000
,
0100
0000
0001
0000
,
1001
0000
0000
0000
;

//---------------dance-single - ----------------
#NOTES:
     dance-single:
     :
     Easy:
     6:
     0.253,0.233,0.079,0.000,0.000:
0000
0000
0000
0000
,
1000
1000
0001
0001
,
0000
0100
0010
0110
,
1000
1000
0001
0001
,
0000
0010
0100
1000
,
0010
0010
0100
0100
,
0001
0001
0010
0110
,
1000
1000
0010
0010
,
0100
0001
1000
0001
,
1000
0100
0001
0100
,
1000
0010
1000
0000
,
0001
0010
0100
1000
,
0001
0000
0100
0000
,
0001
0100
1000
0100
,
0001
0100
0010
0000
,
1000
0010
0100
0001
,
0010
0000
0100
0000
,
1000
1000
0001
0000
,
0100
0100
0010
1000
,
0001
0001
0100
0000
,
0010
1000
0001
0010
,
0011
0000
0000
0010
0100
0000
0000
0000
,
1000
0010
1000
0001
,
0010
0000
0100
1000
,
0100
0001
0100
1000
,
0010
0010
0100
1000
,
0100
0001
0010
0001
,
1000
0010
0100
1000
,
0100
0001
1000
1000
,
1100
1000
0010
0100
,
0001
0010
0010
0001
,
0100
0010
1000
0001
,
1000
0010
0100
0001
,
0010
0100
0010
0100
,
1000
1000
0001
1001
,
0001
0001
0100
0100
,
0010
1000
0010
1000
,
0001
0010
0001
0010
,
0100
1000
0001
1001
,
0001
0001
0100
0010
,
1000
0100
0010
0001
,
1001
0000
0000
0000
;

//---------------dance-double - ----------------
#NOTES:
     dance-double:
     :
     Medium:
     8:
     0.332,0.326,0.091,0.057,0.040:
00000000
00000000
00000000
00000000
,
00010000
00001000
00000010
00001000
,
00010000
00100000
10000000
10010000
,
10000000
01000000
00010000
00001000
,
00000010
00001000
00010000
00001000
,
00000100
00000001
00000010
00000001
,
00000100
00001000
00010000
00011000
,
00010000
01000000
10000000
00100000
,
10000000
01000000
00010000
00001000
,
00010000
00000100
00001000
00000100
00000010
00000000
00000001
00000100
,
00000000
00001000
00000000
00010000
00000000
00000000
00000000
00010000
,
00001000
00010000
00001000
01000000
00010000
00000000
10000000
00000000
,
02000000
00000000
00000000
03010000
00001000
00000000
00000000
00000000
,
00000010
00000001
00001000
00000001
00000010
00000000
00000001
00000100
,
00000000
00001000
00000000
00010000
00000000
00000000
00000000
00010000
,
00001000
00010000
00001000
01000000
00010000
00000000
10000000
00000000
,
02000000
00000000
03010000
00000000
,
00010000
00000000
00000000
00010000
00000000
00000000
00001000
00000000
00000100
00000000
00000000
00000000
00000000
00000000
00000000
00000000
,
00000001
00000000
00000000
00000001
00000000
00000000
00001000
00000000
00000010
00000000
00000000
00000000
00000100
00000000
00000000
00000000
,
00001000
00000000
00000000
00001000
00000000
00000000
00010000
00000000
01000000
00000000
00000000
00000000
00000000
00000000
00000000
00000000
,
10000000
00000000
00000000
10000000
00000000
00000000
00100000
00000000
01000000
00000000
00000000
00000000
00001000
00000000
00000000
00000000
,
00011000
00000000
00000000
00000000
00000000
00000000
00010000
00000000
00000100
00000000
00000000
00000100
00000000
00000000
00000010
00000000
,
00000001
00000000
00000000
00001000
00000000
00000000
00000010
00000000
00000100
00000000
00000000
00000000
00001000
00000000
00000000
00000000
,
00020000
00000000
00000000
00031000
00000000
00100000
00010000
10000000
,
10100000
00000000
00000000
00000000
10010000
00000000
00000000
00000000
00010000
00000000
00000000
01000000
00000000
00000000
00001000
00000000
,
00010000
00000000
00000100
00000000
00000001
00000000
00000100
00001000
,
00000000
00000001
00000000
00000000
00000001
00001000
00000100
00010000
,
00001000
00100000
00010000
01000000
,
00100000
10000000
00100000
00000000
00100000
01000000
00010000
00000000
,
00100000
00000000
10000000
00000000
00100000
00000000
00001000
00010000
,
00000000
00000010
00000000
00000000
00000010
00010000
00001000
00100000
,
00010000
00000000
10000000
00000000
00100000
01000000
00000000
00002000
,
00000000
00000000
00013000
02000000
00000000
13000000
00010000
00000000
,
10000000
00100000
01000000
00001000
00010000
00000100
00000010
00000001
,
00001000
00001000
00000001
00001001
,
00000001
00000000
00000100
00000000
00001000
00000000
00010000
00100000
,
00000000
10000000
01000000
00000000
00100000
01000000
10000000
00000000
,
10000000
00100000
01000000
00001000
00010000
00000100
00000010
00000001
,
00001000
00001000
00000001
00001001
,
00000001
00000000
00000010
00000000
00001000
00000000
00010000
01000000
,
00000000
01000000
10000000
00000000
00010000
10000000
00010000
10000000
,
10010000
00000000
00000000
00000000
;

//---------------dance-double - ----------------
#NOTES:
     dance-double:
     :
     Easy:
     5:
     0.212,0.209,0.023,0.000,0.000:
00000000
00000000
00000000
00000000
,
00010000
00000000
00001000
00000000
,
00000010
00000001
00001000
00000001
,
00000010
00000000
00001000
00000000
,
00010000
00100000
01000000
00010000
,
10000000
00000000
01000000
00000000
,
00100000
00001000
00010000
00000010
,
00001000
00000000
00000001
00000000
,
00000010
00000010
00000001
00000001
,
00000100
00000010
00010000
00000000
,
00001000
00100000
01000000
00000000
,
10000000
10000000
00010000
00010000
,
01000000
00000000
00001000
00000000
,
00010000
00000010
00001000
00000000
,
00000001
00000010
00000100
00000000
,
00001000
00001000
00000001
00000001
,
00000100
00000000
00001000
00000000
,
00010000
01000000
10000000
00000000
,
10000000
01000000
00010000
00000000
,
00001000
00000100
00000001
00000000
,
00000001
00000100
00001000
00000000
,
00011000
00000000
00000000
00001000
00010000
00000000
00000000
00000000
,
00010000
00100000
10000000
00000000
,
10000000
00000000
00100000
00000000
,
00010000
00001000
00000010
00001000
,
00010000
00001000
00000010
00000001
,
00001000
00000001
00000001
00000100
,
00000010
00001000
00000001
00001000
,
00000001
00000000
00000000
00000000
,
00000001
00000100
00001000
00010000
,
00001000
00000100
00001000
00010000
,
01000000
10000000
01000000
00010000
,
01000000
00000000
10000000
00000000
,
10000000
00100000
01000000
00001000
,
00010000
00000000
00010000
00000000
,
00010000
00000100
00010000
00000100
,
00000010
00000010
00000001
00001000
,
00000001
00001000
00000010
00010000
,
00001000
00000000
00001000
00100000
,
00010000
10000000
00100000
01000000
,
00001000
00010000
00000100
00001000
,
00001001
00000000
00000000
00000000
;
