#TITLE:雨と狼;
#SUBTITLE:;
#ARTIST:3396 feat. 初音ミク;
#TITLETRANSLIT:;
#SUBTITLETRANSLIT:Ame to Okami;
#ARTISTTRANSLIT:3396 feat. Hatsune Miku;
#GENRE:;
#CREDIT:;
#BANNER:[Week 3] - Ame to Okami.png;
#BACKGROUND:[Week 3] - Ame to Okami-bg.png;
#LYRICSPATH:;
#CDTITLE:;
#MUSIC:[Week 3] - Ame to Okami.ogg;
#OFFSET:-0.059000;
#SAMPLESTART:72.495018;
#SAMPLELENGTH:15.000000;
#SELECTABLE:YES;
#BPMS:0.000000=212.000000
;
#STOPS:
;
#BGCHANGES:0.000=[Week 3] - Ame to Okami.avi=1.000=1=0=0=StretchNoLoop==CrossFade==,
435.750=[Week 3] - Ame to Okami-bg.png=1.000=0=0=1=====,
99999=-nosongbg-=1.000=0=0=0 // don't automatically add -songbackground-
;
#KEYSOUNDS:;
#ATTACKS:;

//---------------dance-single - ----------------
#NOTES:
     dance-single:
     :
     Hard:
     15:
     0.750058,0.749731,0.619044,0.259845,0.061140,572.000000,81.000000,34.000000,0.000000,0.000000,0.000000,0.750058,0.749731,0.619044,0.259845,0.061140,572.000000,81.000000,34.000000,0.000000,0.000000,0.000000:
0000
0000
0000
0000
,
0000
0000
0000
0000
,
0000
0000
0000
0000
,
0000
0000
0000
0000
,
0000
0000
0000
0000
,
0000
0000
0000
0000
,
0000
0000
0000
0000
,
0000
0000
1000
0001
,
0010
0010
0010
0100
,
0100
0100
1000
1000
,
1000
0100
0100
0001
,
0001
0100
0010
0100
,
1000
1000
1000
0010
,
0010
0010
0001
0001
,
0001
0010
0200
0020
,
0000
0000
0000
0000
0330
0010
0110
0000
,
0001
0000
1001
0000
1000
0100
0010
0001
,
0000
0000
0011
0000
0000
0000
1001
0000
0000
0000
1100
0000
0000
0000
0100
0010
,
0100
0000
1001
0000
0001
0100
0010
1000
,
0000
1010
0000
0110
0000
0101
0001
1000
,
1001
0000
1000
0000
0001
0010
0100
1000
,
0000
0000
1001
0000
0000
0000
1100
0000
0000
0000
0011
0000
0000
0000
0001
0010
,
0001
0000
0001
0100
0000
0100
0010
0000
,
0010
1000
0000
1000
0001
0000
0110
0000
,
1000
0000
1001
0000
0001
0100
0010
1000
,
0000
0000
1010
0000
0000
0000
1001
0000
0000
0000
0101
0000
0000
0000
0100
0010
,
0100
0000
1001
0000
1000
0100
0010
0001
,
0000
0011
0000
0110
0000
1100
1000
0001
,
1001
0000
0001
0000
0100
0010
0100
0010
,
0000
0000
1001
0000
0000
0000
0110
0000
0000
0000
1001
0000
0000
0000
0001
1000
,
0010
0000
0010
0100
0000
0100
0001
0000
,
0001
0010
0000
0010
0100
0000
1001
0000
,
2001
0010
3100
1002
,
0100
0013
2010
0001
,
3100
0012
0100
1003
,
0101
1020
0100
0130
,
0001
0200
1000
0010
,
0301
1000
0100
0020
,
1000
0100
0031
0001
,
1000
0000
0100
0010
0100
0000
1000
0000
0001
0000
0100
0010
0100
0000
0001
0000
,
0001
1000
0010
1000
0100
0010
0100
1000
,
0010
0102
1000
0023
,
0030
0010
0001
1000
0100
0001
0200
0000
,
0000
0000
0000
0000
1300
0000
0001
0000
1000
0000
0010
0100
0001
0000
0100
0000
,
0001
1000
0100
0010
0100
1000
0002
0000
,
0003
0000
0010
0000
0001
0000
0100
0000
0010
1000
0010
0000
0200
0000
0000
0000
,
0300
1010
0101
1001
,
1000
0100
0010
0001
1000
1000
0001
0001
,
1000
0000
0001
0100
0010
0100
0001
1000
,
0020
0000
1030
0001
1000
0100
0010
0100
,
0002
0000
0103
1000
0010
0100
0001
0100
,
2000
0000
3100
0010
0100
0001
0010
0000
,
0001
0000
1000
0100
0010
0100
1000
0001
,
0200
0000
0301
0100
0010
0100
1000
0100
,
0001
1000
1010
0000
1000
0001
0101
0000
,
0001
0000
1000
0000
1100
0000
0000
0000
0011
0000
0001
0000
0010
0000
0100
0010
,
0100
0000
0010
0001
1000
0010
1000
0001
,
0200
0000
0301
1000
0010
0100
0001
0010
,
2000
0000
3010
0100
1000
0001
0100
0010
,
0002
0000
0013
0100
0010
1000
0001
0000
,
1000
1100
0101
1100
,
1010
0000
0011
0000
0010
0001
0100
0010
,
0000
1000
0100
0010
0000
0001
1000
0020
,
0000
0100
0100
0200
0000
0000
0330
0000
,
0011
0000
1010
0000
0011
0001
1000
0010
,
0000
0000
0010
0000
1000
0000
0001
0000
0100
0000
0001
1000
0001
0000
0010
0000
,
0100
0000
0100
1000
0010
0100
0001
0102
,
0000
0103
0010
0100
0001
1000
2010
0000
,
3001
0000
0110
0000
1000
0001
1000
0100
,
0000
0000
0100
0010
0100
0000
1000
0000
0001
0000
0100
0000
0010
0000
0000
0000
,
1000
0010
1000
0001
0010
0000
1000
0100
,
0000
0001
0020
0000
0001
0001
0031
0010
,
0100
0000
1100
0100
1000
0001
0100
0010
,
0000
0010
0100
0001
1000
0010
1010
0000
,
0011
0010
0100
1000
0001
1000
0010
0100
,
0000
0100
0010
1000
0001
0100
0101
0000
,
1000
0001
0010
0001
1000
0100
1000
0010
,
1000
0010
0100
0001
0100
0001
0010
0100
,
2000
0000
0000
0000
3100
0010
0100
0010
,
0002
0000
0000
0000
,
0013
0000
0100
0000
1000
0000
0001
1000
0010
0000
0100
0000
0001
0000
1000
0000
,
1001
0000
0101
0000
0011
0010
0001
0100
,
0001
0010
0100
1000
0001
0100
0100
0000
,
0101
0000
1001
0000
1010
0000
1000
0001
,
0010
0100
0001
0100
1000
0010
0001
0000
,
0010
0000
0010
1000
0010
0100
0000
0100
,
0001
0000
0010
0000
0100
0000
0010
0000
0001
0000
1000
0100
1000
0000
0100
0000
,
1000
0001
0100
0010
1000
0000
0001
0100
,
0000
1000
0020
0000
1000
1000
1030
0010
,
0100
0000
0110
0010
1000
0001
1000
0100
,
0000
0100
1000
0001
0010
0001
1001
1000
,
0100
0000
0110
0010
0001
0010
0100
1000
,
0000
1000
0001
0100
0010
1000
1001
0000
,
0002
0000
1003
0100
1000
0200
0000
0310
,
0000
0000
0001
0000
1000
0000
0010
0000
0100
0000
0001
0100
0010
0000
1000
0000
,
0001
0000
0101
0100
0010
0000
1100
0100
,
0010
0001
0010
0001
1000
0010
1000
0010
,
0200
0000
0000
0000
,
0000
0000
0000
0310
,
0001
0000
1001
0000
1000
0001
0010
0100
,
0000
0000
1100
0000
0000
0000
1001
0000
0000
0000
0011
0000
0000
0000
0010
0100
,
0010
0000
1001
0000
0001
1000
0010
0100
,
0000
0101
0000
0110
0000
1010
1000
0001
,
1001
0000
0110
0000
0001
1000
0100
0010
,
0000
0000
1001
0000
0000
0000
0011
0000
0000
0000
1100
0000
0000
0000
1000
0001
,
1000
0000
1000
0010
0000
0010
0100
0000
,
0100
0001
0000
0001
1000
0000
0200
0000
,
0020
0000
0000
0000
,
0000
0000
0000
0000
,
0330
0000
0000
0000
;

//---------------dance-single - ----------------
#NOTES:
     dance-single:
     :
     Challenge:
     17:
     0.847227,0.916337,0.573189,0.336271,0.206348,657.000000,75.000000,44.000000,0.000000,0.000000,0.000000,0.847227,0.916337,0.573189,0.336271,0.206348,657.000000,75.000000,44.000000,0.000000,0.000000,0.000000:
0000
0000
0000
0000
,
0000
0000
0000
0000
,
0000
0000
0000
0000
,
0000
0000
0000
0000
,
0000
0000
0000
0000
,
0000
0000
0000
0000
,
0000
0000
0000
0000
,
0000
0000
1000
0001
,
1002
0100
0103
0201
,
0010
0310
1020
0100
,
0130
2001
3100
1001
,
1100
0011
1010
0101
,
2010
0001
3001
0021
,
0100
0130
0210
1000
,
1300
1001
0110
2002
,
0000
0000
0000
0000
0000
0000
0000
0000
3003
0000
0001
1000
0010
0000
0000
0000
,
1000
0000
0001
0000
0100
0000
0001
0100
0001
0000
1000
0000
0100
0000
0010
0000
,
0000
0000
0010
0001
0010
0000
0100
0000
0000
0000
0100
0000
1000
0100
1000
0000
,
0001
0000
1000
0000
0010
0000
1000
0010
1000
0000
0001
0000
0010
0000
0100
0000
,
0000
0000
0100
1000
0100
0000
0010
0000
0001
1000
0001
1000
0010
0000
0100
0000
,
0001
0000
0010
0000
0100
0000
0010
0001
0010
0000
0100
0000
1000
0000
0010
0000
,
0000
0000
0010
1000
0001
0000
1000
0000
0000
0000
1000
0000
0001
0100
0001
0000
,
0010
0001
0100
1000
0000
0100
0001
0010
,
1000
0000
0010
0000
0000
0000
0010
0000
0001
1000
0001
0000
1001
0000
0000
0000
,
0001
0000
1000
0000
0100
0000
0010
0100
0010
0000
0100
0000
1000
0000
0010
0000
,
0000
0000
0100
0010
0100
0000
0001
0000
0000
0000
1000
0000
0001
1000
0100
0000
,
1000
0000
0001
0000
0010
0000
0100
0010
0100
0000
0010
0000
0001
0000
0100
0000
,
0000
0000
0100
0001
0100
0000
0010
0000
1000
0001
1000
0001
0010
0000
0100
0000
,
1000
0000
0010
0000
0100
0000
0001
1000
0001
0000
1000
0000
0100
0000
0010
0000
,
0000
0000
0010
0001
1000
0000
0001
0000
0000
0000
0001
0000
1000
0100
1000
0000
,
0100
1000
0010
0001
0000
0010
1000
0100
,
0001
0000
0100
0000
0000
0000
1000
0000
0100
0010
0100
0000
0010
0000
0001
0000
,
2001
0100
3010
0102
,
0010
1003
1200
0010
,
0301
0021
0100
1030
,
0210
1300
0120
0031
,
1001
0201
0010
1000
,
0310
0001
1001
1100
,
0120
1000
0001
0030
,
0001
0000
0010
0000
0100
0000
0010
0000
0001
1000
0001
0000
0100
0000
0010
0000
,
1000
0010
0100
0001
1000
0001
0100
0001
,
0010
0100
1000
0100
0010
0000
0120
0000
,
0000
0000
0130
1000
0001
0100
0210
0000
,
0000
0000
0310
0000
1000
0000
0001
0000
0010
0000
0001
1000
0001
0000
1000
0000
,
0100
1000
0001
1000
0010
0000
0022
0000
,
0033
0000
0001
1000
0001
0000
0100
0000
0001
0000
0000
0000
2020
0000
0000
0000
,
3030
0011
1100
1001
,
0001
0000
0100
0000
0010
0000
1000
0000
0001
0100
0001
0000
1000
0100
1000
0000
,
0100
1000
0100
0010
0100
0001
0100
1000
,
0010
0000
1010
0010
0100
0001
1000
0001
,
0010
0000
0011
0001
0010
0100
0010
1000
,
0010
0000
0000
0000
0110
0000
0100
0000
1000
0000
0001
1000
0100
0000
0000
0000
,
1100
0000
0101
0001
0100
0010
0100
1000
,
0100
0000
0110
0010
1000
0001
0010
0100
,
0010
0000
0011
0001
1000
0000
1010
0010
,
0100
0000
0101
0100
0010
1000
1001
0000
,
1000
0010
0100
0010
0001
0010
1000
0001
,
0010
0000
0011
0010
0100
1000
0001
1000
,
0010
0000
1010
1000
0010
0100
0010
0001
,
0010
0000
0110
0100
0001
1000
0010
1000
,
0100
2100
3001
0102
,
0013
0000
1001
1001
0000
1000
0100
1100
,
0000
0001
0100
0101
0000
0100
0010
0120
,
0000
1000
0100
2000
0000
0000
3030
0000
,
0101
0000
1001
0000
1100
1000
0100
0010
,
0000
0000
0010
0000
0100
0000
1000
0001
0010
0000
0001
0000
0100
0000
0001
0000
,
1000
0010
1000
0001
0010
0001
1000
0100
,
0000
0000
0100
0000
1000
0000
0001
1000
0010
0000
0100
0000
0002
0000
0000
0000
,
1003
0000
1100
0000
0011
0001
1000
0010
,
0000
0000
0010
0000
1000
0000
0001
1000
0010
0000
0100
0000
0001
0000
1000
0000
,
0001
0000
1000
0010
2010
0000
3001
0012
,
0000
0013
0120
0000
0001
0000
0130
1000
,
0001
0000
0011
0000
1001
0001
1000
0010
,
0000
0000
0010
0000
0100
0000
0001
0100
0010
0000
1000
0000
0001
0000
0000
0000
,
1000
0100
1000
0001
0100
0001
1000
0010
,
0000
0000
0010
0000
1000
0000
0001
1000
0100
0000
0010
0000
0002
0000
0000
0000
,
1003
0010
1000
0001
0100
0001
1000
0010
,
0000
0100
0001
0010
0001
0010
0100
1000
,
0200
0000
0000
0000
1300
0001
0100
0001
,
0020
0000
0000
0030
,
0001
0000
1000
0100
0010
0000
0100
0000
1000
0100
0010
0000
0001
0010
0100
0000
,
1000
0001
0201
0000
0301
1000
0010
1020
,
0000
1030
0001
0010
1000
0001
0200
0000
,
1300
0000
1100
0000
1001
0001
0010
0021
,
0000
0031
1000
0010
0001
1000
0200
0000
,
0301
0000
0001
0100
0010
0100
0000
0001
,
1000
0100
0010
0100
1000
0001
0010
0001
,
0100
0000
0100
0010
1010
0000
1000
1001
,
0000
0001
0021
0000
0001
0000
0100
0100
,
0031
0000
1000
0000
0100
0000
1000
0001
1000
0000
0001
0000
0010
0000
0100
0000
,
0000
0000
0100
0000
1000
0000
0001
1000
0001
0000
0100
0000
0010
0000
0000
0000
,
1000
0000
0010
0000
0100
0000
0001
1000
0001
0000
0010
0000
0100
0000
1000
0000
,
0000
0000
1000
0000
0010
0000
1000
0001
1000
0000
0001
0000
0020
0000
0000
0000
,
0031
0000
0010
0000
1000
0000
0001
0100
0010
0000
0001
0000
0000
0000
1000
0000
,
0010
0000
0001
0000
1000
0000
0100
0010
1000
0000
0001
0000
0010
0000
0100
0000
,
1000
0000
0001
0001
0100
0000
1000
1000
,
0100
0010
0001
0010
0100
1000
0010
0100
,
0002
0000
0000
0000
,
0000
0000
0000
0000
0000
0100
1003
0000
,
1001
0000
1000
0000
0100
0000
1000
0100
1000
0000
0001
0000
0100
0000
0010
0000
,
0000
0000
0010
1000
0010
0000
0100
0000
0000
0000
0100
0000
0001
0100
0001
0000
,
1000
0000
0001
0000
0010
0000
0001
0010
0001
0000
1000
0000
0010
0000
0100
0000
,
0000
0000
0100
0001
0100
0000
0010
0000
1000
0001
1000
0001
0010
0000
0100
0000
,
1000
0000
0100
0000
0010
0000
0001
0010
0100
0000
1000
0000
0001
0000
0100
0000
,
0000
0000
0100
0001
1000
0000
0010
0000
0000
0000
1000
0000
0001
1000
0100
0000
,
0010
0001
0100
1000
0000
0100
0001
0010
,
1000
0000
0010
0000
0000
0000
0010
0000
0001
1000
0001
0000
1001
0000
0000
0000
,
0220
0000
0000
0000
,
0000
0000
0000
0000
,
0330
0000
0000
0000
;

//---------------dance-single - ----------------
#NOTES:
     dance-single:
     :
     Medium:
     12:
     0.515324,0.541472,0.298058,0.252203,0.000000,400.000000,39.000000,33.000000,0.000000,0.000000,0.000000,0.515324,0.541472,0.298058,0.252203,0.000000,400.000000,39.000000,33.000000,0.000000,0.000000,0.000000:
0000
0000
0000
0000
,
0000
0000
0000
0000
,
0000
0000
0000
0000
,
0000
0000
0000
0000
,
0000
0000
0000
0000
,
0000
0000
0000
0000
,
0000
0000
0000
0000
,
0000
0000
1000
0001
,
0010
0010
0010
0100
,
0100
0100
1000
1000
,
1000
0100
0100
0010
,
0001
1000
0010
0100
,
0001
0001
0001
0100
,
0100
0100
0010
0010
,
0010
1000
0002
2000
,
0000
0000
0000
3003
,
0001
0000
0100
0000
0001
0100
0010
1000
,
0000
1000
0000
0010
0000
0100
0000
0001
,
1000
0000
0100
0000
1000
0100
0010
0001
,
0000
0001
0000
0010
0000
0100
0000
2000
,
3000
0000
0001
0000
0100
0001
1000
0010
,
0000
0010
0000
0100
0000
0001
0000
1000
,
0010
0000
0000
0101
0000
0000
1001
0000
,
0000
1100
0000
0000
0100
0000
0020
0000
,
0030
0000
0100
0000
1000
0100
0010
0001
,
0000
0001
0000
0010
0000
0100
0000
1000
,
0001
0000
0100
0000
0001
0100
0010
1000
,
0000
1000
0000
0010
0000
0100
0000
0002
,
0003
0000
1000
0000
0100
1000
0001
0010
,
0000
0010
0000
0100
0000
1000
0000
0001
,
0010
0000
0000
1100
0000
0000
1001
0000
,
0000
0101
0000
0000
0100
0000
0010
0000
,
2000
0001
3000
0002
,
0100
0003
2000
0010
,
3000
0002
0010
0003
,
2000
0100
3000
0000
,
1000
0100
0010
0001
,
0022
0033
0001
1000
,
0010
0100
0202
0303
,
1000
0010
1000
0000
0001
0010
0001
0000
,
1000
0001
1000
0100
,
0010
0100
1000
0020
,
0030
0100
0001
2000
,
3000
0001
0010
0100
,
1000
0000
0001
0010
0001
0000
2000
0000
,
3000
0010
0100
0002
,
0000
0100
1000
0010
,
0003
0000
1000
0000
0100
0010
0100
0000
,
0100
1000
0001
0100
,
0010
0000
0100
0001
0000
0001
0100
0010
,
1000
0000
1000
0001
0000
0001
0000
0100
,
0010
0000
1000
0001
0000
0002
0000
0000
,
0003
1000
0010
0001
,
0010
0000
1000
0001
0000
0100
0000
0001
,
0010
0100
1000
0001
,
0100
0010
2000
0000
,
3000
0001
1000
0100
,
0010
0000
0100
1000
0000
1000
0100
0010
,
0001
0000
0001
1000
0000
1000
0000
0100
,
0010
0000
0001
1000
0000
2000
0000
0000
,
3000
0100
1000
0010
,
0100
0000
0001
0000
0100
0001
0100
0010
,
0000
1000
0001
1000
0000
0001
0010
0200
,
0000
0000
0000
0300
,
1100
0000
1001
0000
1100
0000
1000
0001
,
0000
0001
0010
0000
0100
0000
0010
0000
,
0011
0000
1001
0000
1010
0000
1000
0010
,
0000
0010
0100
0000
0001
0000
1001
0000
,
0110
0000
0110
0000
1001
0000
0001
0100
,
0000
1000
0100
0000
0010
0000
0100
0000
,
1000
0000
0001
0010
0001
0000
0001
1000
,
0000
1000
0020
0000
0000
0000
0030
0000
,
1010
0000
0110
0000
1010
0000
0010
0100
,
0000
0100
0001
0000
0010
0000
0001
0000
,
1000
0000
0100
1000
0100
0000
0100
0010
,
0000
0110
0000
0100
1000
0000
1001
0000
,
0001
0100
1000
0100
,
0001
0010
1000
0010
,
0200
0000
0310
0100
,
0020
0000
0000
0000
,
0030
0000
0001
1000
0001
1000
0001
0000
,
0101
0000
1001
0000
0101
0000
0100
0010
,
0000
0010
1000
0000
0001
0000
1000
0000
,
1100
0000
0110
0000
0011
0000
0001
1000
,
0000
0010
1000
0000
0001
0000
1001
0000
,
1000
0000
1000
0001
0200
0300
0000
0001
,
0000
0001
1000
0100
2000
0000
3001
0000
,
0001
0000
1000
0010
1000
0000
1000
0001
,
0000
0001
0020
0000
0000
0000
0030
0000
,
0011
0000
0110
0000
1001
0000
1000
0100
,
0000
1000
0001
0000
0010
0000
0100
0000
,
0010
0000
0001
1000
0001
0000
1000
0010
,
0000
0110
0000
0100
0001
0000
1001
0000
,
0001
0000
0001
0100
0010
0000
0100
0010
,
1000
0000
0010
1000
0001
0000
0001
1000
,
0200
0000
0001
0000
,
0010
0000
1000
0300
,
0220
0000
0000
0000
,
0000
0000
0000
0330
,
1000
0000
0100
0000
1000
0100
0010
0001
,
0000
0001
0000
0010
0000
0100
0000
1000
,
0001
0000
0100
0000
0001
0100
0010
1000
,
0000
1000
0000
0010
0000
0100
0000
0002
,
0003
0000
1000
0000
0100
1000
0001
0010
,
0000
0010
0000
0100
0000
1000
0000
0001
,
0010
0000
0000
0011
0000
0000
1001
0000
,
0000
1010
0000
0000
0010
0000
0100
0000
,
0002
0000
0000
0000
,
0000
0000
0000
0000
,
0003
0000
0000
0000
;

//---------------dance-single - ----------------
#NOTES:
     dance-single:
     :
     Easy:
     8:
     0.353739,0.333214,0.022928,0.221633,0.000000,292.000000,3.000000,29.000000,0.000000,0.000000,0.000000,0.353739,0.333214,0.022928,0.221633,0.000000,292.000000,3.000000,29.000000,0.000000,0.000000,0.000000:
0000
0000
0000
0000
,
0000
0000
0000
0000
,
0000
0000
0000
0000
,
0000
0000
0000
0000
,
0000
0000
0000
0000
,
0000
0000
0000
0000
,
0000
0000
0000
0000
,
0000
0000
2000
3000
,
0002
0000
0003
0200
,
0000
0300
0020
0000
,
0030
0200
0300
0002
,
0003
1000
0001
1000
,
0200
0000
0300
0020
,
0000
0030
0002
0000
,
0003
1000
0001
2000
,
0000
0000
0000
3000
,
0001
1000
0001
0100
,
0010
0000
0100
0100
,
0001
1000
0001
0010
,
0100
0000
0010
0010
,
0001
1000
0001
0100
,
0010
0000
0100
0010
,
1000
0000
0000
1000
0000
0000
0001
0000
,
0000
0001
0000
0000
2000
0000
3000
0000
,
1000
0001
1000
0100
,
0010
0000
0100
0100
,
1000
0001
1000
0010
,
0100
0000
0010
0010
,
1000
0001
1000
0100
,
0010
0000
0100
0010
,
0001
0000
0000
0001
0000
0000
1000
0000
,
0000
1000
0000
0000
0001
0000
1000
0000
,
0010
0010
0000
1000
,
1000
0000
0001
0001
,
0000
0100
0100
0000
,
0010
0010
0000
0000
,
0010
1000
0001
1000
,
0100
0000
0100
0001
,
1000
0001
0020
0000
,
0000
0030
1001
0000
,
0001
0100
0001
0100
,
0010
0100
0001
0010
,
0000
0010
0100
1000
,
0000
0001
1000
0010
,
0100
0010
1000
0001
,
0000
0010
0001
1000
,
0000
0100
0010
0100
,
0000
0010
0100
0010
,
0000
0001
0001
0100
,
0010
0000
0000
0100
0000
0100
0000
0001
,
1000
0000
0000
0100
0000
0100
0000
0000
,
0010
0000
0000
0100
0000
0100
0000
0000
,
0000
1000
1000
0001
,
0010
0000
0010
0001
0000
0001
0000
0000
,
0100
0100
0010
0010
,
1000
0001
1000
0000
,
0000
1000
1000
0100
,
0010
0000
0000
0100
0000
0100
0000
1000
,
0001
0000
0000
0100
0000
0100
0000
0000
,
0010
0000
0000
0100
0000
0100
0000
0000
,
0000
0001
0100
0001
,
1000
0000
0010
0000
0000
0000
0000
1000
,
0000
0000
0000
0001
0000
0000
0000
2002
,
0000
0000
0000
3003
,
1000
0000
1000
0000
1000
0000
0000
0001
,
0000
1000
0100
1000
,
0001
0000
0001
0000
0001
0000
0000
0010
,
0000
0001
0100
0010
,
1000
0000
1000
0000
0100
0000
0000
0010
,
0000
0100
1000
0001
,
0100
0000
0000
0000
0010
0000
0000
1000
,
0000
0002
0000
0003
,
0010
0000
0010
0000
0010
0000
0000
0001
,
0000
1000
0100
1000
,
0010
0000
0100
0000
0010
0000
0000
0100
,
0000
0010
1000
1000
,
0002
0003
0020
0030
,
0200
0300
2000
3000
,
0002
0000
0013
0010
,
0020
0000
0000
0000
,
0030
0000
0000
0000
,
0001
0001
1000
1000
,
0010
0100
0010
0000
,
1000
1000
0001
0001
,
0010
0100
1000
0001
,
1000
1000
0010
0000
,
0001
0001
0100
0000
,
1000
0000
0001
0000
1000
0000
0000
0010
,
0000
0110
0000
0000
,
1000
0010
1000
0001
,
1000
0100
2000
3000
,
0001
0100
0001
1000
,
0001
0010
0002
0003
,
1000
1000
0100
0100
,
0010
0010
0001
0001
,
2000
3000
0020
0030
,
0200
0300
0002
0000
,
2000
0000
0000
0000
,
0000
0000
0000
3003
,
0001
1000
0001
0100
,
0010
0000
0100
0010
,
1000
0001
1000
0100
,
0010
0000
0100
0010
,
0001
1000
0001
0100
,
0010
0000
0100
0010
,
1000
0000
0000
1000
0000
0000
0001
0000
,
0000
0001
0000
0000
0100
0000
0001
0000
,
2000
0000
0000
0000
,
0000
0000
0000
0000
,
3000
0000
0000
0000
;

//---------------dance-single - ----------------
#NOTES:
     dance-single:
     :
     Beginner:
     3:
     0.177961,0.208258,0.030570,0.030570,0.000000,155.000000,4.000000,4.000000,0.000000,0.000000,0.000000,0.177961,0.208258,0.030570,0.030570,0.000000,155.000000,4.000000,4.000000,0.000000,0.000000,0.000000:
// measure 0
0000
0000
0000
0000
,  // measure 1
0000
0000
0000
0000
,  // measure 2
0000
0000
0000
0000
,  // measure 3
0000
0000
0000
0000
,  // measure 4
0000
0000
0000
0000
,  // measure 5
0000
0000
0000
0000
,  // measure 6
0000
0000
0000
0000
,  // measure 7
0000
0000
0000
0000
,  // measure 8
1000
0000
0000
0001
,  // measure 9
0000
0000
0100
0000
,  // measure 10
0000
0001
0000
1000
,  // measure 11
0000
0010
0010
0000
,  // measure 12
1000
0000
0000
0001
,  // measure 13
0000
0000
0010
0000
,  // measure 14
0000
0001
1000
0001
,  // measure 15
0000
0000
0000
0000
,  // measure 16
1000
0000
0000
0000
0100
0000
0000
0100
,  // measure 17
0000
0000
1000
0000
,  // measure 18
0001
0000
0000
0000
0100
0000
0000
0100
,  // measure 19
0000
0000
0001
0000
,  // measure 20
1000
0000
0000
0000
0100
0000
0000
0100
,  // measure 21
0000
0000
1000
0000
,  // measure 22
0010
0000
0000
0010
,  // measure 23
0000
0000
0100
0010
,  // measure 24
1000
0000
0000
0000
0010
0000
0000
0010
,  // measure 25
0000
0000
1000
0000
,  // measure 26
0001
0000
0000
0000
0010
0000
0000
0010
,  // measure 27
0000
0000
0001
0000
,  // measure 28
1000
0000
0000
0000
0010
0000
0000
0010
,  // measure 29
0000
0000
1000
0000
,  // measure 30
0100
0000
0000
0100
,  // measure 31
0000
0000
0110
0000
,  // measure 32
0001
0000
0000
0100
,  // measure 33
0000
0000
0010
0000
,  // measure 34
0000
0100
0000
0000
,  // measure 35
0001
0000
0000
0000
,  // measure 36
1000
0000
1000
0000
,  // measure 37
0100
0000
1000
0000
,  // measure 38
0010
0000
0020
0000
,  // measure 39
0000
0030
0000
0000
,  // measure 40
1000
0000
1000
0000
,  // measure 41
0001
0000
0001
0000
,  // measure 42
0000
0000
1000
0000
,  // measure 43
0010
0000
0100
0000
,  // measure 44
0001
0000
1000
0000
,  // measure 45
0000
0000
0001
0000
,  // measure 46
0000
0100
0000
0100
,  // measure 47
0000
0000
1001
0000
,  // measure 48
0000
0001
0000
0001
,  // measure 49
0001
0000
0000
1000
,  // measure 50
1000
0000
0000
0001
,  // measure 51
0001
0000
0000
0000
,  // measure 52
0010
0000
0000
0010
,  // measure 53
0010
0000
0000
0100
,  // measure 54
0100
0000
0100
0000
,  // measure 55
0010
0000
0010
0000
,  // measure 56
0000
0001
0000
1000
,  // measure 57
1000
0000
0000
0001
,  // measure 58
0001
0000
0000
1000
,  // measure 59
1000
0000
0000
0000
,  // measure 60
0000
0010
0000
0010
,  // measure 61
0100
0000
0000
0000
0000
0000
0000
0010
,  // measure 62
0000
0000
0000
1000
0000
0000
0000
0001
,  // measure 63
0000
0000
0000
0000
,  // measure 64
1000
0000
0000
0000
,  // measure 65
0100
0000
0000
0000
,  // measure 66
0001
0000
0000
0000
,  // measure 67
0010
0000
0000
0000
,  // measure 68
0001
0000
0000
0000
,  // measure 69
0100
0000
0000
0000
,  // measure 70
1000
0000
0001
0000
,  // measure 71
1000
0000
0000
0000
,  // measure 72
0001
0000
0000
0000
,  // measure 73
0100
0000
0000
0000
,  // measure 74
1000
0000
0000
0000
,  // measure 75
0010
0000
0000
0000
,  // measure 76
1000
0000
0000
0000
,  // measure 77
0100
0000
0000
0000
,  // measure 78
0001
0000
0000
0000
,  // measure 79
1001
0000
0000
0000
,  // measure 80
0000
0000
0000
0000
,  // measure 81
0001
0000
0001
0000
,  // measure 82
0100
0000
0000
0000
,  // measure 83
1000
0000
1000
0000
,  // measure 84
0010
0000
0000
0000
,  // measure 85
1000
0000
1000
0000
,  // measure 86
0100
0000
0000
0000
,  // measure 87
0001
0000
1000
0000
,  // measure 88
0001
0000
0000
0000
,  // measure 89
1000
0000
1000
0000
,  // measure 90
0100
0000
0000
0000
,  // measure 91
0001
0000
0001
0000
,  // measure 92
0010
0000
0000
0000
,  // measure 93
0001
0000
0001
0000
,  // measure 94
0100
0000
0000
0000
,  // measure 95
1000
0000
0001
0000
,  // measure 96
1000
0000
0000
0000
,  // measure 97
2002
0000
0000
0000
,  // measure 98
0000
0000
0000
3003
,  // measure 99
1000
0000
0000
0000
0100
0000
0000
0100
,  // measure 100
0000
0000
1000
0000
,  // measure 101
0001
0000
0000
0000
0100
0000
0000
0100
,  // measure 102
0000
0000
0001
0000
,  // measure 103
1000
0000
0000
0000
0100
0000
0000
0100
,  // measure 104
0000
0000
1000
0000
,  // measure 105
0010
0000
0000
0010
,  // measure 106
0000
0000
0100
0010
,  // measure 107
0200
0000
0000
0000
,  // measure 108
0000
0000
0000
0000
,  // measure 109
0300
0000
0000
0000
;
