#VERSION:0.83;
#TITLE:Waiting For You;
#SUBTITLE:;
#ARTIST:Unlike Pluto feat. Joanna Jones;
#TITLETRANSLIT:;
#SUBTITLETRANSLIT:;
#ARTISTTRANSLIT:;
#GENRE:;
#ORIGIN:;
#CREDIT:;
#BANNER:waitingforyou_bn.png;
#BACKGROUND:waitingforyou_bg.png;
#PREVIEWVID:;
#JACKET:waitingforyou_jacket.png;
#CDIMAGE:;
#DISCIMAGE:;
#LYRICSPATH:;
#CDTITLE:cdtitle.png;
#MUSIC:waitingforyou.ogg;
#OFFSET:0.000000;
#SAMPLESTART:62.930820;
#SAMPLELENGTH:15.737701;
#SELECTABLE:YES;
#BPMS:0.000=122.000;
#STOPS:;
#DELAYS:;
#WARPS:;
#TIMESIGNATURES:0.000=4=4;
#TICKCOUNTS:0.000=4;
#COMBOS:0.000=1;
#SPEEDS:0.000=1.000=0.000=0;
#SCROLLS:0.000=1.000;
#FAKES:;
#LABELS:0.000=Song Start;
#BGCHANGES:;
#KEYSOUNDS:;
#ATTACKS:
;

//---------------dance-single - ----------------
#NOTEDATA:;
#CHARTNAME:;
#STEPSTYPE:dance-single;
#DESCRIPTION:;
#CHARTSTYLE:;
#DIFFICULTY:Hard;
#METER:13;
#RADARVALUES:0.498139,0.527829,0.167710,0.132771,0.366866,499.000000,475.000000,24.000000,19.000000,0.000000,0.000000,0.000000,0.000000,0.000000,0.498139,0.527829,0.167710,0.132771,0.366866,499.000000,475.000000,24.000000,19.000000,0.000000,0.000000,0.000000,0.000000,0.000000;
#CREDIT:;
#NOTES:
0000
0000
0000
0000
,
0000
0000
0000
0000
,
0000
0000
0000
0000
,
0000
0000
0000
0000
,
0000
0000
1000
0000
0001
0000
0100
0000
0010
0000
0000
0001
0000
0000
1000
0000
,
0000
0000
0100
0001
1000
0100
0000
0010
,
0000
0000
0001
0010
1000
0010
0000
0001
,
0000
0000
0000
1001
,
0001
0100
0001
1000
0010
0000
0001
0000
,
0010
1000
0001
0010
1000
0000
0100
0000
,
0001
1000
0010
1000
0001
0010
0100
1000
,
1100
0000
0000
1001
0000
0000
0101
0000
0000
1001
0000
0000
1100
0000
0000
0000
,
1000
0010
0100
0010
1000
0000
0100
0000
,
0001
0100
1000
0010
0100
0000
1000
0000
,
0100
0001
1000
0001
0100
0010
1000
0000
,
0101
0000
0000
1001
0000
0000
1100
0000
0000
1001
0000
0000
0101
0000
0000
0000
,
0001
0000
0100
0000
0010
1000
0001
0100
,
0000
0000
0010
0000
1000
0001
0100
0010
,
0000
0000
1000
0000
0001
0100
0010
1000
,
0000
1000
0000
1000
,
1000
0000
0100
0000
0010
0001
1000
0100
,
0000
0000
0010
0000
0001
1000
0100
0010
,
0000
0000
0001
0000
1000
0100
0010
0001
,
0000
0000
0001
0000
0001
1000
0001
1000
,
1000
0000
1100
0100
0001
0100
0010
0001
,
0100
0000
0101
0100
1000
0000
0100
0010
,
1000
0010
1000
0010
0100
0000
0010
0100
,
0001
0000
0000
1000
0010
0000
0100
0000
0100
0001
0000
0000
1000
0000
0000
0000
,
0001
0010
0000
0001
0010
0000
0100
0000
1000
0010
0000
0000
1000
0000
0001
0000
,
0100
0010
0000
0100
0010
0000
1000
0000
0001
1000
0000
0000
0010
0000
0100
0000
,
0001
0100
0000
0010
1000
0000
0001
0000
0010
0100
0000
1000
0001
0000
1000
0000
,
2001
0000
0000
0010
0000
0000
0100
0000
3000
0000
0000
0000
0110
0000
0000
0000
,
1000
0000
0000
0000
0001
0100
0001
0000
0100
0000
0000
0000
0010
0000
0000
0000
0100
0000
0000
0000
0001
0000
0000
0000
0000
0000
0000
0000
0001
0000
0000
0000
,
0100
0000
0000
0010
0100
0000
1000
0000
0000
0000
0100
0000
0001
0000
1000
0000
,
0100
0000
0000
0000
1000
0100
1000
0000
0100
0000
0000
0000
1000
0000
0000
0000
0010
0000
0000
0000
0100
0000
0000
0000
0010
0000
0000
0000
1000
0000
0000
0000
,
0001
0000
1000
0100
0000
0010
0100
0000
0001
0100
0010
0000
0001
0000
1000
0000
,
0001
0000
0000
0000
1000
0010
1000
0000
0010
0000
0000
0000
0100
0000
0000
0000
0010
0000
0000
0000
1000
0000
0000
0000
0000
0000
0000
0000
1000
0000
0000
0000
,
0010
0000
0000
0100
0010
0000
0001
0000
0000
0000
0010
0000
1000
0000
0001
0000
,
0010
0000
0000
0000
0001
0010
0001
0000
0010
0000
0000
0000
0001
0000
0000
0000
0100
0000
0000
0000
0010
0000
0000
0000
0100
0000
0000
0000
0001
0000
0000
0000
,
1000
0000
0000
0101
0000
0000
0011
0000
0000
0000
0010
0000
1000
0000
0100
0000
,
0001
0000
0000
0001
0000
1000
0100
0000
0000
1000
0000
0001
,
0100
0000
0000
0100
0010
0100
0010
0000
0010
1000
0000
1000
,
0001
0000
0000
0001
0000
1000
0010
0000
0000
1000
0000
0001
,
0010
0000
0000
0010
0100
0010
0100
0000
0100
0010
0000
0001
,
1000
0000
0000
1000
0000
0010
0001
0000
0000
0010
0000
1000
,
0010
0000
0000
0010
0100
0010
0100
0000
0010
1000
0000
1000
,
0001
0000
0000
0001
0000
0010
1000
0000
0000
0010
0000
0001
,
0010
0020
0000
0000
,
0031
0000
0000
0000
0011
0000
0010
0000
1000
0010
0000
0000
0010
0000
0100
0000
,
1000
0000
0000
0000
1010
0000
0010
0000
0001
0010
0000
0000
0010
0000
0100
0010
,
0100
0000
0010
0000
1000
0000
0010
0000
1000
0010
0000
0000
0100
0000
0010
0000
,
1000
0000
0000
0001
0100
0000
0010
0000
0010
1000
0000
0000
0001
0000
0000
0000
,
1000
0100
0000
1000
0100
0000
0010
0000
0001
0100
0000
0000
0001
0000
1000
0000
,
0010
0100
0000
0010
0100
0000
0001
0000
1000
0001
0000
0000
0100
0000
0010
0000
,
1000
0010
0000
0100
0001
0000
1000
0000
0100
0010
0100
0000
1000
0000
0001
1000
,
0002
0000
0000
0100
0000
0000
0010
0000
0003
0000
0000
0000
0110
0000
0000
0000
,
0001
0000
0000
0000
1000
0010
1000
0000
0010
0000
0000
0000
0100
0000
0000
0000
0010
0000
0000
0000
1000
0000
0000
0000
0000
0000
0000
0000
1000
0000
0000
0000
,
0010
0000
0000
0100
0010
0000
0001
0000
0000
0000
0010
0000
1000
0000
0001
0000
,
0010
0000
0000
0000
0001
0010
0001
0000
0010
0000
0000
0000
0001
0000
0000
0000
0100
0000
0000
0000
0010
0000
0000
0000
0100
0000
0000
0000
0001
0000
0000
0000
,
1000
0000
0001
0010
0000
0100
0010
0000
1000
0010
0100
0000
1000
0000
0001
0000
,
1000
0000
0000
0000
0001
0100
0001
0000
0100
0000
0000
0000
0010
0000
0000
0000
0100
0000
0000
0000
0001
0000
0000
0000
0000
0000
0000
0000
0001
0000
0000
0000
,
0100
0000
0000
0010
0100
0000
1000
0000
0000
0000
0100
0000
0001
0000
1000
0000
,
0100
0000
0000
0000
1000
0100
1000
0000
0100
0000
0000
0000
1000
0000
0000
0000
0010
0000
0000
0000
0100
0000
0000
0000
0010
0000
0000
0000
1000
0000
0000
0000
,
0001
0000
0000
1100
0000
0000
1010
0000
0000
0000
0010
0000
0001
0000
0100
0000
,
2000
0000
0000
0000
3200
0000
0000
0000
0302
0000
0000
0000
0103
0000
0010
0100
,
0010
0000
0000
0100
1000
0000
0001
0100
0010
0000
0010
0000
0100
0010
0100
0010
,
1000
0002
0000
0000
0023
0000
0000
0000
2030
0000
3020
0000
0032
0000
0000
1003
,
0000
0000
0110
0000
0000
0000
0000
0000
1000
0010
0000
0100
0001
1000
0000
1000
,
0002
0000
0000
0000
0023
0000
0000
0000
2030
0000
0000
0000
3010
0000
0100
0010
,
0100
0000
0000
0010
0001
0000
1000
0010
0100
0000
0100
0000
0010
0100
0010
0100
,
0001
2000
0000
0000
3200
0000
0000
0000
0302
0000
0203
0000
2300
0000
0000
3001
,
0000
0000
0110
0000
0000
0000
0000
0000
0001
0100
0000
0010
1000
0100
0000
0001
;
