#TITLE:There's Nothing Holdin' Me Back;
#SUBTITLE:;
#ARTIST:Shawn Mendes;
#TITLETRANSLIT:;
#SUBTITLETRANSLIT:;
#ARTISTTRANSLIT:;
#GENRE:;
#CREDIT:hooky;
#BANNER:[Week 3] - There's Nothing Holdin' Me Back.png;
#BACKGROUND:[Week 3] - There's Nothing Holdin' Me Back-bg.png;
#LYRICSPATH:;
#CDTITLE:;
#MUSIC:[Week 3] - There's Nothing Holdin' Me Back.ogg;
#OFFSET:0.000000;
#SAMPLESTART:41.279976;
#SAMPLELENGTH:18.999969;
#SELECTABLE:YES;
#DISPLAYBPM:122.000000;
#BPMS:0.000000=122.000000
;
#STOPS:
;
#BGCHANGES:;
#KEYSOUNDS:;
#ATTACKS:;

//---------------dance-single - hooky----------------
#NOTES:
     dance-single:
     hooky:
     Hard:
     11:
     0.460536,0.546508,0.399909,0.024484,0.171389,395.000000,346.000000,49.000000,3.000000,0.000000,0.000000,0.460536,0.546508,0.399909,0.024484,0.171389,395.000000,346.000000,49.000000,3.000000,0.000000,0.000000:
0000
0000
0000
0000
,
0000
0000
0000
0000
,
0000
0000
0000
0000
,
0000
0000
0000
0000
,
0000
0000
0000
0000
,
1000
0000
1000
0000
0001
0100
0001
0010
,
0000
0001
0100
0000
0100
0010
1000
0100
,
0000
0100
1000
0000
1000
0001
0100
0010
,
0000
0010
0100
0000
0100
0001
0000
0000
,
0100
0000
0100
0000
0010
1000
0100
1000
,
0000
1000
0001
0000
0001
0100
0010
0100
,
0000
0100
0001
0000
0010
0001
0100
0001
,
0000
1000
0001
0000
0100
0010
0000
0100
,
0020
0000
1000
1000
1000
0000
0100
0100
,
0100
0000
0001
0001
0001
0000
0130
0000
,
0010
1000
0100
0000
0010
1000
0100
0000
,
0010
0001
0100
0000
0010
0001
0100
0000
,
0200
0000
0001
0001
0001
0000
0010
0010
,
0010
0000
1000
1000
1000
0000
0310
0000
,
0100
0001
0010
0000
0100
0001
0010
0001
,
0100
0010
0010
0010
0010
0010
0010
0000
,
0110
0000
1010
0000
0010
0100
0010
0100
,
0110
0000
0011
0000
0001
0010
0100
0010
,
0110
0000
1010
0000
0010
0100
0001
0000
,
0010
0001
0100
1000
0010
0001
0100
0001
,
0101
0000
1010
0000
0010
0100
0001
0010
,
0011
0000
1100
0000
0010
1000
0100
1000
,
1010
0000
0101
0000
0001
0010
0100
0000
,
1000
0010
0100
0010
0100
0001
0010
0001
,
0101
0000
0000
0001
0000
0000
1000
0000
0010
0000
0000
0100
0000
0000
0100
0000
,
0001
0000
0000
0010
0000
0000
0010
0000
0001
0000
0000
0100
0000
0001
0100
0000
,
0110
0000
0000
0010
0000
0000
1000
0000
0100
0000
0000
1000
0000
0000
1000
0000
,
0001
0000
0000
0100
0000
0000
0100
0000
0001
0000
0000
0010
0000
0001
1000
0000
,
1010
0000
0000
1000
0000
0000
0001
0000
0100
0000
0000
0010
0000
0000
0010
0000
,
1000
0000
0000
0100
0000
0000
0100
0000
1000
0000
0000
0010
0000
1000
0010
0000
,
0110
0000
0000
0100
0000
0000
0001
0000
0010
0000
0000
0001
0000
0000
0001
0000
,
1000
0000
0000
0010
0000
0000
0010
0000
1000
0000
0000
0100
0000
1000
0100
0000
,
1000
1100
1000
1100
,
0010
0011
0010
0011
,
0001
0100
0001
0000
0100
0000
0110
0000
,
0010
1000
0100
0000
0010
1000
0100
0000
,
1000
1001
0101
0011
,
0001
0100
0010
0000
0001
0100
0010
0000
,
0200
0000
0001
0000
0001
0000
0301
0010
,
0000
0001
0100
0010
1000
0100
0010
0001
,
0110
0000
0101
0000
0100
0010
0100
0010
,
0110
0000
1100
0000
1000
0100
0010
0100
,
0110
0000
0101
0000
0100
0010
1000
0000
,
0100
1000
0010
0001
0100
1000
0010
1000
,
1010
0000
0101
0000
0100
0010
1000
0100
,
1100
0000
0011
0000
0100
0001
0010
0001
,
0101
0000
1010
0000
1000
0100
0010
0000
,
0001
0100
0010
0100
0010
1000
0100
1000
,
1010
0000
0000
1000
0000
1000
0001
0000
0100
0000
0000
0010
0000
0100
0010
0000
,
1000
0000
0000
0100
0000
1000
0100
0000
1000
0000
1000
0010
0000
1000
0010
0000
,
0110
0000
0000
0100
0000
0100
0001
0000
0010
0000
0000
0001
0000
1000
0001
0000
,
1000
0000
0000
0010
0000
0000
0010
0000
1000
0000
0000
0100
0000
1000
0001
0000
,
0101
0000
0000
0011
0000
0000
0011
0000
0100
0000
0000
0110
0000
0000
0110
0000
,
0010
0000
0000
1010
0000
0000
1010
0000
1000
0000
0000
1100
0000
0000
1100
0000
,
0100
0000
0000
1010
0000
0000
1010
0000
0100
0000
0001
0010
0000
0001
0010
0000
,
0100
1000
0010
0100
0010
1000
0001
1000
;

//---------------dance-single - hooky----------------
#NOTES:
     dance-single:
     :
     Medium:
     8:
     0.280985,0.348492,0.212196,0.057130,0.000000,241.000000,215.000000,26.000000,7.000000,0.000000,0.000000,0.280985,0.348492,0.212196,0.057130,0.000000,241.000000,215.000000,26.000000,7.000000,0.000000,0.000000:
// measure 0
0000
0000
0000
0000
,  // measure 1
0000
0000
0000
0000
,  // measure 2
0000
0000
0000
0000
,  // measure 3
0000
0000
0000
0000
,  // measure 4
0000
0000
0000
0000
,  // measure 5
1000
0000
0001
0000
1000
0010
0100
0000
,  // measure 6
0001
0001
1000
1000
,  // measure 7
0100
0000
0100
0000
1000
0010
0100
0000
,  // measure 8
0001
0001
0100
0000
,  // measure 9
0100
0000
0001
0000
0010
0001
0100
0000
,  // measure 10
0010
1000
0100
0100
,  // measure 11
1000
0000
0001
0000
0100
0001
0100
0000
,  // measure 12
0100
0010
1000
0000
,  // measure 13
0200
1000
1300
0000
,  // measure 14
0020
0001
0031
0000
,  // measure 15
0001
0100
0010
0010
,  // measure 16
1000
0100
1000
0000
,  // measure 17
2000
0001
3001
0000
,  // measure 18
0002
0100
0103
0000
,  // measure 19
0100
0010
1000
0100
,  // measure 20
1000
0000
0001
0000
0100
0100
0100
0000
,  // measure 21
0110
0000
0000
0000
0000
0010
0010
1010
,  // measure 22
0000
0000
0000
0000
0000
1000
1000
1100
,  // measure 23
0000
0000
0000
0000
0000
0010
0010
0011
,  // measure 24
0000
0000
0000
0000
0001
0100
0000
0000
,  // measure 25
0101
0000
0000
0000
0000
0100
0100
0110
,  // measure 26
0000
0000
0000
0000
0000
0010
0010
1010
,  // measure 27
0000
0000
0000
0000
0000
1000
1000
1100
,  // measure 28
0000
0000
0000
0000
1000
0001
1000
0000
,  // measure 29
0001
0100
0001
0001
,  // measure 30
1000
0000
0010
0000
0100
0010
0100
0000
,  // measure 31
0001
0010
0001
0001
,  // measure 32
0100
0000
0010
0000
1000
0100
1000
0000
,  // measure 33
1000
1010
0100
0101
,  // measure 34
0010
0000
0011
0000
0001
0000
1000
0001
,  // measure 35
1000
1010
0010
0110
,  // measure 36
0100
0001
1000
1000
,  // measure 37
0001
0101
0001
0101
,  // measure 38
0100
1010
0100
1010
,  // measure 39
0010
1010
1000
1100
,  // measure 40
1000
1010
0010
0110
,  // measure 41
0100
0101
0001
0011
,  // measure 42
0100
0110
0010
1010
,  // measure 43
1000
1000
1000
0000
,  // measure 44
0001
0000
0100
0000
0001
0100
0001
0000
,  // measure 45
0100
0100
0010
0000
,  // measure 46
0010
0010
1000
0000
,  // measure 47
1000
1000
0100
0000
,  // measure 48
1000
0001
0110
0000
,  // measure 49
0010
0010
0100
0000
,  // measure 50
0100
0001
0010
0000
,  // measure 51
0001
0001
1000
0000
,  // measure 52
0010
0000
0010
0000
0100
0010
0100
0000
,  // measure 53
0100
0001
0001
0100
,  // measure 54
0010
1000
0100
0100
,  // measure 55
1000
0001
0100
0100
,  // measure 56
0001
0000
0010
0000
0001
0100
0001
0000
,  // measure 57
2000
0001
3001
0100
,  // measure 58
0002
0100
0103
1000
,  // measure 59
0200
0010
0310
0000
,  // measure 60
0010
0000
0001
0000
1000
0100
0001
0100
,  // measure 61
1000
0000
0000
0000
;
