#VERSION:0.83;
#TITLE:The Fatal Fantasia;
#SUBTITLE:;
#ARTIST:Alice Schach and the Magic Orchestra;
#TITLETRANSLIT:;
#SUBTITLETRANSLIT:;
#ARTISTTRANSLIT:;
#GENRE:;
#CREDIT:;
#MUSIC:The Fatal Fantasia.ogg;
#BANNER:The Fatal Fantasia.png;
#BACKGROUND:The Fatal Fantasia-bg.png;
#CDTITLE:;
#SAMPLESTART:50.958;
#SAMPLELENGTH:15.000;
#SELECTABLE:YES;
#OFFSET:1.842;
#BPMS:0.000=125.000
,60.000=130.000
;
#STOPS:;
#BGCHANGES:;
#FGCHANGES:;

//--------------- dance-single - Talkion ----------------
#NOTEDATA:;
#STEPSTYPE:dance-single;
#DESCRIPTION:Talkion;
#DIFFICULTY:Beginner;
#METER:2;
#RADARVALUES:0,0,0,0,0;
#NOTES:
0000
0000
0000
0000
,
0000
0000
0000
0000
,
0000
0000
0000
0000
,
0000
0000
0000
0000
,
0000
0000
0000
0000
,
0001
0000
0000
0000
,
1000
0000
0000
0000
,
0001
0000
0000
0000
,
2000
0000
0000
0000
,
3000
0000
0000
0000
,
0001
0000
0000
0000
,
0010
0000
0000
0000
,
1000
0000
0000
0000
,
0010
0000
0000
0000
,
0001
0000
0000
0000
,
1000
0000
1000
0000
,
0001
0000
0001
0000
,
0200
0000
0000
0000
,
0000
0000
0300
0000
,
0001
0000
0001
0000
,
0010
0000
0010
0000
,
0100
0000
0100
0000
,
1000
0000
1000
0000
,
0002
0000
0003
0000
,
2000
0000
3000
0000
,
0020
0000
0030
0000
,
0200
0000
0300
0000
,
0001
0001
0001
0000
,
1000
0000
1000
0000
,
0100
0000
0110
0000
,
0001
0000
0001
0000
,
0100
0000
0100
0000
,
0010
0000
0010
0000
,
1000
0000
1000
0000
,
0002
0000
0003
0000
,
1000
1000
1000
0000
,
0001
0000
0001
0000
,
0100
0000
0110
0000
,
1000
0000
1000
0000
,
0100
0000
0100
0000
,
0010
0000
0010
0000
,
0001
0000
0001
0000
,
2000
0000
3000
0000
,
0020
0000
0000
0000
,
0000
0000
0030
0000
,
0010
0000
0010
0000
,
1000
0000
1000
0000
,
0001
0000
0000
0000
,
1001
0000
0000
1001
0000
0000
0000
0000
,
0100
0000
0100
0000
,
0001
0000
0001
0000
,
2000
0000
3000
0000
,
0002
0000
0003
0000
,
0200
0000
0300
0000
,
0010
0000
0000
0000
,
0010
0000
0000
0000
,
0100
0000
0000
0000
,
0100
0000
0000
0000
,
0001
0000
0010
0000
,
1000
0000
0010
0000
,
0002
0000
0003
0000
,
1000
1000
1000
0000
,
0010
0000
0010
0000
,
0100
0000
0110
0000
,
0001
0000
0001
0000
,
1000
0000
1000
0000
,
0100
0000
0100
0000
,
0010
0000
0010
0000
,
0002
0000
0003
0000
,
2000
0000
0000
0000
,
0000
0000
3000
0000
,
0001
0000
0000
0001
0000
0000
0000
0000
,
1000
0000
0000
1000
0000
0000
0000
0000
,
0010
0000
0000
0010
0000
0000
0000
0000
,
0100
0000
0000
0100
0000
0000
0000
0000
,
0001
0000
0000
0001
0000
0000
0000
0000
,
1000
0000
0000
1000
0000
0000
0000
0000
,
0100
0000
0000
0100
0000
0000
0000
0000
,
0100
0000
0000
0100
0000
0000
0000
0000
,
2002
0000
0000
0000
,
0000
0000
0000
0000
,
3003
0000
0000
0000
;

//--------------- dance-single - Talkion ----------------
#NOTEDATA:;
#STEPSTYPE:dance-single;
#DESCRIPTION:Talkion;
#DIFFICULTY:Easy;
#METER:5;
#RADARVALUES:0,0,0,0,0;
#NOTES:
0000
0000
0000
0000
,
0000
0000
0000
0000
,
0000
0000
0000
0000
,
0000
0000
0000
0000
,
0000
0000
0000
0000
,
1000
0000
1000
0000
,
0001
0000
0001
0000
,
0100
0000
0100
0000
,
0020
0000
0000
0000
,
0030
0000
0000
0000
,
1000
0100
0010
0000
,
0002
0000
1003
0000
,
0001
0100
0010
0000
,
2000
0000
3001
0000
,
0010
0001
0100
0000
,
0010
0010
0010
0000
,
1000
1000
1000
0000
,
0002
0000
0000
0000
,
2000
0000
0000
3003
,
0010
0001
0010
0001
,
1000
0010
1000
0010
,
0200
0000
0310
0000
,
1000
0001
1000
0000
,
0200
0000
0010
0310
,
0002
0000
1000
1003
,
0020
0000
0100
0130
,
0002
0000
0010
0000
,
1000
1000
1000
1003
,
0010
0100
0010
0000
,
0100
0001
1001
0000
,
1000
0100
0010
0000
,
0100
0010
0110
0000
,
0001
0100
0001
0000
,
1000
0100
1000
0000
,
0020
0000
0000
0000
,
0100
0100
0100
0130
,
0001
1000
0001
0000
,
0010
0100
0110
0000
,
1000
0001
0100
0000
,
0001
0100
0110
0000
,
0010
1000
0100
0000
,
0010
0001
0100
0000
,
0020
0000
0000
0000
,
2030
0000
0010
0000
,
0002
0000
3003
0000
,
0001
0100
0001
0100
,
1000
0100
1000
0100
,
0001
1000
0001
0010
,
0100
0000
0000
1001
0000
0000
0110
0000
,
1000
0100
1000
0100
,
0010
0001
0010
0001
,
0200
0000
0010
0310
,
2000
0000
0001
3001
,
0010
0100
0010
0000
,
0002
0000
0103
0000
,
2000
0000
3100
0000
,
0001
0001
0001
0000
,
1000
1000
1000
0000
,
0010
0000
0101
0000
,
0010
0000
1100
0000
,
0001
0001
0001
0002
,
1000
1000
1000
1003
,
0010
0100
0110
0000
,
0001
1000
1001
0000
,
0010
0001
0100
0001
,
0010
0001
0100
0000
,
0010
1000
0100
0000
,
0010
0001
0100
0000
,
0020
0000
0000
0000
,
1030
0100
0010
0001
,
2000
0001
0001
3001
,
0100
0000
0000
0110
0000
0000
1000
0000
,
0100
0000
0000
0110
0000
0000
0001
0000
,
0100
0000
0000
0101
0000
0000
0010
0000
,
1000
0000
0000
1100
0000
0000
0010
0000
,
0001
0000
0000
1001
0000
0000
1000
0000
,
0010
0000
0000
0110
0000
0000
0100
0000
,
0001
0000
0000
1001
0000
0000
1000
0000
,
0100
0000
0000
1001
0000
0000
0000
0000
,
0220
0000
0000
0000
,
0000
0000
0000
0000
,
0330
0000
0000
0000
;

//--------------- dance-single - Talkion ----------------
#NOTEDATA:;
#STEPSTYPE:dance-single;
#DESCRIPTION:Talkion;
#DIFFICULTY:Medium;
#METER:9;
#RADARVALUES:0,0,0,0,0;
#NOTES:
0000
0000
0000
0000
,
0000
0000
0000
0000
,
0000
0000
0000
0000
,
0000
0000
0000
0000
,
0000
0000
0000
0000
,
1000
0100
0200
0300
,
0001
0010
0020
0030
,
1000
0100
0200
0300
,
0020
0000
0000
0000
,
0030
0000
0000
0000
,
0001
0100
1000
0100
,
0001
0000
0100
0000
0010
0000
1000
0000
0000
0000
0000
0000
,
1000
0100
0001
0100
,
1000
0000
0100
0000
0010
0000
0001
0000
0000
0000
0000
0000
,
1000
0010
0001
0010
,
1000
0001
1000
0000
0100
0010
0100
0000
,
0010
0001
1000
0000
0010
1000
0001
0000
,
0020
0000
0000
0000
,
0230
0000
0000
0000
,
1300
0001
0100
0000
0010
0100
0001
0000
,
0010
0100
1000
0100
0010
0100
1000
0000
,
0002
0103
2000
3100
,
0011
0000
1010
0000
0001
0010
0100
0000
,
2001
0000
0100
3010
,
1002
0000
0100
0013
,
2001
0000
0100
3010
,
0001
0001
0100
0100
,
0010
1000
0010
1000
0020
0000
0230
0000
,
0301
0000
1000
0001
1000
0000
0100
0000
,
0010
0001
1001
1001
,
0100
0001
1000
0001
0100
0000
0010
0000
,
1000
0100
0110
0110
,
0001
0000
0100
0010
1000
0000
0100
0010
,
0001
0000
0100
0010
1000
0000
0100
0000
,
0020
0000
0000
0000
,
0130
1000
0100
1000
0200
0000
0320
0000
,
0031
0000
1000
0001
0100
0000
1000
0000
,
0100
0010
0110
0110
,
1000
0100
0010
0100
1000
0000
0010
0000
,
0100
0001
1001
1001
,
0100
0000
1000
0100
0001
0000
0100
1000
,
0010
0000
1000
0100
0001
0000
0100
0000
,
0020
0000
0000
0000
,
0032
0000
1000
0000
,
0103
0010
0100
0010
0200
0000
0000
0000
,
0310
1000
0001
0000
0010
0100
1000
0000
,
0100
0010
0001
0010
0100
0010
0001
0000
,
2000
0000
3010
0000
0100
0010
0100
0000
,
0001
0000
0000
0011
0000
0000
1000
0000
0000
2020
0000
0000
3030
0000
0000
0000
,
0002
0000
0010
0000
1003
0010
1000
0000
,
0100
0010
0001
1000
0001
0100
0010
0000
,
0200
0000
0001
0000
0310
1000
0010
0000
,
0200
0000
0000
0000
0301
1000
0001
1000
,
0100
0000
0010
0000
0100
0100
0000
0000
,
2000
0000
3020
0000
,
0230
0000
0302
0000
,
2003
3200
0320
0032
,
2003
3020
0230
0000
,
0301
0000
0000
0001
1001
0000
0000
0000
,
1000
0000
0000
1000
1001
0000
0000
0000
,
0010
0010
0010
0010
,
0100
0001
0100
0001
0200
0000
0320
0000
,
1030
0000
0100
0010
0001
0000
0010
0000
,
0100
1000
1001
1001
,
0100
0001
0010
0001
0100
0000
0010
0000
,
1000
0100
0110
0110
,
0001
0000
0010
0100
1000
0000
0010
0100
,
1000
0000
0100
0001
0010
0000
0100
0000
,
2000
0000
0000
0000
,
3020
0000
0100
0000
,
1030
0001
1000
0001
1000
0001
0010
0000
,
0100
0000
0000
1000
0000
0000
1100
0000
0000
0000
0000
0000
1001
0000
0000
0000
,
0010
0000
0000
0001
0000
0000
0011
0000
0000
0000
0000
0000
1001
0000
0000
0000
,
0100
0000
0000
0010
0000
0000
0110
0000
0000
0000
0000
0000
1001
0000
0000
0000
,
0010
0000
0000
0100
0000
0000
0110
0000
0000
0000
0000
0000
1001
0000
0000
0000
,
0010
0000
0000
0001
0000
0000
0101
0000
0000
0000
0000
0000
0100
0000
0010
0000
,
1000
0000
0000
0100
0000
0000
1100
0000
0000
0000
0000
0000
0100
0000
0010
0000
,
0001
0000
0000
0100
0000
0000
0110
0000
0000
0000
0000
0000
1001
0000
0000
0000
,
1000
0000
0000
0100
0000
0000
0010
0000
0000
0001
0000
0000
1000
0000
0001
0000
,
0200
0000
0000
0000
,
0000
0000
0000
0000
,
0300
0000
0000
0000
;

//--------------- dance-single - Talkion ----------------
#NOTEDATA:;
#STEPSTYPE:dance-single;
#DESCRIPTION:Talkion;
#DIFFICULTY:Hard;
#METER:13;
#RADARVALUES:0,0,0,0,0;
#NOTES:
0000
0000
0000
0000
,
0000
0000
0000
0000
,
0000
0000
0000
0000
,
0000
0000
0000
0000
,
0000
0000
0000
0000
,
2000
0000
0000
3100
0010
0001
0100
0000
0000
0010
0000
0000
,
0200
0000
0000
0301
0010
0100
1000
0000
0000
0001
0000
0000
,
0200
0000
0000
0310
1000
0001
0010
0000
0000
0100
0000
0000
,
0020
0000
0000
0000
0000
0000
0031
1000
0001
0100
0010
1000
,
0200
0000
0001
0000
,
0320
0000
0000
0031
1000
0001
0200
0000
0000
0310
1000
0010
,
0100
0000
0100
0001
0000
0001
2000
0000
0000
0000
0000
0000
,
3200
0000
0000
0310
0001
1000
0002
0000
0000
0103
0010
0100
,
0001
0000
1000
0000
0100
0000
0020
0000
0000
0000
0000
0000
,
0230
0000
0000
1300
0001
0100
0020
0000
0000
2030
0000
0000
,
3100
0010
0100
0010
0001
0100
0100
0000
,
0010
1000
0010
1000
0100
0010
0010
0000
,
2002
0000
0000
0003
,
0200
3000
0000
0000
,
0310
0000
0001
0000
1000
0001
1000
0000
0010
0000
0100
0000
0110
0000
0000
0000
,
0010
1000
0001
0000
0010
0000
0100
0000
0010
0001
1000
0000
0010
0000
0100
0000
,
0002
0000
0000
0000
1003
0100
0010
0100
1000
0000
0001
0000
1001
0000
0000
0000
,
0001
0000
0000
0000
0100
0000
0000
0000
0010
0000
0000
0000
1000
0000
0000
0000
0100
0000
0000
0000
0010
0000
0000
0000
0001
0000
0000
0000
0000
0000
1000
0000
0000
0001
0000
0000
1000
0000
0000
0000
0000
0000
0010
0000
0000
0000
0000
0000
,
0200
0000
0000
0000
1000
0000
0000
0000
0301
0000
0010
0100
0000
0100
0000
0100
,
1000
0000
0000
0000
0001
0000
0000
0000
0100
0000
0000
0000
1000
0000
0000
0000
0100
0000
0000
0000
0001
0000
0000
0000
1000
0000
0000
0000
0000
0000
0100
0000
0000
0010
0000
0000
0100
0000
0000
0000
0000
0000
1000
0000
0000
0000
0000
0000
,
0020
0000
0000
0000
0001
0000
0000
0000
1030
0000
0001
0010
0001
0000
1000
0000
,
0020
0000
0000
0000
0130
0000
0001
0100
0001
0100
0000
0010
0100
0000
1000
0000
,
0100
0010
0100
0010
1000
0000
0001
0000
0020
0000
0000
0000
0230
0000
0000
0000
,
1300
0000
0001
0100
0001
0000
0100
0000
0010
0000
0010
0000
1000
0000
0100
0000
,
1100
0000
0100
0010
0110
0000
1001
0000
,
0001
0100
1000
0001
0010
1000
0100
0010
,
0002
0000
0013
0100
0110
0000
1100
1000
,
0010
0000
0110
0100
0001
0000
0011
0010
,
0100
0000
1100
1000
0010
0000
0110
0000
,
1002
0100
0010
0100
,
0010
0000
0010
0000
0010
0000
0013
0000
0100
1000
0100
1000
0002
0000
0000
0000
,
0103
0000
0010
0100
0010
0000
1000
0000
0100
0000
0100
0000
0010
0000
0001
0000
,
0101
0000
0100
0010
0110
0000
1001
0000
,
1000
0010
0001
1000
0100
0001
0010
0100
,
1000
0001
1000
0000
0001
0100
0001
0000
0100
0010
1000
0010
0200
0000
0000
0000
,
0301
0000
0011
0010
0100
0000
1100
0100
,
0010
0000
0011
0001
1000
0000
1001
0000
,
0201
0000
1000
0000
0301
0010
0100
1000
,
0020
0000
0100
0000
,
1030
0000
0100
0000
0010
0100
0010
0100
2000
0000
0000
0000
0000
0000
0000
0000
,
3001
0000
0100
0000
0010
0100
0010
0000
1000
0000
0100
0000
1100
0000
0000
0000
,
0100
0010
0001
0010
0100
0000
0010
0000
0001
1000
0010
1000
0001
0000
0100
0000
,
0020
0000
0000
0000
1030
0100
0000
0100
0000
0000
0100
0000
0010
0000
0001
0000
,
0110
0000
0000
1100
0000
0000
0101
0000
0000
1001
0000
0000
0100
0000
0100
0000
,
0002
0000
0000
0000
1003
0000
0100
0000
1000
0100
0000
1000
0100
0000
0010
0000
,
0001
1000
0001
0000
0100
0010
0100
0000
0010
1000
0010
1000
0001
0000
0010
0000
,
0200
0000
0000
0000
0310
0000
0001
0000
0010
0001
0000
0010
0001
0000
1000
0000
,
0020
0000
0001
0000
0130
1000
0100
0001
,
0100
0010
0000
0000
0110
0000
0010
0100
0000
0000
0001
2000
0000
0000
0000
0000
,
3100
0000
0010
0001
0200
0000
0000
0000
,
0310
0000
1000
0001
0020
0000
0000
0000
,
0130
1000
0010
0001
,
0100
1000
0001
0100
0020
0000
0000
0000
,
1030
0000
1100
0010
0100
0000
1001
0100
,
0010
0000
1001
0010
0100
0000
0110
0000
,
2001
0100
0010
0100
,
0010
0000
0010
0000
0010
0000
3010
0000
0100
0001
0100
0001
0020
0000
0000
0000
,
0200
0000
0330
0000
1000
0001
1000
0010
0100
0000
0010
0000
1000
0000
0100
0000
,
0110
0000
0001
0100
0101
0000
1100
0000
,
0001
0100
1000
0001
0010
1000
0100
0010
,
0001
1000
0001
0000
0100
0010
1000
0000
0100
0010
0001
1000
0002
0000
0000
0000
,
0103
0000
1010
0100
0010
0000
0011
0100
,
0010
0000
1100
0010
0100
0000
1001
0000
,
0201
0000
1000
0000
0301
0010
1000
0010
,
0200
0000
0001
0000
1300
0010
0100
0010
,
1000
0001
0000
0001
0000
0001
0000
0001
0000
0010
0100
0010
0100
0000
1000
0000
,
1001
0000
0000
0101
0000
0000
2100
0000
0000
0000
3001
0010
0001
0000
0100
0000
,
0110
0000
0000
1010
0000
0000
0021
0000
0000
0000
0130
1000
0001
0000
0100
0000
,
0110
0000
0000
1001
0000
0000
1200
0000
0000
0000
0310
0001
0010
0000
0100
0000
,
1100
0000
0000
1001
0000
0000
0012
0000
0000
0000
0103
0010
1000
0000
0010
0000
,
0110
0000
0000
0101
0000
0000
0021
0000
0000
0000
1030
0010
0100
0000
0010
0000
,
0110
0000
0000
1100
0000
0000
1020
0000
0000
0000
0031
0010
0100
0000
0010
0000
,
0110
0000
0001
0010
0000
0100
1000
0000
0001
0100
0000
0010
1000
0000
0001
1000
,
0001
0000
1000
0100
0000
0001
0100
0000
1000
0010
1000
0010
0100
0001
0100
0002
,
2000
0000
0000
0000
,
0000
0000
0000
0000
,
3003
0000
0000
0000
;

//--------------- dance-single - Talkion ----------------
#NOTEDATA:;
#STEPSTYPE:dance-single;
#DESCRIPTION:Talkion;
#DIFFICULTY:Challenge;
#METER:15;
#RADARVALUES:0,0,0,0,0;
#NOTES:
0000
0000
0000
0000
,
0000
0000
0000
0000
,
0000
0000
0000
0000
,
0000
0000
0000
0000
,
0000
0000
0000
0000
,
2000
0000
0000
3100
0010
0001
0100
0000
0000
0010
0000
0000
,
0200
0000
0000
0301
0010
0100
1000
0000
0000
0001
0000
0000
,
2000
0000
0000
3100
0001
0100
0010
0000
0000
0001
0000
0000
,
0200
0000
0000
0310
1000
0001
1000
0100
0001
0100
0010
0001
,
0200
0000
1000
0000
,
0302
0000
0000
0013
0100
1000
0020
0000
0000
0130
0001
0010
,
0100
0000
0100
1000
0000
1000
0002
0000
0000
0003
0000
0000
,
2000
0000
0000
3100
0010
0001
0200
0000
0000
0310
1000
0100
,
0010
0000
1000
0000
0001
0000
0200
0000
0000
0300
0000
0000
,
2000
0000
0000
3010
0001
0010
0200
0000
0000
0302
0000
0000
,
1003
0100
0010
0001
0100
0010
0010
0000
,
0010
0100
0001
0010
0100
1000
1000
0000
,
2002
0000
0000
3000
,
0200
0003
0000
0000
,
0310
0100
0010
0000
1000
0010
1000
0000
0100
0010
0001
0010
0200
0000
0000
0000
,
1300
0001
0100
0010
0100
0000
0010
0000
0100
0001
1000
0100
2000
0000
0000
0000
,
3001
0000
0010
0000
0001
0000
0010
0000
0000
0000
0000
0000
0100
0000
0000
0010
0000
0000
0001
0000
0000
0100
0000
0000
0010
0000
0000
1000
0000
0000
0100
0000
0000
0010
0000
0000
0001
0000
0000
0000
0000
0000
1000
0000
0000
0000
0000
0000
,
0001
0000
0000
0000
0100
0000
0000
0000
1000
0000
0000
0000
0001
0000
0000
0000
0010
0000
0000
0000
1000
0000
0000
0000
0001
0000
0000
0010
0000
0000
0100
0000
0000
1000
0000
0000
0001
0000
0000
0000
0000
0000
0100
0000
0000
0000
0000
0000
,
0010
0100
0001
1000
0200
0000
0000
0000
0301
0000
0100
0010
0000
0010
0000
0010
,
0001
0000
0000
0000
1000
0000
0000
0000
0010
0000
0000
0000
0100
0000
0000
0000
1000
0000
0000
0000
0100
0000
0000
0000
0001
0000
0000
1000
0000
0000
0001
0000
0000
0010
0000
0000
0100
0000
0000
1000
0000
0000
0010
0000
0000
0100
0000
0000
,
0002
0000
0000
0000
0010
0000
0000
0000
0103
0010
1000
0001
0010
0100
1000
0001
,
0200
0000
0000
0000
1300
0000
0100
0001
0010
0100
0000
0010
0100
0000
1000
0001
,
1000
0000
0000
0010
0000
0000
0001
0000
0000
0010
0000
0000
0100
0000
0000
0000
0000
0000
0010
0000
0000
0000
0000
0000
1000
0000
0001
0000
1000
0000
0001
0000
1000
0000
0001
0000
0040
0000
0000
0000
0000
0000
0000
0000
0000
0000
0000
0000
,
0130
0000
1000
0001
0100
0000
0001
1000
0100
0000
0010
0000
0100
0000
1000
0000
,
1010
0000
0110
0010
0101
0000
1001
0000
,
0001
0010
1000
0100
0001
0100
1000
0010
,
0001
0000
1000
0010
0100
0000
0010
0100
0001
0000
0000
0000
0001
0100
0001
0100
,
0010
0000
0000
0000
0010
0000
1000
0100
0010
0000
0000
0000
0010
0000
0001
0100
,
0010
0000
0000
0000
0010
0000
1000
0100
0001
0000
0000
0000
0001
0000
0100
0000
,
0020
0000
0000
0000
0100
0000
0000
0000
0031
0000
1000
0001
1000
0010
0100
0002
,
0010
0000
0010
0000
0010
0000
0013
0000
0100
1000
0100
1000
0040
0000
0000
0000
,
0130
0000
0001
1000
0010
0000
1000
0001
0010
0000
0100
0000
0010
0000
0001
0000
,
0101
0000
0110
0100
1010
0000
1001
0000
,
1000
0100
0001
0010
1000
0010
0001
0100
,
1000
0001
1000
0010
0100
0001
0010
0100
1000
0100
0010
0001
0100
0000
0010
0000
,
2010
0000
0000
0000
3100
0000
0010
0001
0200
0000
0000
0000
1300
0000
0100
0001
,
0020
0000
0000
0000
0130
0000
0010
0001
1000
0000
0010
0000
0001
0000
0010
0000
,
0200
0000
1000
0000
0310
0100
0001
0010
,
0200
0000
0010
0000
,
1300
0001
1000
0000
0001
0100
1000
0100
0002
0000
0000
0000
0000
0000
0000
0000
,
1003
0100
1000
0000
0100
0010
0100
0000
0010
0001
0100
0001
0010
0000
0001
0000
,
0100
0010
1000
0010
0100
0001
0010
0001
0100
0010
1000
0100
0010
0001
1000
0010
,
0200
0000
0000
0000
0310
0100
0000
0001
1000
0001
1000
0100
0001
0100
0010
0001
,
0100
0000
0000
1010
0000
0000
1100
0000
0000
0101
0000
0000
0011
0000
1100
0000
,
1001
0000
0000
0000
0000
0000
0000
0000
0000
0000
0000
0000
0001
0000
0000
0000
0000
0000
0100
0000
0000
0000
0000
0000
0010
0000
0000
0100
0000
0000
0000
0000
0000
0100
0000
0000
1000
0000
0000
0000
0000
0000
0100
0000
0010
0000
0100
0000
,
0010
1000
0001
1000
0100
0010
0001
1000
0001
0010
0100
1000
0001
0100
1000
0100
,
0020
0000
0000
0000
0130
0000
0001
0000
0010
0100
0000
0100
0010
0000
0001
1000
,
0002
0000
0000
0000
0103
0000
0010
1000
0100
0010
0100
1000
0010
0000
0100
0000
,
0001
0010
0000
0000
1100
0000
1000
0010
0000
0000
0101
0001
0000
0000
0000
0000
,
2001
0000
3100
0010
0002
0000
0000
0000
,
0023
0000
0130
1000
0020
0000
0000
0000
,
0230
0302
0023
2030
,
3100
0001
0010
1000
0200
0000
0000
0010
,
0310
0000
0000
0000
0010
0000
1000
0100
0010
0000
0000
0000
0010
0000
0001
0100
,
0010
0000
0000
0000
0010
0000
0001
0010
1000
0000
0000
0000
1001
0000
0001
0000
,
0200
0000
0000
0000
1000
0000
0000
0000
0310
0000
0100
0010
0100
0001
1000
0200
,
0010
0000
0000
0000
0000
0000
0010
0000
0000
0000
0000
0000
0010
0000
0000
0000
0000
0000
0310
0000
0000
0000
0000
0000
0001
0000
0000
1000
0000
0000
0001
0000
0000
1000
0000
0000
0010
0000
0100
0000
0010
0000
0100
0000
0010
0000
0100
0000
,
0002
0000
0000
0000
1003
0100
0010
0001
1000
0000
0100
0000
0010
0000
0001
0000
,
1001
0000
0000
0000
1010
0000
0100
0000
0110
0000
0000
0000
0010
0100
0010
0100
,
0001
0010
1000
0001
0010
1000
0001
0100
,
0010
1000
0100
0010
0001
0100
0010
0001
0010
0100
0001
1000
0100
0000
0010
0000
,
0210
0000
0000
0000
1300
0000
0001
0100
0020
0000
0000
0000
1030
0000
0001
0010
,
2000
0000
0000
0000
3001
0000
0100
1000
0010
0000
0100
0000
0001
0000
0100
0000
,
0020
0000
0000
0000
1000
0000
0000
0000
0031
0000
0010
0000
1000
0000
0100
0010
,
0002
0000
0000
0000
0100
0000
0000
0000
0013
0000
0100
0000
1000
0000
0010
0100
,
1000
0000
0000
0100
0000
0000
0000
0000
0000
0001
0000
0000
0000
0000
0000
0001
0000
0000
0000
0000
0000
0001
0000
0000
1000
0000
0000
0100
0000
0000
0010
0000
0000
0001
0000
0000
1000
0000
0001
0000
1000
0000
0001
0000
1000
0000
0001
0000
,
0100
0000
0000
1010
0000
0000
2100
0000
0000
0000
3010
0001
0010
0100
0001
1000
,
0100
0000
0000
0011
0000
0000
1002
0000
0000
0000
0103
0010
0100
0000
0001
0000
,
1001
0000
0000
0000
0000
0000
0000
0000
0000
1100
0000
0000
0000
0000
0000
0000
0000
0000
0210
0000
0000
0000
0000
0000
0000
0000
0000
0000
0000
0000
0301
0000
0000
0000
0000
0000
0100
0000
0010
0000
0100
0000
0010
0000
0100
0000
0010
0000
,
0001
0000
0000
1010
0000
0000
0021
0000
0000
0000
0130
1000
0001
0100
1000
0100
,
0001
0000
0000
0110
0000
0000
2100
0000
0000
0000
3001
0100
0010
0001
0010
0100
,
0001
0000
0000
1001
0000
0000
1200
0000
0000
0000
0310
0001
0010
0000
0100
0000
,
1000
0000
0000
0001
0000
0000
1000
0000
0000
0001
0000
0000
0000
0000
0000
0100
0000
0000
0010
0000
0000
1000
0000
0000
0100
0000
0000
0010
0000
0000
0001
0000
0000
1000
0000
0000
0010
0000
0100
0000
0010
0000
0100
0000
0010
0000
0100
0000
,
0001
0000
0000
0000
0000
0000
1000
0000
0000
1100
0000
0000
0000
0000
0000
0001
0000
0000
0101
0000
0000
0000
0000
0000
0000
0000
0000
0100
0000
0000
0010
0000
0000
0100
0000
0000
0001
0000
1000
0000
0001
0000
1000
0000
0001
0000
1000
0000
,
0200
0000
0000
0000
,
0000
0000
0000
0000
,
0300
0000
0000
0000
;
