#TITLE:SPACE VILLAGE;
#SUBTITLE:;
#ARTIST:サイバー劇レコ;
#TITLETRANSLIT:;
#SUBTITLETRANSLIT:;
#ARTISTTRANSLIT:CYBER GEKI RECORD;
#GENRE:;
#CREDIT:;
#BANNER:[Week 3] - SPACE VILLAGE-bn.png;
#BACKGROUND:[Week 3] - SPACE VILLAGE-bg.png;
#LYRICSPATH:;
#CDTITLE:;
#MUSIC:[Week 3] - SPACE VILLAGE.mp3;
#OFFSET:0.943000;
#SAMPLESTART:56.586414;
#SAMPLELENGTH:14.999996;
#SELECTABLE:YES;
#BPMS:0.000000=170.000000
;
#STOPS:
;
#BGCHANGES:;
#KEYSOUNDS:;
#ATTACKS:;

//---------------dance-single - ----------------
#NOTES:
     dance-single:
     :
     Hard:
     12:
     0.526006,0.724876,0.082372,0.214168,0.292422,447.000000,437.000000,10.000000,26.000000,0.000000,0.000000,0.526006,0.724876,0.082372,0.214168,0.292422,447.000000,437.000000,10.000000,26.000000,0.000000,0.000000:
0000
0000
0000
0000
,
0000
0000
0000
0000
,
0000
0000
0000
0000
,
0000
0000
0000
0000
,
0000
0000
0000
0000
,
0010
0100
0010
1000
0010
0100
0001
0010
,
0100
0010
0100
1000
0100
0010
0001
0100
,
0010
1000
0100
0010
0001
0100
0010
1000
,
0100
0010
0100
1000
0010
0100
0010
0000
,
2000
0000
0000
3000
,
0002
0000
0000
0000
0000
0000
0003
0100
,
0020
0000
0000
0030
,
0100
0000
0001
0000
1000
0100
0010
0100
,
2000
0000
0000
0000
0000
0000
3000
0010
,
0200
0000
0000
0000
0000
0000
0300
0001
,
0020
0000
0000
0030
0002
0000
0000
0003
,
0100
0000
0010
0000
0100
0001
0010
0001
,
0100
0001
1000
0010
0100
0001
0010
0100
,
1000
0010
0100
0010
1000
0100
0010
0100
,
2000
3000
0020
0030
0100
0010
1000
0001
,
0020
0000
0030
0000
0002
0000
0003
0000
1000
0000
0010
1000
0100
0000
0001
0000
,
0100
0010
0001
0100
0010
0100
0001
0010
,
0100
1000
0010
0100
0001
0100
0010
1000
,
0100
1000
0000
0001
0100
0010
1000
0001
,
0010
0000
0100
0010
0001
0100
0010
0000
,
1000
0000
1000
0010
0000
0010
0100
0010
1000
0001
0000
0001
,
0100
0000
0100
0010
0000
0010
1000
0000
1000
0001
0000
0001
,
0100
0000
0100
0010
0000
0010
0100
0000
0100
0001
0000
0001
,
0010
0000
0010
0200
0000
0000
1300
0000
0010
0100
0000
0001
,
0010
0000
0010
0100
0000
0100
1000
0001
0010
0100
0000
1000
,
0010
0000
0010
0100
0000
0100
0001
0000
0001
0010
0000
0010
,
0200
0000
0000
1300
0000
0010
0100
0000
0100
0001
0000
0001
,
1001
0000
0110
0000
1001
0000
0110
0000
0000
1001
0000
0000
,
1000
0000
0001
1000
0000
0010
1000
0100
1000
0010
0000
0100
,
0010
1000
0100
0001
0100
1000
0010
1000
0100
1000
0010
0100
,
0020
0000
2030
0000
,
3002
0000
0023
0000
,
0130
0000
0100
1000
0000
1000
0010
0000
0010
0100
0000
0100
,
0001
0000
0001
0100
0000
0100
0010
1000
0100
0010
0000
0100
,
2000
0000
0000
3000
,
0002
0000
0000
0003
1000
0000
0100
0010
,
0100
1000
0100
1000
0100
0010
0001
0010
,
0001
0010
0100
1000
0010
0000
0000
0000
,
0100
0000
0001
0010
0100
0000
0001
0000
0100
0000
0010
0000
0001
0000
0010
0000
,
0001
0100
0010
1000
0100
0000
0000
0000
,
0010
0000
0001
0100
0010
0000
1000
0000
0010
0000
0100
0000
0001
0000
0100
0000
,
0001
0010
0100
1000
0010
0000
0000
0000
,
0100
0000
0001
0010
0100
0000
0001
0000
0100
0000
0010
0000
0001
0000
0010
0000
,
0001
0100
0010
1000
0100
0000
0000
0000
,
2000
0000
0000
3010
1000
0000
0100
0000
,
0020
0000
0000
0000
0000
0000
0000
0000
0100
0000
0000
0100
0000
0000
0130
0000
,
1000
0000
0010
0000
0000
0000
1000
0000
0000
0000
0010
0000
0000
0000
0100
0001
,
0100
0010
1000
0100
0010
0100
0010
0001
,
1000
0010
0100
0010
0100
0000
0000
0000
,
0001
1000
0100
0010
0001
1000
0001
0010
,
0001
0000
1000
0000
0100
0000
0010
0000
0100
0000
0000
0000
0000
0000
1000
0010
,
0100
0001
1000
0010
1000
0100
0010
0001
,
0010
0000
0000
0001
0000
0000
0100
0000
0010
0000
0000
0000
0000
0000
0000
0000
,
1000
0001
0100
0010
1000
0000
0100
0000
,
0010
0000
0000
0001
0000
0000
0010
0000
0100
0000
0000
1000
0000
0000
0100
0000
,
0010
0001
0100
0001
0010
0100
1000
0100
,
0010
0001
1000
0001
0100
0010
1000
0010
,
0100
0001
0010
0001
1000
0001
0100
0001
,
0010
0100
1000
0010
0100
0010
1000
0010
,
0100
0000
0001
0000
0010
0000
0100
0010
,
0001
0000
0000
1000
0000
0000
0001
0000
0100
0000
0000
0000
0010
0000
0100
0000
,
0001
0010
0100
1000
0010
0100
0001
1000
,
0100
0010
0001
0100
0010
0100
0001
1000
,
0002
0000
0000
0000
,
0023
0100
0100
0100
,
0230
0000
0000
1300
0001
0000
0100
0000
,
0100
0110
0110
0110
,
1001
0000
0000
0100
0010
0001
0100
0000
0000
0010
0000
0000
,
0110
0000
0000
1000
0001
0010
0100
0000
0000
1000
0000
0000
,
0010
0000
0000
1000
0000
0000
0010
0000
0100
0000
0000
0001
0000
0000
0100
0000
,
0010
0000
0000
0100
0000
0000
0010
0000
1000
0000
0000
0001
0000
0000
0020
0000
,
0200
0000
0000
0000
,
0000
0000
0000
0000
,
0000
0000
0000
0000
,
0000
0000
0000
0000
,
0330
0000
0000
0000
;

//---------------dance-single - ----------------
#NOTES:
     dance-single:
     :
     Medium:
     11:
     0.451871,0.626030,0.049423,0.247117,0.201812,384.000000,378.000000,6.000000,30.000000,0.000000,0.000000,0.451871,0.626030,0.049423,0.247117,0.201812,384.000000,378.000000,6.000000,30.000000,0.000000,0.000000:
// measure 0
0000
0000
0000
0000
,  // measure 1
0000
0000
0000
0000
,  // measure 2
0000
0000
0000
0000
,  // measure 3
0000
0000
0000
0000
,  // measure 4
0000
0000
0000
0000
,  // measure 5
0010
0000
1000
0000
0010
0100
0001
0010
,  // measure 6
0100
0000
1000
0000
0100
0010
0001
0100
,  // measure 7
0010
0100
0010
0100
0001
1000
0001
1000
,  // measure 8
0100
1000
0010
0100
,  // measure 9
0002
0000
0000
0000
,  // measure 10
2003
0000
0000
0000
,  // measure 11
3020
0000
0000
0000
,  // measure 12
0230
0000
0001
0000
1000
0000
0310
1000
,  // measure 13
0200
0000
0000
0000
,  // measure 14
0320
0000
0000
0000
0000
0000
0000
0031
,  // measure 15
0200
0000
0000
0300
0200
0000
0000
0300
,  // measure 16
0010
0000
1000
0000
0001
0100
0010
0000
,  // measure 17
1000
0100
0010
0001
0010
0100
1000
0010
,  // measure 18
0100
0001
0010
0100
1000
0010
0100
0000
,  // measure 19
0001
0010
0100
1000
0010
0100
0001
0010
,  // measure 20
0100
1000
0010
0100
0001
0100
0010
0000
,  // measure 21
1000
0100
1000
0001
0010
0100
0010
0100
,  // measure 22
1000
0010
0100
0001
0010
0100
1000
0000
,  // measure 23
0100
1000
0010
0100
0010
0100
0001
1000
,  // measure 24
0010
1000
0100
0010
0001
0100
0010
0000
,  // measure 25
0010
0000
0010
1000
0000
1000
0010
0000
0010
0100
0000
0100
,  // measure 26
0001
0000
0001
0010
0000
0010
0200
0000
0000
1300
0000
1000
,  // measure 27
0010
0000
0010
0100
0000
0100
0010
0000
0010
1000
0000
1000
,  // measure 28
0001
0000
0001
0100
0000
0100
0002
0000
0000
0013
0000
0010
,  // measure 29
0001
0000
0001
0100
0000
0100
0010
0000
0010
1000
0000
1000
,  // measure 30
0100
0000
0100
0010
0000
0010
0002
0000
0000
0103
0000
0100
,  // measure 31
0020
0000
0000
1030
0000
1000
0002
0000
0000
1003
0000
0100
,  // measure 32
0010
0000
0110
0000
0110
0000
0011
0000
0000
0011
0000
0000
,  // measure 33
0001
0000
0001
0100
0000
0100
0010
1000
0100
1000
0000
1000
,  // measure 34
0010
0000
0010
0100
0000
0100
0010
0000
0010
1000
0000
1000
,  // measure 35
0200
0000
0000
0300
0020
0000
0000
0030
,  // measure 36
0002
0000
0000
0003
0200
0000
0000
0300
,  // measure 37
0010
0000
0010
1000
0000
1000
0100
0000
0100
0010
0000
0010
,  // measure 38
0001
0000
0001
1000
0000
1000
0010
0000
0010
0100
0000
0100
,  // measure 39
0002
0000
0000
0000
,  // measure 40
2003
0000
0000
3000
0010
0000
0100
0010
,  // measure 41
1000
0100
0010
0001
0100
0010
1000
0010
,  // measure 42
0100
0001
0010
0100
0010
0000
0000
0000
,  // measure 43
0001
1000
0010
0100
0010
1000
0001
0100
,  // measure 44
0010
0100
0001
0010
0100
0000
0000
0000
,  // measure 45
1000
0100
0010
0001
0100
0010
1000
0100
,  // measure 46
1000
0010
0100
0010
1000
0000
0000
0000
,  // measure 47
0001
0100
0010
1000
0100
0010
0001
0100
,  // measure 48
0010
1000
0100
0010
0100
0000
0000
0000
,  // measure 49
2000
0000
0000
3010
1000
0000
0100
0000
,  // measure 50
0020
0000
0000
0030
0002
0000
0000
0003
,  // measure 51
0200
0000
0000
0000
0000
0000
0000
0310
,  // measure 52
1000
0100
0100
0010
,  // measure 53
0010
0001
0001
0000
,  // measure 54
0100
0010
0010
1000
,  // measure 55
1000
0000
0001
0000
0001
0000
0000
0100
,  // measure 56
0001
1000
0001
0010
,  // measure 57
0100
0000
0000
0100
0000
0000
0100
0000
1000
0000
0000
0000
0000
0000
0000
0000
,  // measure 58
0020
0000
0030
0100
0010
1000
0100
1000
,  // measure 59
0001
0000
0000
0000
0000
0000
0010
0000
0100
0000
0000
0010
0000
0000
0010
0000
,  // measure 60
0001
1000
0100
0010
0001
0010
0100
1000
,  // measure 61
0001
0100
0010
1000
0010
1000
0001
0100
,  // measure 62
0010
1000
0100
0010
0001
0010
0100
1000
,  // measure 63
0001
1000
0010
0100
0001
0000
0000
0000
,  // measure 64
0010
1000
0100
0010
,  // measure 65
0100
0000
0000
0100
0000
0000
0100
0000
1000
0000
0000
0000
0000
0000
0000
0000
,  // measure 66
0001
0100
0010
1000
0010
0100
0010
1000
,  // measure 67
0001
0100
0010
1000
0010
0100
0001
0010
,  // measure 68
0200
0000
0000
0000
,  // measure 69
0320
0100
0100
0100
,  // measure 70
0230
0000
0000
1300
0001
0000
0100
0000
,  // measure 71
0200
0000
0000
0300
,  // measure 72
0110
0000
0000
0100
0010
0100
0010
0000
0000
1000
0000
0000
,  // measure 73
0110
0000
0000
0100
0010
0100
0010
0000
0000
0001
0000
0000
,  // measure 74
0100
0000
0000
0100
0001
0000
0000
0001
,  // measure 75
0010
0000
0000
0010
0100
0000
0000
0200
,  // measure 76
0020
0000
0000
0000
,  // measure 77
0000
0000
0000
0000
,  // measure 78
0000
0000
0000
0000
,  // measure 79
0000
0000
0000
0000
,  // measure 80
0330
0000
0000
0000
;

//---------------dance-single - ----------------
#NOTES:
     dance-single:
     :
     Easy:
     7:
     0.311838,0.494234,0.074135,0.296540,0.082372,265.000000,256.000000,9.000000,36.000000,0.000000,0.000000,0.311838,0.494234,0.074135,0.296540,0.082372,265.000000,256.000000,9.000000,36.000000,0.000000,0.000000:
0000
0000
0000
0000
,
0000
0000
0000
0000
,
0000
0000
0000
0000
,
0000
0000
0000
0000
,
0000
0000
0000
0000
,
0010
0100
0001
1000
,
0100
1000
0010
1000
,
0010
0100
0001
0010
,
0100
1000
0001
0100
,
0020
0000
0000
0000
,
2030
0000
0000
0000
,
3002
0000
0000
0000
,
0103
0000
0001
0000
1000
0000
0010
0100
,
0002
0000
0000
0000
,
0023
0000
0000
0000
,
0230
0000
0320
0000
,
0130
0000
1000
0000
0010
0100
0010
0000
,
1000
0001
0010
0100
,
1000
0001
0100
0010
,
1000
0010
0100
0001
,
0010
0001
0010
0100
,
1000
0010
0100
0010
,
1000
0001
0100
0010
,
0100
0001
0100
0010
,
1000
0100
1000
0010
,
0100
0000
0000
0100
0000
0001
0010
0000
0000
0100
0000
0100
,
1000
0000
0000
0001
0000
0100
0002
0000
0000
0013
0000
0000
,
0100
0000
0000
1000
0000
0001
1000
0000
0000
0010
0000
0100
,
0010
0000
0000
1000
0000
0010
2000
0000
0000
3001
0000
0000
,
0010
0000
0000
0100
0000
1000
0010
0000
0000
0100
0000
0001
,
0010
0000
0000
0100
0000
0010
0001
0000
0000
0001
0000
0000
,
1000
0000
0000
0010
0000
0100
0010
0000
0000
1000
0000
0100
,
0020
0030
0220
0330
,
0001
0000
1000
0100
0000
0000
0010
0000
0000
0001
0000
0100
,
0010
1000
0001
0100
,
0202
0303
2020
3030
,
2200
3300
0022
0033
,
0100
0000
0100
1000
0000
0000
0001
0000
0000
0100
0000
0010
,
1000
0100
0010
0100
,
0220
0000
0000
0330
,
2002
0000
3000
0000
1003
0000
0100
0010
,
0001
0001
0100
0100
,
0010
0010
1000
0000
,
1000
1000
0100
0100
,
0010
0010
0001
0000
,
0001
0001
1000
1000
,
0100
0100
0010
0000
,
0010
0010
0001
0001
,
1000
1000
0010
0000
,
0100
0000
0000
0100
0001
0000
0010
0000
,
0020
0000
0230
0000
,
0320
0000
0000
0000
0000
0000
0030
0001
,
0100
0010
1000
0100
,
0010
0100
0010
0000
,
0001
0100
0010
1000
,
0100
1000
0001
0000
,
0010
0100
1000
0010
,
0100
0010
0100
0000
,
0001
0010
0100
1000
,
0010
0000
0000
0000
1000
0000
0000
0000
0001
0000
0000
0100
0000
0000
0001
0000
,
0010
0100
1000
0010
,
0010
0100
0001
0010
,
0010
0100
1000
0010
,
0010
0100
0001
0100
,
0010
1000
0100
0010
,
0001
0100
0010
0000
,
1000
0010
0100
0010
,
0100
0001
0010
0100
,
2000
0000
0000
0000
,
3020
0000
0000
0000
,
0230
0000
0000
0000
,
0302
0100
0100
0103
,
0110
0000
0000
0100
0010
1000
0100
0000
0000
0010
0000
0000
,
0110
0000
0000
0010
0100
1000
0010
0000
0000
0100
0000
0000
,
0002
0000
2003
0000
,
3020
0000
2030
0000
,
3200
0000
0000
0000
,
0000
0000
0000
0000
,
0000
0000
0000
0000
,
0000
0000
0000
0000
,
0300
0000
0000
0000
;
