#TITLE:Perfect Love;
#SUBTITLE:;
#ARTIST:이달의 소녀;
#TITLETRANSLIT:;
#SUBTITLETRANSLIT:;
#ARTISTTRANSLIT:LOOΠΔ;
#GENRE:;
#CREDIT:;
#BANNER:[Week 3] - Perfect Love.png;
#BACKGROUND:[Week 3] - Perfect Love-bg.png;
#LYRICSPATH:;
#CDTITLE:[Week 3] - Perfect Love-cdtitle.png;
#MUSIC:[Week 3] - Perfect Love.ogg;
#OFFSET:1.473000;
#SAMPLESTART:57.603001;
#SAMPLELENGTH:15.000000;
#LASTBEATHINT:1.048483;
#SELECTABLE:YES;
#DISPLAYBPM:133.000000;
#BPMS:0.000000=133.000000
;
#STOPS:
;
#BGCHANGES:;
#KEYSOUNDS:;
#ATTACKS:;

//---------------dance-single - ----------------
#NOTES:
     dance-single:
     :
     Hard:
     11:
     0.436374,0.517382,0.047878,0.421327,0.081393,319.000000,314.000000,5.000000,44.000000,0.000000,0.000000,0.436374,0.517382,0.047878,0.421327,0.081393,319.000000,314.000000,5.000000,44.000000,0.000000,0.000000:
// measure 0
0000
0000
0000
0000
,  // measure 1
0000
0000
0000
0000
,  // measure 2
0000
0000
0000
0000
,  // measure 3
0000
0000
0000
0000
,  // measure 4
0000
0000
0000
0000
,  // measure 5
0002
0000
0000
0000
0000
0000
0000
0000
0100
0000
0000
0100
0000
0000
0203
0000
,  // measure 6
0000
0010
0320
1000
,  // measure 7
2030
0000
0000
0000
0000
0000
0000
0000
3100
0000
0000
0100
0000
0000
0100
0000
,  // measure 8
0010
0001
0010
0000
0100
1000
0100
0000
0010
0000
0001
0000
0001
0000
1000
0000
,  // measure 9
1010
0010
0100
0001
0002
0000
0103
0000
,  // measure 10
0010
0000
1000
0001
1000
0000
0100
0000
0010
0000
0001
0000
0100
0000
0010
0000
,  // measure 11
2000
0000
3200
0000
0310
0100
1000
0010
,  // measure 12
0100
0000
0001
0000
0010
0000
0000
0000
0100
0000
0000
0100
0010
0000
0001
0000
,  // measure 13
1000
0000
0000
0100
0000
0000
1000
0000
0200
0000
0000
0000
0310
0000
0000
0000
,  // measure 14
0100
0000
0000
1000
0000
0000
0001
0000
0100
0000
0010
0000
1000
0000
0001
0000
,  // measure 15
0020
0000
0032
0000
0103
0010
1000
0001
,  // measure 16
0010
0000
0100
0000
0100
0000
0000
0000
0010
0000
0000
0001
0100
0000
0010
0000
,  // measure 17
1000
0100
0001
0100
1000
0010
1000
0100
,  // measure 18
0010
0001
1000
0010
0200
0001
0301
0000
,  // measure 19
0001
0100
1000
0100
0001
0010
0001
0100
,  // measure 20
0010
1000
0100
0010
0200
1000
1300
0000
,  // measure 21
0001
0100
1000
0001
0010
1000
0100
0010
,  // measure 22
0100
0000
1000
0000
0010
0000
0001
0000
0010
0000
1000
0000
0001
0000
0000
0001
,  // measure 23
0000
1000
0100
0000
0010
0001
1001
0000
,  // measure 24
0001
0000
0100
0000
0010
0000
0000
0000
0010
0000
0000
0010
1000
0000
0100
0000
,  // measure 25
2000
3100
0002
0103
,  // measure 26
2000
3010
0002
0013
,  // measure 27
1000
0100
0010
0001
0100
0010
0000
0100
,  // measure 28
0000
0000
0001
0000
0010
0000
0100
0000
1000
0000
0000
1000
0100
0000
0010
0000
,  // measure 29
0002
0013
2000
3010
,  // measure 30
0002
0103
2000
3100
,  // measure 31
0001
0100
0010
1000
0010
0000
0100
0000
,  // measure 32
0002
0000
0000
0000
2003
0000
3001
0010
,  // measure 33
0100
0100
1000
0000
0001
1000
1001
0001
,  // measure 34
0100
1000
0100
0001
0020
0000
0130
1000
,  // measure 35
0001
0000
0100
0010
1000
0001
0001
0010
,  // measure 36
1000
0000
0100
0000
0001
0000
0100
0000
0010
0000
0000
0010
1000
0000
0100
0000
,  // measure 37
0010
0001
1000
0000
1000
0001
1001
1000
,  // measure 38
0100
0001
0100
1000
0020
0000
0130
0001
,  // measure 39
1000
0000
0100
0010
0001
1000
1000
0010
,  // measure 40
0001
0000
0100
0000
1000
0000
0010
0000
0100
0000
0000
0100
0001
0000
0010
0000
,  // measure 41
0002
0103
2000
3100
,  // measure 42
0002
0203
0320
2030
,  // measure 43
3200
0000
0302
0000
0203
0000
1300
0010
,  // measure 44
0200
0000
0000
0000
0301
0000
0010
0100
0010
0000
0100
0000
1000
0000
0010
0000
,  // measure 45
2000
3010
0002
0013
,  // measure 46
2000
3200
0320
0032
,  // measure 47
0203
0000
2300
0000
3200
0000
0301
0010
,  // measure 48
0200
0000
0000
0000
1300
0000
0100
0010
0100
0000
0010
0000
0001
0000
1000
0000
,  // measure 49
0000
1001
1000
0001
,  // measure 50
0010
0000
0100
0000
1000
0001
0001
0000
,  // measure 51
0001
1000
1000
0000
0010
0000
0100
0000
,  // measure 52
0001
0000
1000
0000
0100
0000
0000
0000
0010
0000
0000
0010
0000
0000
0001
0000
,  // measure 53
0100
0010
0010
0000
0010
0000
1000
0000
,  // measure 54
0100
0000
0010
0000
0001
1000
1000
0000
,  // measure 55
1000
0001
0001
0000
0010
0000
0100
0000
,  // measure 56
1000
0100
0010
0001
0100
0100
0010
0010
;

//---------------dance-single - ----------------
#NOTES:
     dance-single:
     :
     Medium:
     9:
     0.320099,0.353220,0.019151,0.478780,0.019151,234.000000,232.000000,2.000000,50.000000,0.000000,0.000000,0.320099,0.353220,0.019151,0.478780,0.019151,234.000000,232.000000,2.000000,50.000000,0.000000,0.000000:
0000
0000
0000
0000
,
0000
0000
0000
0000
,
0000
0000
0000
0000
,
0000
0000
0000
0000
,
0000
0000
0000
0000
,
2000
0000
0000
0000
,
3000
0000
0002
0000
,
0203
0000
0000
0000
,
0310
0000
1000
0000
0001
1000
0001
0000
,
1001
0000
1000
0100
2000
0000
3100
0000
,
0010
0001
0010
0000
0001
1000
0001
0000
,
0100
0000
0010
0000
1000
0010
1000
0000
,
0010
0000
0010
0000
0100
0000
0000
0000
0100
0000
0000
0100
0000
0000
0100
0000
,
0001
0000
0010
0001
0020
0000
0130
0000
,
1000
0000
0000
0100
0000
0000
0010
0000
0001
0000
0000
0000
1000
0000
0001
0000
,
1000
0000
0001
0000
0100
0001
0100
0000
,
0100
0000
0010
0000
0010
0000
0000
0000
0010
0000
0000
0010
0000
0000
0010
0000
,
1000
0010
1000
0010
0000
1000
0000
0000
,
0100
0010
0100
0010
0000
0010
0020
0000
,
0031
0100
0001
0100
0000
0001
0000
0100
,
0010
0100
0010
0200
0000
0310
0020
0000
,
1030
0100
1000
0100
0000
0010
0000
0001
,
0010
0000
0001
0000
0010
0000
0002
0000
0000
0000
0003
0000
1000
0000
0000
1000
,
0000
0000
0001
0000
1000
0001
1000
0000
,
0100
0010
0001
0000
0100
0010
1000
0000
,
0002
0000
0023
0000
,
0230
0000
2300
0000
,
3010
1000
0010
0000
0100
0001
0100
0000
,
0001
0010
0001
0000
1000
0100
1000
0000
,
0200
0000
0320
0000
,
0032
0000
2003
0000
,
3010
0100
0010
0000
1000
0001
1000
0000
,
0200
0000
0000
0310
,
0001
0001
0001
0000
1000
0000
0010
0000
,
0200
0000
0302
0000
0023
0000
0130
0100
,
0100
0000
1000
0000
0001
0100
0001
0000
,
1000
0100
0010
0001
1000
0000
0001
0000
,
1000
1000
1000
0000
0100
0000
0010
0000
,
0200
0000
2300
0000
3020
0000
0130
0100
,
0100
0000
0001
0000
1000
0100
1000
0000
,
0001
0100
0010
1000
0001
0000
0010
0000
,
0200
2300
3200
0320
,
0032
0023
0230
2300
,
3200
0000
0320
0000
0032
0000
0013
0100
,
0020
0000
0000
0000
0031
0001
0001
0000
,
0200
0320
2030
3020
,
0230
0302
0203
0320
,
2030
0000
3020
0000
0230
0000
0301
1000
,
0002
0000
0000
0000
1003
1000
1000
0000
,
0000
0001
0100
0010
,
1000
0100
0010
0001
,
0010
0100
1000
0001
,
1000
0001
1000
0000
0010
0000
0010
0000
,
0100
0001
0100
0010
,
1000
0100
0010
0001
,
0010
0100
1000
0010
,
0100
0001
2002
3003
;

//---------------dance-single - ----------------
#NOTES:
     dance-single:
     :
     Easy:
     4:
     0.180569,0.244537,0.038302,0.239390,0.000000,132.000000,128.000000,4.000000,25.000000,0.000000,0.000000,0.180569,0.244537,0.038302,0.239390,0.000000,132.000000,128.000000,4.000000,25.000000,0.000000,0.000000:
0000
0000
0000
0000
,
0000
0000
0000
0000
,
0000
0000
0000
0000
,
0000
0000
0000
0000
,
0000
0000
0000
0000
,
1000
0000
0000
0000
,
0100
0000
0010
0000
,
0001
0000
0000
0000
,
1000
1000
1000
0000
,
0010
0010
0100
0000
,
0001
0010
0100
1000
,
0100
0100
0000
0010
,
0001
1000
0010
0010
,
0100
0100
0010
0000
,
1000
0100
0010
0001
,
0010
0010
0000
0100
,
1000
0001
0100
0100
,
0010
1000
0010
1000
,
0100
1000
0200
0300
,
0010
0001
0010
0001
,
0100
0001
0200
0300
,
0010
1000
0200
0300
,
0010
0001
0200
0300
,
1001
0000
0000
0000
,
0110
0000
1001
0000
,
2000
0000
0000
0000
,
3002
0000
0000
0000
,
0103
0000
0100
0000
,
0010
0000
0010
0000
,
0200
0000
0000
0000
,
0320
0000
0000
0000
,
1030
0000
0001
0000
,
2002
0000
0000
3003
,
1000
1000
0000
0000
,
0001
0010
0100
1000
,
0001
0001
0000
0000
,
0100
0010
1000
0001
,
0010
0010
0000
0000
,
1000
0100
0010
0001
,
0100
0100
0000
0000
,
0010
1000
0010
0100
,
0002
0000
0023
0000
,
0230
0000
2300
0000
,
3200
0000
0320
0000
,
0032
0000
1003
1000
,
0002
0000
0203
0000
,
0320
0000
2030
0000
,
3020
0000
0230
0000
,
0302
0000
1003
1000
,
0000
0001
0000
0001
,
0000
1000
0000
1000
,
0000
0010
0000
0010
,
0000
0100
0100
0100
,
0100
0000
0010
0000
,
1000
0000
0001
0000
,
0010
0000
0100
0000
,
1000
0000
0002
0003
;

//---------------dance-single - ----------------
#NOTES:
     dance-single:
     :
     Beginner:
     2:
     0.108068,0.161588,0.019151,0.057454,0.000000,79.000000,77.000000,2.000000,6.000000,0.000000,0.000000,0.108068,0.161588,0.019151,0.057454,0.000000,79.000000,77.000000,2.000000,6.000000,0.000000,0.000000:
0000
0000
0000
0000
,
0000
0000
0000
0000
,
0000
0000
0000
0000
,
0000
0000
0000
0000
,
0000
0000
0000
0000
,
0000
0000
0000
0000
,
0000
0000
0000
0000
,
0000
0000
0000
0000
,
0000
0000
0000
0000
,
0010
0000
0000
0000
,
0010
0000
1000
0000
,
0001
0000
0000
0000
,
1000
0000
0001
0000
,
0100
0000
0000
0000
,
0010
0000
0100
0000
,
0001
0000
0000
0000
,
1000
0000
0100
0000
,
0010
0010
0000
0000
,
0001
0000
0001
0000
,
1000
0000
0000
0000
,
1000
0000
0001
0000
,
0100
0100
0000
0000
,
0010
0000
1000
0000
,
1001
0000
0000
0000
,
1000
0000
0001
0000
,
2000
0000
0000
0000
,
3000
0000
0000
0000
,
0002
0000
0000
0000
,
0003
0000
0000
0000
,
0020
0000
0030
0000
,
0200
0000
0300
0000
,
1000
0000
0001
0000
,
2002
0000
3003
0000
,
0001
0001
0000
0000
,
1000
0000
1000
0000
,
0010
0010
0000
0000
,
0100
0000
0100
0000
,
1000
1000
0000
0000
,
0001
0000
0001
0000
,
0100
0100
0000
0000
,
0010
0000
0010
0000
,
1000
0000
1000
0000
,
0100
0000
0100
0000
,
0010
0000
0010
0000
,
0001
0000
0001
0000
,
1000
0000
0001
0000
,
1000
0000
0001
0000
,
0100
0000
0010
0000
,
0100
0000
0010
0000
,
0000
1000
0000
1000
,
0000
1000
0000
0000
,
0000
0001
0000
0001
,
0000
0001
0000
0000
,
0000
0100
0000
0100
,
0000
0100
0000
0000
,
0000
0010
0000
0010
,
0000
0010
0000
0000
;
