#TITLE:Paralyzer;
#SUBTITLE:;
#ARTIST:Oblongar;
#TITLETRANSLIT:;
#SUBTITLETRANSLIT:;
#ARTISTTRANSLIT:;
#GENRE:;
#CREDIT:;
#BANNER:Paralyzer.png;
#BACKGROUND:Paralyzer-bg.png;
#LYRICSPATH:;
#CDTITLE:;
#MUSIC:Paralyzer.ogg;
#OFFSET:-0.461000;
#SAMPLESTART:58.695015;
#SAMPLELENGTH:15.000000;
#SELECTABLE:YES;
#BPMS:0.000000=140.000000
;
#STOPS:
;
#BGCHANGES:;
#KEYSOUNDS:;
#ATTACKS:;

//---------------dance-single - ----------------
#NOTES:
     dance-single:
     :
     Hard:
     14:
     0.708232,0.709290,0.137951,0.258659,0.918238,529.000000,16.000000,30.000000,0.000000,0.000000,0.000000,0.708232,0.709290,0.137951,0.258659,0.918238,529.000000,16.000000,30.000000,0.000000,0.000000,0.000000:
0000
0000
0000
0000
,
0000
0000
0000
0000
,
0000
0000
0000
0000
,
0000
0000
0000
0000
,
2000
0100
0001
0010
,
3200
0010
1000
0001
,
0320
0001
1000
0100
,
0032
1000
0010
0100
,
1003
1100
1001
1100
,
0001
0101
1001
0101
,
1000
1010
0110
1010
,
0001
0011
1001
0110
,
0001
0010
0001
1000
0100
0010
0001
1000
,
0010
1000
0010
0100
0001
1000
0010
0100
,
0001
0010
0001
1000
0001
0100
0010
0100
,
0001
1000
0001
1000
0001
0010
0100
1000
0100
0000
0100
0000
0200
0000
0310
0000
,
0001
1000
0000
0000
1000
0100
0000
0000
0100
0010
0000
0000
0010
0100
0000
0000
,
0100
1000
0000
0000
1000
0001
0000
0000
0001
0100
0000
0000
0100
0010
0000
0000
,
0010
1000
0000
0000
1000
0001
0000
0000
0001
0010
0000
0000
0010
0001
0000
0000
,
0001
1000
0000
0000
1000
0100
0000
0000
0100
0010
0100
0000
1000
0000
0001
0000
,
1000
0001
0000
0000
0001
0100
0000
0000
0100
0010
0000
0000
0010
0100
0000
0000
,
0100
0002
0000
0003
0100
0010
0100
0000
0001
1000
0000
0000
1000
0100
0000
0000
,
0100
2000
0000
3000
0100
0010
0100
0000
1000
0001
0000
0000
0001
0100
0000
0000
,
0100
0000
0010
0000
1000
0000
0010
0000
0100
0001
0000
1000
0000
0100
1000
0000
,
0001
0010
0000
0000
0100
0010
0000
0000
0001
0010
0001
0000
1000
0100
1000
0000
,
0001
0100
0000
0000
0010
0100
0000
0000
0001
0100
0001
0000
1000
0010
1000
0000
,
0001
1000
0000
0000
0100
0000
1000
0000
1000
0001
0000
0000
0100
0000
0001
0000
,
0010
0001
0000
0000
0100
0000
0010
0000
0010
1000
0000
0000
0010
0000
0100
0000
,
0001
0001
0100
0010
1000
1000
0100
0010
,
0002
0000
0103
0010
2000
0000
3100
0010
,
0001
0010
0001
1000
0010
1000
0001
0010
,
0100
0000
0000
0000
0110
0000
0010
0000
0001
1000
0001
1000
0020
0000
0000
0000
,
2030
0000
3000
0000
2000
0000
3001
0000
0200
0000
0300
0000
0100
0001
0100
0001
,
1000
0000
0000
0000
0000
0000
0001
0000
0000
0000
0000
0000
1000
0000
0000
0100
0000
0000
1000
0000
0000
0000
0000
0000
1000
0000
0000
0000
0100
0000
0000
0000
0010
0000
0000
0000
0002
0000
0000
0000
0000
0000
0000
0000
0000
0000
0000
0000
,
1003
0001
0010
0100
0000
0100
1000
0000
1000
0001
0100
0010
,
0100
0000
0000
0000
0001
0000
0000
0000
0010
0000
0000
0000
0100
0000
0000
0000
0000
0000
0000
0000
0100
0000
0000
0000
1000
0000
0000
0001
0000
0000
0000
0000
0000
0010
0000
0000
0000
0000
0000
0010
0000
0000
0100
0000
0000
0000
0000
0000
,
1000
0001
1000
0010
0000
0010
0100
0000
0100
0001
1000
0001
,
0100
0000
0001
0000
1000
0000
0001
0000
0010
0001
0010
0000
0100
1000
0100
1000
,
0001
0001
2000
0000
0010
0000
3100
0000
,
1000
1000
0002
0000
0010
0000
0103
0000
,
0001
1000
1100
0000
0011
0000
1001
0000
,
1000
0000
0000
0000
0100
0000
0000
0000
0010
0000
0000
0000
0001
0000
0000
0000
0010
0000
0000
0000
0100
0000
0000
0000
1000
0000
0000
0001
0000
0000
1000
0000
0000
0001
0000
0000
0020
0000
0000
0000
0000
0000
0000
0000
0000
0000
0000
0000
,
0031
1000
0010
1000
0000
1000
0001
0000
0001
0100
0010
0100
,
0001
1000
0010
1000
0001
0010
0100
0000
0100
0020
0000
0000
,
0031
0010
0100
0010
0000
0100
1000
0000
0001
1000
0000
1000
,
0100
1000
0001
0010
0000
0000
0001
0100
0010
2000
0000
0000
,
3001
1000
0010
0100
0001
0100
0010
0000
0010
1000
0100
1000
,
0001
0010
0100
1000
0100
0010
0001
1000
0100
1000
0001
0100
,
0001
0001
0100
1000
1000
0100
0001
0001
0001
1000
1000
1000
,
0100
0010
0100
0010
0100
0010
0001
1000
0100
0020
0000
0000
,
0031
0000
1000
0100
0000
1000
0001
0010
0100
1000
0000
1000
,
0010
0000
0000
1000
0000
0000
0010
0000
0000
1000
0000
0000
0001
0000
0000
0100
0000
0000
0000
0000
0000
0100
0000
0000
0001
0000
0000
0000
1000
0000
0000
0000
0001
0000
0000
0000
0020
0000
0000
0000
0000
0000
0000
0000
0000
0000
0000
0000
,
0031
1000
0010
1000
0001
0100
0001
0010
0100
2000
0000
0000
,
3100
0100
0010
0001
0000
1000
0010
0010
0100
0002
0000
0000
,
1003
0010
0100
0010
1000
0001
1000
0001
0010
0100
0010
0001
,
1000
0000
1000
0001
0010
0000
0010
0000
0001
0000
0001
1000
0010
0000
0100
0000
,
0001
0100
0001
0100
0010
0100
0010
1000
0010
0200
0300
0000
,
0001
0010
0001
0010
0100
0010
0100
1000
0100
0020
0030
0000
,
0010
0001
0000
0000
0001
0100
0000
0000
0100
1000
0000
0000
1000
0010
0000
0000
,
1000
0001
0100
0010
1000
0001
0010
0100
1000
0002
0000
0000
,
1003
0100
0000
0000
0100
0001
0000
0000
0001
0010
0000
0000
0010
2000
0000
0000
,
3001
0000
0000
0000
1000
0000
0000
0000
0100
0000
0000
0000
0010
0000
0000
0000
0001
0000
0000
0000
1000
0000
0000
0000
0010
0000
0000
0000
0000
0000
0010
0000
0000
0100
0000
0000
0001
0000
0000
0000
0000
0000
1000
0000
0000
0000
0000
0000
,
0001
0100
0001
0010
0002
0003
1000
0100
1000
0010
1000
0010
,
0100
0001
1000
0001
1000
0100
0010
0000
0010
0200
0000
0000
,
1300
0000
1000
0100
0010
0000
0010
0000
0001
1000
0001
1000
0010
0000
0100
0000
,
0001
0100
0001
0100
0010
1000
0010
1000
0001
1000
0001
0010
0200
0300
0000
0000
;

//---------------dance-single - ----------------
#NOTES:
     dance-single:
     :
     Medium:
     10:
     0.461890,0.425170,0.293146,0.301768,0.202616,306.000000,34.000000,35.000000,0.000000,0.000000,0.000000,0.461890,0.425170,0.293146,0.301768,0.202616,306.000000,34.000000,35.000000,0.000000,0.000000,0.000000:
// measure 0
0000
0000
0000
0000
,  // measure 1
0000
0000
0000
0000
,  // measure 2
0000
0000
0000
0000
,  // measure 3
0000
0000
0000
0000
,  // measure 4
2000
0100
0000
0100
,  // measure 5
3002
0010
0000
0010
,  // measure 6
2003
0010
0000
0010
,  // measure 7
3002
0100
0000
0100
,  // measure 8
1003
1000
0100
0100
,  // measure 9
1000
0100
0011
0011
,  // measure 10
0001
0001
0100
0100
,  // measure 11
0001
0100
1010
0102
,  // measure 12
1003
0010
0001
0100
,  // measure 13
1000
0100
0001
0010
,  // measure 14
1000
1001
0110
1001
,  // measure 15
0001
0100
0001
1000
0020
0000
0000
0130
,  // measure 16
0001
0000
0000
0001
1000
0000
0000
0000
0010
0000
0000
0000
0101
0000
0000
0000
,  // measure 17
1001
1100
0110
0011
,  // measure 18
1000
0000
0000
1000
0001
0000
0000
0000
0010
0000
0000
0000
1100
0000
0000
0000
,  // measure 19
0110
0011
1001
0201
,  // measure 20
0310
0000
0000
0010
0100
0000
0000
0000
0001
0000
0000
0001
0100
0000
0000
0000
,  // measure 21
0010
0000
0000
0010
1000
0000
0000
0000
0001
0000
1000
0000
0001
0000
0000
0000
,  // measure 22
1000
0000
0000
1000
0100
0000
0000
0000
0010
0000
0100
0000
0010
0000
0000
0000
,  // measure 23
0100
1000
0100
0000
0010
0001
0010
0000
,  // measure 24
0001
1000
2100
3100
,  // measure 25
1000
0010
0102
0103
,  // measure 26
0001
0010
1200
0310
,  // measure 27
1000
0010
0201
0310
,  // measure 28
0001
0000
0100
0001
1000
0000
0100
1000
,  // measure 29
0001
0000
0001
1000
0010
0000
1000
0001
,  // measure 30
0020
0230
0320
0230
,  // measure 31
2300
3002
0203
0310
,  // measure 32
0010
0000
1000
0001
0100
0000
0100
0000
,  // measure 33
0001
0100
0001
0000
1000
0200
0300
0000
,  // measure 34
1000
0000
0001
1000
0000
0000
0010
0000
0000
1000
0000
0000
,  // measure 35
0001
0000
0000
0000
1000
0000
0001
0000
0000
0000
0000
0000
0010
0000
0000
0100
0000
0000
0010
0000
0000
0000
0000
0000
,  // measure 36
0001
0000
1000
0001
0000
0000
0010
0000
0000
0001
0000
0000
,  // measure 37
1000
0000
0100
0000
0001
0100
0001
0000
,  // measure 38
1000
1000
0010
0000
0010
0000
0010
0000
,  // measure 39
0100
0001
0010
0000
0010
0000
0010
0000
,  // measure 40
0100
0100
1000
0000
0001
0000
1001
0000
,  // measure 41
1000
0010
0100
0000
0001
0100
0020
0000
,  // measure 42
1030
0000
1000
0001
0000
0001
1000
0000
0000
0100
0000
0000
,  // measure 43
1000
0000
1000
0010
0000
0010
0100
0000
0100
0000
0000
0000
,  // measure 44
0001
0000
0001
1000
0000
1000
0001
0000
0000
0100
0000
0000
,  // measure 45
0001
0000
0001
0010
0000
0010
0100
0000
0100
0000
0000
0000
,  // measure 46
1000
0000
1000
0010
0000
0000
1000
0000
1000
0001
0000
0000
,  // measure 47
1000
1100
2002
3003
,  // measure 48
0001
0000
1000
0000
0100
0000
1000
0000
0001
0000
0100
0000
,  // measure 49
0010
0010
0220
0330
,  // measure 50
0001
0000
0001
0000
0100
0010
1000
0000
1000
0000
0100
0010
,  // measure 51
0001
0021
0230
1300
,  // measure 52
1000
0000
1000
0010
0000
0010
0200
0000
0000
0301
0000
1000
,  // measure 53
0001
0201
0320
1030
,  // measure 54
0100
0000
1000
0100
0000
0000
0010
0000
0001
0010
0000
0000
,  // measure 55
0001
0010
0100
0000
1000
0010
0100
0000
,  // measure 56
0020
2030
3002
1003
,  // measure 57
0200
2300
3002
0013
,  // measure 58
1000
0000
1000
0100
0000
0000
0010
0000
0010
0100
0000
0000
,  // measure 59
1000
0000
1000
0001
0000
0001
0010
0000
0000
1001
0000
0000
,  // measure 60
0001
0000
0001
0100
0000
0000
0010
0000
0010
0100
0000
0000
,  // measure 61
0001
0000
1000
0001
0000
0000
0110
0000
0000
0110
0000
0000
,  // measure 62
1000
0000
0100
0010
0000
0000
0100
0000
0010
0001
0000
0000
,  // measure 63
0010
0000
0001
1000
0000
0000
0001
0000
1000
0010
0000
0000
,  // measure 64
1000
0101
0011
1100
,  // measure 65
0100
0010
0100
1000
0001
0000
0110
0000
;

//---------------dance-single - ----------------
#NOTES:
     dance-single:
     :
     Easy:
     6:
     0.301768,0.283447,0.008622,0.310390,0.000000,208.000000,1.000000,36.000000,0.000000,0.000000,0.000000,0.301768,0.283447,0.008622,0.310390,0.000000,208.000000,1.000000,36.000000,0.000000,0.000000,0.000000:
0000
0000
0000
0000
,
0000
0000
0000
0000
,
0000
0000
0000
0000
,
0000
0000
0000
0000
,
1000
1000
0100
0000
,
0001
0001
0100
0000
,
1000
0010
1000
0000
,
0001
0010
0001
0000
,
1000
0010
0100
0100
,
0001
0010
0200
0300
,
1000
0100
0010
0010
,
0001
0100
0020
0030
,
1000
1000
0001
0001
,
0100
0100
0010
0010
,
1000
0001
1000
0001
,
0020
0000
0000
0030
,
0001
1000
0100
1000
,
0001
1000
0010
0010
,
1000
0001
0010
0001
,
1000
0001
0100
0100
,
0010
1000
0010
0100
,
0010
1000
0001
0001
,
0010
0001
0010
0100
,
0010
0001
2000
3000
,
0001
0001
1000
1000
,
0010
0010
0100
0010
,
1000
1000
0001
0001
,
0010
0100
0100
0010
,
0002
0003
2000
3000
,
0200
0300
0020
0030
,
0002
0003
2000
3000
,
0001
0001
0001
0000
,
1000
1000
0100
0100
,
1000
0002
2000
3003
,
0001
0100
0010
0010
,
0100
0001
2000
3000
,
1000
0100
0010
0010
,
0100
1000
0002
0003
,
1000
0100
0200
0300
,
0001
0100
0200
0300
,
1000
0010
0020
0030
,
1000
0001
2000
3200
,
0310
0100
1000
1000
,
0001
1000
0020
0030
,
0010
0100
0001
0001
,
1000
0001
0020
0030
,
0001
1000
0200
0300
,
1000
0001
0020
0030
,
0001
1000
0010
0100
,
0010
1000
0100
0200
,
0300
1000
0000
1000
,
0200
0300
0200
0300
,
1000
0001
0200
0300
,
0001
1000
0020
0030
,
1000
1000
0001
0001
,
0010
0100
0010
0100
,
1000
0002
0200
0303
,
0010
2000
0200
3300
,
1000
0001
0010
0100
,
1000
0100
0020
0030
,
0001
1000
0010
0100
,
0001
0100
0020
0030
,
1000
1000
0001
0001
,
0010
0001
0200
0300
,
0010
1000
0001
0010
,
0200
0000
0300
1001
;

//---------------dance-single - ----------------
#NOTES:
     dance-single:
     :
     Beginner:
     2:
     0.102232,0.141723,0.017244,0.008622,0.000000,80.000000,2.000000,1.000000,0.000000,0.000000,0.000000,0.102232,0.141723,0.017244,0.008622,0.000000,80.000000,2.000000,1.000000,0.000000,0.000000,0.000000:
0000
0000
0000
0000
,
0000
0000
0000
0000
,
0000
0000
0000
0000
,
0000
0000
0000
0000
,
1000
0000
0000
0000
,
0001
0000
0000
0000
,
0001
0000
0000
0000
,
1000
0000
0000
0000
,
0001
0000
0000
0000
,
0100
0000
0000
0000
,
0010
0000
0000
0000
,
1000
0000
0000
0000
,
0001
0000
0001
0000
,
1000
0000
1000
0000
,
0001
0000
1000
0000
,
0200
0000
0000
0300
,
1000
0000
0000
0000
,
0001
0000
0000
0000
,
1000
0000
0000
0000
,
0010
0000
0000
0000
,
1000
0000
0000
0000
,
0100
0000
0000
0000
,
1000
0000
0000
0000
,
0001
0000
0000
0000
,
0001
0000
0000
0000
,
1000
0000
0000
0000
,
0001
0000
0000
0000
,
0010
0000
0000
0000
,
0001
0000
0000
0000
,
0100
0000
0000
0000
,
0001
0000
0000
0000
,
1000
0000
0000
0000
,
1001
0000
0000
0000
,
0000
0000
0000
0000
,
1000
0000
1000
0000
,
1000
0000
0000
0000
,
0001
0000
0001
0000
,
0001
0000
0000
0000
,
0100
0000
0000
0000
,
0100
0000
0000
0000
,
0010
0000
0000
0000
,
0010
0000
0000
0000
,
0001
0000
0001
0000
,
0001
0000
0000
0000
,
1000
0000
1000
0000
,
1000
0000
0000
0000
,
0001
0000
0001
0000
,
0100
0000
0000
0000
,
1000
0000
1000
0000
,
0100
0000
0000
0000
,
1000
0000
0001
0000
,
1000
0000
0000
0000
,
0100
0000
0010
0000
,
0100
0000
0000
0000
,
1000
0000
0001
0000
,
1000
0000
0000
0000
,
0010
0000
0100
0000
,
0010
0000
0000
0000
,
1000
0000
0001
0000
,
0100
0000
0000
0000
,
0001
0000
0010
0000
,
0100
0000
0000
0000
,
1000
0000
0010
0000
,
0001
0000
0010
0000
,
1000
0000
1000
0000
,
0001
0000
0000
1001
;
