#TITLE:My Chica;
#SUBTITLE:(Power Mix);
#ARTIST:Santa Claus & D. Jingle Bells;
#TITLETRANSLIT:;
#SUBTITLETRANSLIT:;
#ARTISTTRANSLIT:;
#CREDIT:;
#BANNER:My Chica (Power Mix).png;
#BACKGROUND:My Chica (Power Mix)-bg.png;
#LYRICSPATH:;
#CDTITLE:;
#MUSIC:My Chica (Power Mix).ogg;
#OFFSET:-0.061;
#SAMPLESTART:68.841;
#SAMPLELENGTH:12.000;
#SELECTABLE:YES;
#BPMS:0.000=139.500,123.000=139.435;
#STOPS:;
#BGCHANGES:;

//---------------dance-single - ----------------
#NOTES:
     dance-single:
     :
     Hard:
     13:
     0.648,0.736,0.340,0.094,0.519: // measure 1
0000
0000
0000
0000
,  // measure 2
0000
0000
0000
0000
,  // measure 3
0000
0000
0000
0000
,  // measure 4
0000
0000
0000
0000
,  // measure 5
0000
0000
0000
0000
,  // measure 6
0000
0000
0000
0000
,  // measure 7
0000
0000
0000
0000
,  // measure 8
0000
0000
0000
0000
0000
0000
0000
0000
1000
0001
1000
0001
1000
0001
1000
0001
,  // measure 9
1000
0000
0100
0010
0000
0001
0010
0000
0100
0000
1000
0001
0000
0001
0010
0000
,  // measure 10
0100
0000
1000
0100
0000
0100
0010
0000
0001
1000
0001
1000
0100
1000
0001
1000
,  // measure 11
0001
0000
1000
0100
0000
1000
0100
0000
0010
0000
0001
0000
0100
0000
0000
0000
,  // measure 12
0010
0000
1000
0100
0000
1000
0100
0000
0010
0000
0001
0000
1001
0000
0000
0000
,  // measure 13
1000
0000
0010
0100
0000
0001
0100
0000
0001
0000
0010
0100
0000
1000
0100
0000
,  // measure 14
0010
0000
0010
0000
0001
0000
0001
0000
0200
0000
0000
1300
0000
1000
0100
1000
,  // measure 15
0001
0000
0010
1000
0000
0001
1000
0000
0100
0000
0001
1000
0000
0010
1000
0000
,  // measure 16
0010
0000
0010
0000
0001
0000
0001
0000
0200
0000
0000
0310
0000
0100
0010
0100
,  // measure 17
0001
0000
0010
0001
0000
0010
0100
0000
1000
0000
0010
0100
0000
0010
1000
0000
,  // measure 18
0001
0000
0001
0000
0010
0000
0010
0000
2000
0000
0000
3001
0000
0001
0100
0001
,  // measure 19
1000
0000
0010
0001
0000
1000
0001
0000
0100
0000
1000
0001
0000
1000
0100
0000
,  // measure 20
0001
0010
0000
0001
0010
0000
0100
0000
1000
0000
0001
0000
0100
0001
0100
0001
,  // measure 21
1000
0000
1100
0000
1001
0000
0001
0100
,  // measure 22
1000
0000
0100
0000
0001
0000
0010
0000
0001
0000
1000
0100
0000
0100
1000
0000
,  // measure 23
1100
0000
1010
0000
1001
0000
0001
0010
,  // measure 24
1000
0000
0010
0000
0001
0000
0100
0000
0010
0000
0000
0000
0100
0010
0100
0000
,  // measure 25
0101
0000
0011
0000
1001
0000
1000
0010
,  // measure 26
0100
0000
1000
0000
0100
0000
0001
0000
0010
0000
0100
1000
0000
1000
0100
0000
,  // measure 27
0110
0000
0011
0000
0101
0000
0100
1000
,  // measure 28
0100
0000
0001
0000
0010
0000
0100
0000
1000
0000
0000
0000
0001
0100
0001
0100
,  // measure 29
0010
0000
0010
1000
0000
1000
0001
0000
0200
0000
1300
0000
0200
0000
0301
0000
,  // measure 30
0010
0000
0100
1000
0000
1000
0001
0000
0100
0001
0100
0001
1000
0010
1000
0010
,  // measure 31
0100
0000
0000
0000
0101
0000
0000
0000
1000
0100
1000
0100
0010
0001
0010
0001
,  // measure 32
1000
0000
0000
0000
1001
0000
0000
0000
0001
1000
0000
1000
0010
0100
0001
0000
,  // measure 33
0102
0000
0010
0000
1003
0000
1000
0100
,  // measure 34
0010
0100
1000
0100
0001
0000
0001
0100
,  // measure 35
0010
0010
0001
1000
0010
0100
1000
0100
,  // measure 36
0002
1003
1100
1001
,  // measure 37
0001
0010
0100
0010
0001
0000
1000
0010
,  // measure 38
0100
1000
0100
0001
1000
0000
0001
0000
,  // measure 39
1000
0010
0100
1000
0100
0001
0010
0000
,  // measure 40
0010
0100
0001
0100
1000
0010
0100
0000
,  // measure 41
0101
0000
0101
0000
1001
1000
1100
0000
,  // measure 42
1000
0100
0001
0100
1000
0010
0100
1000
,  // measure 43
1100
0000
1100
0000
0110
0010
1010
0000
,  // measure 44
1000
0001
0010
0001
0101
0000
1001
0000
,  // measure 45
1010
0000
1010
0000
0110
0001
0101
0000
,  // measure 46
0001
0010
0100
0001
0100
1000
0010
0100
,  // measure 47
1100
0000
1100
0000
0110
0010
1010
0000
,  // measure 48
1000
0001
0010
0001
1000
0000
0010
0000
,  // measure 49
0001
0000
0010
1000
0000
1000
0001
0000
0010
0000
1000
0010
0000
0010
0100
0000
,  // measure 50
1000
0000
1000
0000
0010
0000
0010
0000
0200
0000
0000
1300
0000
1000
0100
1000
,  // measure 51
0001
0000
0010
0100
0000
0100
0001
0000
0010
0000
0100
0001
0000
0001
1000
0000
,  // measure 52
0010
0000
0010
0000
0001
0000
0001
0000
2000
0000
0000
3010
0000
0010
1000
0001
,  // measure 53
1000
0000
0010
0100
0000
1000
0100
0000
0001
0000
0010
0100
0000
0001
0100
0000
,  // measure 54
0010
0000
0010
0000
0001
0000
0001
0000
0200
0000
0000
0301
0000
0100
0001
0100
,  // measure 55
0010
0000
0010
1000
0000
1000
0001
0000
0010
0000
0001
1000
0000
1000
0100
0000
,  // measure 56
0001
0000
0001
0000
0100
0000
0100
0000
0110
0000
0000
0010
0001
1000
0001
1000
,  // measure 57
0100
0000
0001
0100
0000
0001
0100
0000
0010
0000
0001
0000
0100
0000
0000
0000
,  // measure 58
1000
0000
0100
0000
0010
1000
1000
0000
,  // measure 59
0100
0000
1000
0100
0000
1000
0100
0000
0010
0001
0010
0000
0100
0000
1000
0000
,  // measure 60
0010
1000
0000
1000
0010
0100
0010
1000
0001
0100
0001
0100
0001
0100
0001
0100
,  // measure 61
0010
0000
0000
0000
;

//---------------dance-double - ----------------
#NOTES:
     dance-double:
     :
     Hard:
     12:
     0.579,0.736,0.226,0.113,0.382:
00000000
00000000
00000000
00000000
,
00000000
00000000
00000000
00000000
,
00000000
00000000
00000000
00000000
,
00000000
00000000
00000000
00000000
,
00000000
00000000
00000000
00000000
,
00000000
00000000
00000000
00000000
,
00000000
00000000
00000000
00000000
,
00000000
00000000
00000000
00000000
,
00010000
00000000
00001000
00010000
00000000
00001000
01000000
00000000
00100000
00000000
10000000
00100000
00000000
10000000
01000000
00000000
,
00010000
00000000
00001000
00010000
00000000
00001000
00000100
00000000
00000010
00000000
00000001
00000010
00000000
00000100
00000010
00000000
,
00000100
00000000
00000001
00000100
00000000
00000001
00000100
00000000
00000010
00000000
00001000
00000000
00000100
00000000
00000000
00000000
,
00010000
00000000
00001000
00010000
00000000
00001000
00010000
00000000
00100000
00000000
10000000
00000000
11000000
00000000
00000000
00000000
,
10010000
00000000
00010000
00100000
00000000
00001000
00010000
00000000
00000010
00000000
00000100
00000001
00000000
00001000
00000100
00000000
,
00000010
00000000
00000010
00000000
00000001
00000000
00000001
00000000
00000200
00000000
00000000
00001300
00000000
00001000
00010000
00001000
,
00010000
00000000
00100000
10000000
00000000
00010000
10000000
00000000
00010000
00000000
00100000
00010000
00000000
10000000
00010000
00000000
,
01000000
00000000
01000000
00000000
00100000
00000000
00100000
00000000
00020000
00000000
00000000
00031000
00000000
00001000
00010000
00001000
,
00010000
00000000
00000100
00000010
00000000
00000100
00001000
00000000
00000010
00000000
00000100
00000010
00000000
00000100
00000001
00000000
,
00000010
00000000
00000010
00000000
00001000
00000000
00001000
00000000
00020000
00000000
00000000
01030000
00000000
01000000
00010000
01000000
,
00100000
00000000
00010000
10000000
00000000
00010000
01000000
00000000
00001000
00000000
00010000
00001000
00000000
00010000
01000000
00000000
,
00100000
00000000
00100000
00000000
00001000
00000000
00001000
00000000
00000020
00000000
00000000
00000031
00000000
00000000
00000000
00000000
,
00000011
00000000
00000001
00000000
00000100
00000000
00001000
00010000
,
01000000
00010000
00001000
00010000
00100000
00000000
10000000
00000000
,
01000000
00000000
00010000
00000000
00001000
00000000
00000010
00001000
,
00010000
00000000
00001000
00000000
00000100
00000000
00000001
00000000
00000100
00000000
00000000
00000000
00001000
00010000
00001000
00000000
,
00010000
00000000
00100000
00000000
10000000
00000000
01000000
00010000
,
00001000
00000100
00000001
00000100
00001000
00000000
00010000
00000000
,
00100000
00000000
10000000
00000000
01000000
00000000
10000000
00100000
,
00010000
00001000
00000010
00000001
00001000
00000000
00000010
00000000
,
00001010
00000000
00000010
00001000
00000000
00001000
00000001
00000000
00000200
00000000
00001300
00000000
00200000
00000000
00310000
00000000
,
00001000
00000000
00000010
00001000
00000000
00001000
00000001
00000000
00000100
00000001
00000100
00000001
00001000
00000010
00001000
00000010
,
00010000
00000000
00000000
00000000
00011000
00000000
00000000
00000000
01000000
00010000
01000000
00010000
10000000
00100000
10000000
00100000
,
01000000
01010000
20000000
32000000
,
03010000
00000000
00001000
00000000
00011000
00000000
00001000
00000010
,
00000001
00000100
00001000
00000100
00000001
00000000
00000010
00001000
,
00010000
00100000
10000000
00010000
00100000
01000000
00010000
00001000
,
00000010
00000001
00000100
00000000
00000101
00000000
00001001
00000000
,
00001000
00000010
00000100
00001000
00010000
00000000
01000000
00010000
,
00001000
00010000
01000000
10000000
00100000
00000000
01000000
00010000
,
00100000
10000000
00100000
00010000
00001000
00010000
00000000
00001000
,
00000010
00000001
00000010
00001000
00100000
00010000
10000000
00000000
,
10100000
00000000
10100000
00000000
00100000
10000000
01000000
00000000
,
00010000
00001000
00010000
00100000
10000000
00100000
00010000
00001000
,
00011000
00000000
00011000
00000000
00010000
00000100
00001000
00000000
,
00000010
00000100
00001000
00000100
00000101
00000000
00001001
00000000
,
00000011
00000000
00000011
00000000
00000010
00000001
00000100
00000000
,
00001000
00010000
00001000
00000010
00000001
00000010
00010000
00100000
,
10100000
00000000
10100000
00000000
00100000
10000000
01000000
00000000
,
00010000
00001000
00000010
00000100
00001100
00000000
00001001
00000000
,
00001000
00000000
00000010
00001000
00000000
00001000
00000100
00000000
00010000
00000000
00001000
00100000
00000000
00100000
00010000
00000000
,
10000000
00000000
10000000
00000000
00100000
00000000
00100000
00000000
02000000
00000000
00000000
03010000
00000000
00010000
01000000
00010000
,
10000000
00000000
10000000
00010000
00000000
00010000
01000000
00000000
00001000
00000000
00010000
00000100
00000000
00000100
00001000
00000000
,
00000001
00000000
00000001
00000000
00000100
00000000
00000100
00000000
00000020
00000000
00000000
00001030
00000000
00001000
00000010
00001000
,
00000001
00000000
00000001
00000010
00000000
00000100
00000010
00000000
00000100
00000000
00010000
00001000
00000000
00010000
01000000
00000000
,
00100000
00000000
00100000
00000000
00010000
00000000
00010000
00000000
02000000
00000000
00000000
13000000
00000000
10000000
01000000
10000000
,
00010000
00000000
00010000
00001000
00000000
00001000
00000100
00000000
00000010
00000000
00001000
00000001
00000000
00000001
00000100
00000000
,
00000010
00000000
00000010
00000000
00001000
00000000
00001000
00000000
00000200
00000000
00000000
00000301
00000000
00000000
00000000
00000000
,
00000101
00000000
00000001
00000100
00000000
00000001
00000100
00000000
00001000
00000000
00000010
00000000
00000100
00000000
00000000
00000000
,
00001000
00000000
00010000
01000000
10000000
00000000
00100000
00000000
,
10100000
00000000
00100000
10000000
00000000
00100000
10000000
00000000
01000000
00000000
00010000
00000000
00001000
00000000
00000000
00000000
,
00000010
00000000
00000001
00000100
00001000
00010000
01000000
10000000
,
10010000
00000000
00000000
00000000
;

//---------------dance-single - ----------------
#NOTES:
     dance-single:
     :
     Medium:
     10:
     0.468,0.594,0.217,0.132,0.151: // measure 1
0000
0000
0000
0000
,  // measure 2
0000
0000
0000
0000
,  // measure 3
0000
0000
0000
0000
,  // measure 4
0000
0000
0000
0000
,  // measure 5
0000
0000
0000
0000
,  // measure 6
0000
0000
0000
0000
,  // measure 7
0000
0000
0000
0000
,  // measure 8
0000
0000
0000
0000
,  // measure 9
1000
0100
0001
0100
,  // measure 10
1000
0100
0001
0100
,  // measure 11
1001
0000
1001
0000
0001
0100
0010
0000
,  // measure 12
1001
0000
1001
0000
1000
0010
0110
0000
,  // measure 13
0001
0000
0000
0001
0000
0000
0010
0000
0100
0000
0000
0100
0000
0000
1000
0000
,  // measure 14
0010
0000
0010
0000
0100
0000
0100
0000
0002
0000
0000
0103
0000
0000
0100
0000
,  // measure 15
0001
0000
0000
0001
0000
0000
0100
0000
0010
0000
0000
0010
0000
0000
1000
0000
,  // measure 16
0100
0000
0100
0000
0010
0000
0010
0000
0002
0000
0000
1003
0000
0000
1000
0000
,  // measure 17
0001
0000
0000
0001
0000
0000
0100
0000
0010
0000
0000
0010
0000
0000
1000
0000
,  // measure 18
0001
0000
0001
0000
0010
0000
0010
0000
0002
0000
0000
0103
0000
0000
0010
0000
,  // measure 19
1000
0000
0000
1000
0000
0000
0100
0000
0010
0000
0000
0010
0000
0000
0001
0000
,  // measure 20
0100
0000
0100
0000
0010
0000
0010
0000
2000
0000
0000
3001
0000
0000
0000
0000
,  // measure 21
1001
0000
0100
0000
1001
0000
0001
0100
,  // measure 22
0010
1000
0001
1000
0010
0000
0000
0000
,  // measure 23
0101
0000
0010
0000
0101
0000
0001
1000
,  // measure 24
0001
0100
1000
0100
0001
0000
0000
0000
,  // measure 25
1001
0000
0010
0000
1001
0000
1000
0100
,  // measure 26
0010
0001
1000
0001
0010
0000
0000
0000
,  // measure 27
1100
0000
0010
0000
1100
0000
1000
0001
,  // measure 28
1000
0010
0001
0010
1000
0000
0001
0000
,  // measure 29
0010
0000
0001
0010
0000
0001
0010
0000
0200
0000
1300
0000
0200
0000
1300
0000
,  // measure 30
0010
0000
1000
0010
0000
1000
0010
0000
0100
0000
0001
0000
0100
0000
0001
0000
,  // measure 31
1000
0000
1001
0000
1000
0100
1000
0100
,  // measure 32
0010
0001
1000
0100
,  // measure 33
0001
0000
0100
0000
1000
0000
0010
0010
,  // measure 34
0100
0001
1000
0010
0000
0000
1000
1000
,  // measure 35
0001
0100
1000
0100
0010
1000
0001
2000
,  // measure 36
0000
3002
0000
0003
0100
0000
0010
0000
,  // measure 37
1000
0010
0001
0010
0100
0000
0001
0001
,  // measure 38
0010
0001
0100
0010
0000
0000
0000
2000
,  // measure 39
0000
0000
3100
0100
0001
0001
0000
0200
,  // measure 40
0000
1300
0010
1000
0001
0010
0100
1000
,  // measure 41
1001
0000
1001
0000
0001
0100
1000
0000
,  // measure 42
1000
0100
0001
0010
0001
0100
1000
0100
,  // measure 43
0101
0000
0101
0000
0001
0100
1000
0000
,  // measure 44
1000
0100
0010
1000
0100
0000
0010
0000
,  // measure 45
0011
0000
0011
0000
0001
0010
1000
0000
,  // measure 46
1000
0010
0001
0100
0001
0010
0100
1000
,  // measure 47
1100
0000
1100
0000
1000
0001
0100
0000
,  // measure 48
1000
0100
0010
1000
0100
0000
0010
0000
,  // measure 49
0001
0000
0000
0001
0000
0000
0010
0000
0100
0000
0000
0100
0000
0000
1000
0000
,  // measure 50
0010
0000
0010
0000
0100
0000
0100
0000
0002
0000
0000
0103
0000
0000
0100
0000
,  // measure 51
0001
0000
0000
0001
0000
0000
1000
0000
0100
0000
0000
0100
0000
0000
0010
0000
,  // measure 52
0001
0000
0001
0000
0100
0000
0100
0000
0020
0000
0000
1030
0000
0000
0100
0000
,  // measure 53
1000
0000
0000
1000
0000
0000
0100
0000
0001
0000
0000
0001
0000
0000
0100
0000
,  // measure 54
0010
0000
0010
0000
0001
0000
0001
0000
0200
0000
0000
1300
0000
0000
1000
0000
,  // measure 55
0100
0000
0000
0100
0000
0000
0010
0000
1000
0000
0000
1000
0000
0000
0100
0000
,  // measure 56
0010
0000
0010
0000
0001
0000
0001
0000
0200
0000
0000
0310
0000
0000
0000
0000
,  // measure 57
0010
0000
0100
0010
0000
0100
0010
0000
1000
0000
0100
0000
0001
0000
0000
0000
,  // measure 58
0001
0100
1000
0010
,  // measure 59
0100
0000
0010
0100
0000
0010
0100
0000
0001
0000
0100
0000
1000
0000
0000
0000
,  // measure 60
1000
0000
0100
0000
0001
1000
0100
1000
,  // measure 61
1001
0000
0000
0000
;

//---------------dance-double - ----------------
#NOTES:
     dance-double:
     :
     Medium:
     11:
     0.470,0.594,0.208,0.066,0.170:
00000000
00000000
00000000
00000000
,
00000000
00000000
00000000
00000000
,
00000000
00000000
00000000
00000000
,
00000000
00000000
00000000
00000000
,
00000000
00000000
00000000
00000000
,
00000000
00000000
00000000
00000000
,
00000000
00000000
00000000
00000000
,
00000000
00000000
00000000
00000000
,
00010000
01000000
10000000
01000000
,
00001000
00000100
00000001
00000100
,
00010000
00000000
00001000
00010000
00000000
00001000
00010000
00000000
00000010
00000000
00000100
00000000
00000000
00000000
00000000
00000000
,
00001000
00000000
00010000
00001000
00000000
00010000
00001000
00000000
00100000
00000000
01000000
00000000
11000000
00000000
00000000
00000000
,
10000000
00000000
00000000
10000000
00000000
00000000
00010000
00000000
01000000
00000000
00000000
01000000
00000000
00000000
00001000
00000000
,
00010000
00000000
00000010
00000000
00000100
00000000
00000001
00000000
00001000
00000000
00000000
00001000
00000000
00000000
00000001
00000000
,
00000010
00000000
00000000
00000010
00000000
00000000
00000100
00000000
00001000
00000000
00000000
00001000
00000000
00000000
00000001
00000000
,
00000100
00000000
00000010
00000000
00010000
00000000
00001000
00000000
00100000
00000000
00000000
00010000
00000000
00000000
01000000
00000000
,
00100000
00000000
00000000
00100000
00000000
00000000
10000000
00000000
00010000
00000000
00000000
00010000
00000000
00000000
00100000
00000000
,
00001000
00000000
00010000
00000000
00000010
00000000
00000100
00000000
00000001
00000000
00000000
00001000
00000000
00000000
00000001
00000000
,
00000010
00000000
00000000
00000010
00000000
00000000
00000100
00000000
00010000
00000000
00000000
00010000
00000000
00000000
00001000
00000000
,
01000000
00000000
00100000
00000000
10000000
00000000
00010000
00000000
00100000
00000000
00000000
00100000
00000000
00000000
00000000
00000000
,
00110000
00000000
00001000
00000000
00010000
00000000
00000010
00000100
,
00000001
00000010
00000100
00010000
00001000
00000000
00000000
00000000
,
00100000
00000000
00010000
00000000
10000000
00000000
00100000
01000000
,
00001000
00010000
00000100
00000010
00000001
00000000
00000000
00000000
,
00001000
00000000
00000010
00000000
00000100
00000000
00001000
00100000
,
00010000
01000000
00100000
10000000
00010000
00000000
00000000
00000000
,
10000000
00000000
01000000
00000000
00100000
00000000
00001000
00010000
,
00000010
00001000
00000001
00000010
00000100
00000000
00001000
00000000
,
00000001
00000000
00000010
00000001
00000000
00000010
00000001
00000000
00000200
00000000
00000310
00000000
00000200
00000000
00000310
00000000
,
00001000
00000000
00000100
00010000
00000000
00000100
00010000
00000000
00001000
00000000
00100000
00000000
00010000
00000000
01000000
00000000
,
00100000
00000000
10010000
00000000
10000000
00100000
01000000
00001000
,
00010000
00011000
00002010
00003100
,
00000011
00000000
00000001
00000000
00000100
00000000
00001000
00010000
,
00100000
00010000
00001000
00010000
00000000
00000000
00001000
00001000
,
00010000
00000010
00000100
00000001
00000010
00000100
00010000
00001000
,
00100000
00010000
10000000
00000000
11000000
00000000
10010000
00000000
,
10000000
00100000
01000000
10000000
01000000
00000000
00100000
00100000
,
10000000
00010000
00100000
00001000
00010000
00000000
00000000
00000010
,
00000001
00001000
00000010
00000100
00001000
00010000
00000000
00100000
,
10000000
00010000
00100000
01000000
00010000
00001000
00000000
00000000
,
00001010
00000000
00001010
00000000
00000010
00000001
00000100
00000000
,
00001000
00010000
00100000
00010000
00001000
00010000
00100000
10000000
,
10100000
00000000
10100000
00000000
00100000
10000000
01000000
00000000
,
00010000
00001000
00000100
00001000
00011000
00000000
00001010
00000000
,
00001001
00000000
00001001
00000000
00000001
00000100
00001000
00000000
,
00001000
00000100
00000010
00010000
00001000
00100000
00010000
10000000
,
10100000
00000000
10100000
00000000
00100000
10000000
01000000
00000000
,
01000000
00010000
00001000
00010000
00010100
00000000
00001100
00000000
,
00000110
00000000
00000000
00000010
00000000
00000000
00000001
00000000
00000100
00000000
00000000
00000100
00000000
00000000
00000010
00000000
,
00010000
00000000
00001000
00000000
00100000
00000000
00010000
00000000
02000000
00000000
00000000
03100000
00000000
00000000
00100000
00000000
,
10000000
00000000
00000000
10000000
00000000
00000000
01000000
00000000
00100000
00000000
00000000
00100000
00000000
00000000
00001000
00000000
,
00010000
00000000
00000010
00000000
00000100
00000000
00000001
00000000
00000020
00000000
00000000
00000031
00000000
00000000
00000001
00000000
,
00000100
00000000
00000000
00000010
00000000
00000000
00010000
00000000
00001000
00000000
00000000
00100000
00000000
00000000
01000000
00000000
,
10000000
00000000
00100000
00000000
01000000
00000000
00001000
00000000
00020000
00000000
00000000
00031000
00000000
00000000
00000100
00000000
,
00000010
00000000
00000000
00001000
00000000
00000000
00000100
00000000
00000001
00000000
00000000
00000100
00000000
00000000
00010000
00000000
,
00001000
00000000
01000000
00000000
00100000
00000000
10000000
00000000
02000000
00000000
00000000
03100000
00000000
00000000
00000000
00000000
,
00100000
00000000
00001000
00010000
00000000
00001000
00010000
00000000
00000010
00000000
00000100
00000000
00000001
00000000
00000000
00000000
,
00000010
00000001
00000100
00001000
,
00010000
00000000
00100000
10000000
00000000
00100000
10000000
00000000
01000000
00000000
00010000
00000000
00001000
00000000
00000000
00000000
,
00000100
00000000
00000100
00001000
00010000
01000000
00010000
00001000
,
00011000
00000000
00000000
00000000
;

//---------------dance-single - ----------------
#NOTES:
     dance-single:
     :
     Easy:
     5:
     0.229,0.311,0.038,0.019,0.000:
0000
0000
0000
0000
,
0000
0000
0000
0000
,
0000
0000
0000
0000
,
0000
0000
0000
0000
,
0000
0000
0000
0000
,
0000
0000
0000
0000
,
0000
0000
0000
0000
,
0000
0000
0000
0000
,
1000
0000
0100
0000
,
0010
0000
0001
0000
,
1000
1000
0001
0000
,
0001
0001
1000
1001
,
1000
0000
1000
0000
,
0010
0100
0001
0000
,
0001
0000
0001
0000
,
0100
0010
1000
0000
,
1000
0000
1000
0000
,
0100
0010
0001
0000
,
0001
0000
0001
0000
,
0010
0100
1000
0000
,
0001
0001
0001
1000
,
0100
0001
0100
0000
,
1000
1000
1000
0010
,
0100
1000
0100
0000
,
0001
0001
0001
1000
,
0010
0001
0010
0000
,
1000
1000
1000
0100
,
0001
0100
0010
0001
,
1000
0000
1000
0000
0020
0030
0020
0030
,
0001
0001
0010
0100
,
0001
1001
1000
0100
,
0010
1001
0001
1000
,
0010
0100
0001
0001
,
0100
1000
0100
0000
,
0010
1000
0001
1000
,
0100
0000
0100
0010
,
0001
0001
1000
0010
,
1000
0001
0100
0000
,
0001
0001
0001
0000
,
0001
0100
1000
0000
,
1000
1000
0100
0000
,
0010
1000
0100
0001
,
0100
0100
0010
0000
,
0010
0001
0100
0001
,
0010
0010
0100
0000
,
0100
1000
0010
1000
,
0001
0001
0100
0000
,
0100
0010
1000
0100
,
0010
0000
0010
0000
,
0001
0100
1000
0000
,
0100
0000
0100
0000
,
1000
0100
0001
0000
,
0010
0000
0010
0000
,
1000
0010
0001
0000
,
0010
0000
0010
0000
,
0001
0010
1000
0000
,
0010
0000
0010
0000
0001
1000
0000
0000
,
1000
0000
1000
0000
,
0001
0000
0001
0000
1000
0001
0000
0000
,
0000
0000
0010
0010
,
1001
0000
0000
0000
;

//---------------dance-double - ----------------
#NOTES:
     dance-double:
     :
     Easy:
     6:
     0.241,0.283,0.047,0.000,0.000:
00000000
00000000
00000000
00000000
,
00000000
00000000
00000000
00000000
,
00000000
00000000
00000000
00000000
,
00000000
00000000
00000000
00000000
,
00000000
00000000
00000000
00000000
,
00000000
00000000
00000000
00000000
,
00000000
00000000
00000000
00000000
,
00000000
00000000
00000000
00000000
,
00010000
00000000
01000000
00000000
,
10000000
00000000
01000000
00000000
,
00010000
00010000
00001000
00000000
,
00001000
00001000
00010000
00011000
,
00000100
00000000
00000100
00000000
,
00000010
00000001
00000100
00001000
,
00010000
00000000
00010000
00000000
,
01000000
10000000
00100000
00010000
,
00001000
00000000
00001000
00000000
,
00010000
00100000
10000000
01000000
,
00010000
00000000
00010000
00000000
,
00001000
00000100
00000001
00000010
,
00001000
00000010
00001000
00000010
,
00000001
00000100
00001000
00000000
,
00010000
01000000
00010000
01000000
,
10000000
00100000
00010000
00000000
,
00010000
00100000
00010000
00100000
,
10000000
01000000
00010000
00000000
,
00001000
00000010
00001000
00000010
,
00000001
00000100
00001000
00010000
,
00011000
00100000
00010000
10000000
,
00100000
01000000
00010000
00100000
,
00001000
00011000
00010000
00000100
,
00000010
00001001
00000000
00000000
,
00000001
00000100
00001000
00000100
,
00000001
00000100
00001000
00010000
,
01000000
01000000
10000000
10000000
,
00010000
00010000
10000000
00010000
,
10000000
00100000
00010000
00100000
,
10000000
01000000
00010000
00000000
,
00010000
00001000
00000100
00000000
,
00001000
00010000
00100000
00000000
,
10000000
10000000
01000000
00000000
,
00010000
00001000
00000010
00001000
,
00010000
00010000
01000000
00000000
,
00010000
00001000
00000100
00000001
,
00000010
00000010
00000001
00000000
,
00000100
00001000
00010000
00001000
,
00000010
00000010
00000001
00000000
,
00000100
00001000
00010000
01000000
,
10000000
00000000
10000000
00000000
,
00100000
00010000
00001000
00000010
,
00000001
00000000
00000001
00000000
,
00000010
00001000
00010000
01000000
,
00100000
00000000
00100000
00000000
,
00001000
00010000
00000010
00000100
,
00000001
00000000
00000001
00000000
,
00000010
00000100
00010000
00001000
,
01000000
00000000
01000000
00000000
00010000
10000000
00000000
00000000
,
00010000
00000000
00001000
00000000
,
00000010
00000000
00000010
00000000
00001000
00000001
00000000
00000000
,
00000001
00000100
00001000
00010000
,
00011000
00000000
00000000
00000000
;

//---------------dance-single - ----------------
#NOTES:
     dance-single:
     :
     Beginner:
     3:
     0.150,0.198,0.019,0.000,0.000:
0000
0000
0000
0000
,
0000
0000
0000
0000
,
0000
0000
0000
0000
,
0000
0000
0000
0000
,
0000
0000
0000
0000
,
0000
0000
0000
0000
,
0000
0000
0000
0000
,
0000
0000
0000
0000
,
1000
0000
0000
0000
,
0000
0000
0000
0000
,
0100
0000
0000
0000
,
0100
0000
0000
0000
,
0010
0000
0010
0000
,
0001
0001
0001
0000
,
0100
0000
0100
0000
,
0010
0010
0010
0000
,
1000
0000
1000
0000
,
0100
0100
0100
0000
,
0010
0000
0010
0000
,
0001
0001
0001
0000
,
1000
0000
1000
0000
,
0001
0000
0001
0000
,
0100
0000
0100
0000
,
0010
0000
0010
0000
,
1000
0000
1000
0000
,
0010
0000
0010
0000
,
0100
0000
0100
0000
,
0001
0000
0001
0000
,
1001
0000
0000
0000
,
1000
0000
0000
0000
,
0001
0001
0000
0000
,
0001
0001
0000
0000
,
1000
1000
1000
0000
,
0100
0000
0100
0000
,
0010
0000
0010
0000
,
0001
0000
0000
0000
,
1000
1000
1000
0000
,
0010
0000
0010
0000
,
0100
0000
0100
0000
,
0001
0000
0001
0000
,
1000
1000
1000
0000
,
0010
0000
0100
0000
,
0001
0001
0001
0000
,
0100
0000
0001
0001
,
0001
0001
0001
0000
,
0001
0000
0010
0000
,
0100
0100
0100
0000
,
1000
0000
0001
0001
,
0001
0000
0001
0000
,
1000
1000
1000
0000
,
0010
0000
0010
0000
,
0100
0100
0100
0000
,
0001
0000
0001
0000
,
0010
0010
0010
0000
,
0100
0000
0100
0000
,
1000
1000
1000
0000
,
0001
0000
0001
0000
,
0000
0000
0000
0000
,
1000
0000
1000
0000
,
0000
0000
0000
0000
,
1001
0000
0000
0000
;
