#VERSION:0.83;
#TITLE:Jade Runs;
#SUBTITLE:;
#ARTIST:河村 知之;
#TITLETRANSLIT:;
#SUBTITLETRANSLIT:;
#ARTISTTRANSLIT:Tomoyuki Kawamura;
#GENRE:;
#ORIGIN:;
#CREDIT:;
#BANNER:Jade Runs.png;
#BACKGROUND:Jade Runs-bg.png;
#PREVIEWVID:;
#JACKET:Jade Runs-jacket.png;
#CDIMAGE:;
#DISCIMAGE:;
#LYRICSPATH:;
#CDTITLE:;
#MUSIC:Jade Runs.ogg;
#OFFSET:-0.580000;
#SAMPLESTART:14.200609;
#SAMPLELENGTH:13.707432;
#SELECTABLE:YES;
#BPMS:0.000=140.070;
#STOPS:29.500=0.857;
#DELAYS:;
#WARPS:;
#TIMESIGNATURES:0.000=4=4;
#TICKCOUNTS:0.000=4;
#COMBOS:0.000=1;
#SPEEDS:0.000=1.000=0.000=0;
#SCROLLS:0.000=1.000;
#FAKES:;
#LABELS:0.000=Song Start;
#BGCHANGES:;
#KEYSOUNDS:;
#ATTACKS:
;

//---------------dance-single - ----------------
#NOTEDATA:;
#CHARTNAME:;
#STEPSTYPE:dance-single;
#DESCRIPTION:;
#CHARTSTYLE:;
#DIFFICULTY:Challenge;
#METER:15;
#RADARVALUES:0.807280,0.908686,0.110019,0.040007,0.990168,565.000000,554.000000,11.000000,4.000000,6.000000,0.000000,0.000000,0.000000,0.000000,0.807280,0.908686,0.110019,0.040007,0.990168,565.000000,554.000000,11.000000,4.000000,6.000000,0.000000,0.000000,0.000000,0.000000;
#CREDIT:;
#NOTES:
// measure 0
0000
0000
0000
0000
,  // measure 1
0000
0000
0000
0000
,  // measure 2
0000
0000
0000
0000
,  // measure 3
0000
0000
0000
0000
,  // measure 4
1000
0000
0001
0000
1000
0000
0001
1000
0010
0000
1000
0010
0100
0000
0010
0100
,  // measure 5
0001
0000
1000
0000
0001
0000
1000
0001
0010
0000
0200
0000
1000
0000
0000
0000
,  // measure 6
0310
0000
0100
0000
0010
0000
0100
0010
0001
0000
0010
0001
1000
0000
0001
1000
,  // measure 7
0010
0000
0100
0000
0110
0000
1001
0000
0001
0000
0100
0000
0010
0000
0100
0001
,  // measure 8
1000
0000
1000
0100
0010
0000
0001
0000
1000
0000
0010
0000
0100
0000
0010
1000
,  // measure 9
0001
0000
0001
0010
0100
0000
0100
0000
0010
0000
0001
0000
1000
0000
0001
0100
,  // measure 10
0010
0000
0010
1000
0001
0000
0010
0000
0100
0000
1000
0000
0001
0000
1000
0100
,  // measure 11
0010
0001
0000
1000
0000
0001
0010
0100
1000
0000
0010
0000
0100
0000
0010
1000
,  // measure 12
0001
0000
0001
0010
0100
0000
1000
0000
0001
0000
0100
0000
0010
0000
0100
0001
,  // measure 13
1000
0000
1000
0100
0010
0000
0010
0000
0100
0000
1000
0000
0001
0000
1000
0010
,  // measure 14
0100
0000
0100
0001
1000
0000
0100
0000
0010
0000
0001
0000
1000
0000
0001
0010
,  // measure 15
0100
1000
0001
1000
0100
0010
0100
1000
0001
0100
1000
0000
0001
0000
0010
0000
,  // measure 16
1000
0100
0001
0000
1000
0000
0010
0000
0001
0100
1000
0000
0001
0000
0010
0000
,  // measure 17
1000
0001
0010
0000
0100
0000
1000
0000
0001
0010
1000
0000
0001
0000
0100
0000
,  // measure 18
1000
0010
0001
0000
1000
0000
0100
0000
0001
0010
1000
0000
0001
0000
0100
0000
,  // measure 19
1000
0001
0010
0100
0000
0100
0010
0001
1000
0010
1000
0000
0100
0000
M100
0000
,  // measure 20
0001
1000
0010
0000
0100
0000
0001
0000
1000
0010
1000
0000
0100
0000
M100
0000
,  // measure 21
0001
1000
0010
0000
0100
0000
0010
0000
1000
0100
1000
0000
0010
0000
M010
0000
,  // measure 22
0001
1000
0100
0000
0010
0000
0001
0000
1000
0100
1000
0000
0010
0000
M010
0000
,  // measure 23
0001
1000
0001
0010
0001
1000
0001
0010
0001
1000
0001
0000
1000
0010
1000
0000
,  // measure 24
0010
0100
0010
0000
1000
0010
1000
0000
0001
1000
0001
0000
0010
0001
0010
0000
,  // measure 25
0100
0010
0100
1000
0002
0000
0000
0000
1003
0001
1000
0000
0001
0010
0001
0000
,  // measure 26
0010
0100
0010
0000
0001
0010
0001
0000
1000
0001
1000
0000
0010
1000
0010
0000
,  // measure 27
0110
0000
1010
0000
2001
0000
0000
0000
3010
1000
0010
1000
0001
1000
0001
1000
,  // measure 28
0100
0000
0010
0000
0100
0000
0100
0000
0010
0001
0010
0001
1000
0001
1000
0001
,  // measure 29
0100
0000
0010
0000
0200
0000
0000
0000
0310
1000
0010
1000
0001
1000
0001
1000
,  // measure 30
0100
0010
0001
1000
0010
1000
0001
0010
0100
1000
0100
1000
0001
1000
0001
1000
,  // measure 31
0010
0100
0001
0010
0100
1000
0001
0100
0010
0000
0000
0000
0000
0000
0000
0000
,  // measure 32
0000
0000
0000
0110
1010
0000
0000
0000
,  // measure 33
1000
0000
1000
0001
0000
0001
0010
0000
0100
0000
0000
0000
0000
0000
0000
0000
,  // measure 34
0000
0000
0000
0110
0011
0000
0000
0000
,  // measure 35
0001
0000
0001
1000
0000
1000
0010
0000
0100
0000
0010
0000
1000
0001
0000
1000
,  // measure 36
0100
0010
0001
0100
0010
0000
0100
0000
0001
0000
0010
0000
0100
1000
0000
1000
,  // measure 37
0010
0000
M010
0001
0000
0001
0100
0000
0010
0000
0100
0000
0001
1000
0000
0001
,  // measure 38
0010
0100
1000
0010
0100
0000
0010
0000
1000
0000
0100
0000
0010
0001
0000
0001
,  // measure 39
0100
0000
010M
1000
0000
1000
0010
0000
0100
0000
0001
0000
0010
0100
0000
0010
,  // measure 40
1000
0010
0100
1000
0100
0000
0100
0000
0010
0000
0001
0000
0100
0010
0000
0100
,  // measure 41
1000
0100
0010
1000
0001
0010
0100
0000
0010
0000
0001
0000
0100
0010
0000
0100
,  // measure 42
1000
0100
0010
1000
0010
0000
0010
0000
0100
0000
0001
0000
0010
0100
0000
0010
,  // measure 43
1000
0010
0100
1000
0001
0100
0010
0000
0100
0010
1000
0001
0010
0100
0010
0001
,  // measure 44
1000
0001
0010
0100
1000
0000
0010
0000
0100
0010
1000
0001
0010
0100
0010
0001
,  // measure 45
0100
0010
0001
0010
0100
0001
0010
0000
0100
0010
0001
1000
0010
0100
0010
1000
,  // measure 46
0001
0010
0100
1000
0010
0100
0001
1000
0010
0100
0001
1000
0100
0010
0100
1000
,  // measure 47
1100
0000
0000
0000
1100
0000
0000
0000
0100
1000
0100
0010
0000
0100
0010
0001
,  // measure 48
1000
0000
0010
0000
1000
0001
0000
0001
0010
0001
0010
0100
0000
0010
0100
1000
,  // measure 49
0001
0000
0100
0000
0001
1000
0000
1000
0100
0010
0001
0100
0000
0001
0010
0100
,  // measure 50
1000
0000
0010
0000
1000
0001
0000
0001
0010
0100
1000
0010
0000
1000
0100
0010
,  // measure 51
0001
0000
0100
0000
0001
1000
0000
1000
0100
0010
0100
0001
0000
0100
0010
0100
,  // measure 52
1000
0000
0001
0000
1000
0001
0000
0001
0100
0010
0100
1000
0000
0100
0010
0100
,  // measure 53
0001
0000
1000
0000
0001
1000
0000
1000
0001
0010
0100
0001
0000
0100
0010
0001
,  // measure 54
1000
0000
0001
0000
1000
0001
0000
0001
1000
0010
0100
1000
0001
0000
1000
0001
,  // measure 55
0010
1000
0000
0000
0000
0000
0000
0000
0000
0000
0000
0000
0000
0000
0000
0000
;

//---------------dance-single - ----------------
#NOTEDATA:;
#CHARTNAME:;
#STEPSTYPE:dance-single;
#DESCRIPTION:;
#CHARTSTYLE:;
#DIFFICULTY:Hard;
#METER:13;
#RADARVALUES:0.607246,0.633326,0.770131,0.090015,0.275047,425.000000,348.000000,77.000000,9.000000,0.000000,0.000000,0.000000,0.000000,0.000000,0.607246,0.633326,0.770131,0.090015,0.275047,425.000000,348.000000,77.000000,9.000000,0.000000,0.000000,0.000000,0.000000,0.000000;
#CREDIT:;
#NOTES:
0000
0000
0000
0000
,
0000
0000
0000
0000
,
0000
0000
0000
0000
,
0000
0000
0000
0000
,
0001
0000
0001
0011
0000
1001
0000
1010
,
0100
0000
0100
0110
0000
1020
0100
0000
,
1030
0000
1000
1010
0000
1001
0000
0011
,
0100
0000
0100
0011
0001
0010
0100
1100
,
0000
0101
0000
1100
0100
0010
0001
1001
,
0000
0110
0000
1001
1000
0100
0010
0011
,
0000
1010
0000
0011
0010
0100
1000
0010
,
0100
1000
0001
0010
0100
1000
1000
0100
,
0010
0010
1000
1000
0001
0100
0010
0001
,
1000
0001
0010
0100
0010
0001
0001
0010
,
0100
0100
0001
0001
1000
0010
0100
1000
,
0100
0010
1000
0001
0010
1000
0001
1000
,
0010
0001
1000
0001
0100
1000
0001
1000
,
0100
0210
0000
0000
0310
0001
1000
0001
,
0010
1000
0001
1000
0100
0001
1000
0001
,
0100
0010
0002
0000
1003
0101
0000
1000
,
0001
1100
0000
0001
1000
0101
0000
0001
,
0100
0110
0100
0001
1000
0011
0000
1000
,
0001
1010
0000
0001
1000
0011
0000
1000
,
0010
0100
0010
0100
0110
1000
1010
0001
,
1001
0010
0100
0000
0110
0001
0011
1000
,
1001
0010
1001
0000
0110
0001
0101
1000
,
1001
0100
0010
0000
0110
1000
1100
0001
,
1001
0100
1001
0000
1000
0100
0010
0001
,
0011
1001
0011
0000
0010
0100
1000
0001
,
1001
0101
1001
0000
0001
0010
0100
1000
,
1100
1001
1100
1000
0100
0010
0001
1000
,
1001
1010
1001
0000
0110
0000
0000
0000
,
0000
0000
0000
0110
0110
0000
0000
0000
,
0001
0000
0000
0010
0000
0000
0100
0000
0110
0000
0000
0000
0000
0000
0000
0000
,
0000
0000
0000
0110
0110
0000
0000
0000
,
1000
0000
0000
0010
0000
0000
0100
0000
0110
0000
0100
0000
0000
0001
0000
0000
,
1000
0000
0100
0000
0001
0000
0001
0000
0100
0000
1000
0000
0000
0010
0000
0000
,
0001
0000
0000
0100
0000
0000
1000
0000
0100
0000
0010
0000
0000
0001
0000
0000
,
1000
0000
0010
0000
0001
0000
0001
0000
0010
0000
1000
0000
0000
0100
0000
0000
,
0001
0000
0000
0010
0000
0000
1000
0000
0100
0000
1100
0000
0000
0011
0000
0000
,
1100
0000
0100
0000
0010
0000
0010
0000
0001
0000
0011
0000
0000
0110
0000
0000
,
1100
0000
0000
1001
0000
0000
0001
0000
0100
0000
0101
0000
0000
1010
0000
0000
,
0101
0000
0100
0000
0010
0000
0010
0000
1000
0000
1010
0000
0000
0110
0000
0000
,
0101
0000
0000
1001
0000
0000
1000
0000
0100
0000
1000
0000
0100
0010
0000
0001
,
0010
0000
0001
2000
0001
0000
0000
0000
3001
0000
0100
0000
0001
1000
0000
0001
,
0010
0000
0010
0100
0000
0100
1000
0000
0000
0000
0001
0000
0010
0100
0000
1000
,
0100
0000
1000
0002
1000
0000
0000
0000
1003
0000
0010
0000
1000
0001
0000
0010
,
0100
0000
0000
0000
0110
0000
0000
0000
1200
0000
0000
0000
0000
0010
0000
0000
,
0000
0000
1300
0000
0100
1000
0000
2100
0000
0000
0000
0000
0000
0001
0000
0000
,
0000
0000
3010
0000
1000
0010
0000
0010
0200
0000
0000
0000
0000
0010
0000
0000
,
0000
0000
0301
0000
0100
0001
0000
0102
0000
0000
0000
0000
0000
1000
0000
0000
,
0000
0000
0013
0000
0001
0010
0000
0010
0100
0010
0000
0010
0001
0000
0010
0001
,
0010
0000
0100
0000
1000
0001
0000
0000
1000
0001
0000
0001
0100
0000
0001
0100
,
0001
0000
1000
0000
0010
0100
0000
0000
0100
0010
0000
0010
1000
0000
0010
1000
,
0010
0000
0100
0000
0001
1000
0000
0100
1000
0100
1000
0100
0010
0000
0001
0010
,
0001
1000
0000
0000
0000
0000
0000
0000
0000
0000
0000
0000
0000
0000
0000
0000
;
