#VERSION:0.83;
#TITLE:INVOKE;
#SUBTITLE:;
#ARTIST:T.M. Revolution ;
#TITLETRANSLIT:;
#SUBTITLETRANSLIT:;
#ARTISTTRANSLIT:;
#GENRE:;
#CREDIT:;
#MUSIC:INVOKE.ogg;
#BANNER:INVOKE BANNER.png;
#BACKGROUND:bg.jpeg;#PREVIEWVID:;#JACKET:jacket.jpeg;
#CDTITLE:;
#SAMPLESTART:50.233;
#SAMPLELENGTH:15.789;
#SELECTABLE:YES;
#OFFSET:-0.102;
#BPMS:0.000=76.000
,12.000=152.000
;
#STOPS:11.500=2.763;
#DISPLAYBPM:152.000;
#BGCHANGES:0.000=INVOKE MV.avi=1.000=0=0=0=StretchNoLoop====,
99999.000=-nosongbg-=0.500=0=0=0=StretchNoLoop====
;
#FGCHANGES:;

//--------------- dance-single - ----------------
#NOTEDATA:;
#STEPSTYPE:dance-single;
#DESCRIPTION:;
#DIFFICULTY:Hard;
#METER:12;
#RADARVALUES:0,0,0,0,0;
#NOTES:
0000
0000
0000
0000
,
0000
0000
0000
0000
0000
0000
0000
0000
0000
0000
0000
0000
0000
0000
0000
0000
0000
0000
0000
0000
0000
0000
0000
0000
0000
0000
0000
0000
0000
0000
0000
0000
0000
0000
0000
0000
0000
0000
0000
1000
0000
0000
0000
0000
0000
0000
0001
0000
0000
0000
0000
0000
0000
0000
0000
0000
0000
0000
0000
0000
0000
0000
0000
0000
,
0010
0000
0000
0100
0000
0000
1000
0000
0000
0000
0000
0000
0000
0000
0000
0000
0000
0000
0000
0010
0000
0000
0000
0000
0000
0000
0000
0000
0000
0000
0000
0100
0000
0000
0000
0000
0000
0000
0000
0000
0010
0000
0000
1000
0000
0000
0000
0000
0000
0100
0000
0000
0000
0000
0000
0000
1000
0000
0000
0000
0000
0000
0000
0000
,
1100
0000
1100
0000
1001
0000
1001
0001
,
0011
0000
0011
0000
0101
0000
0101
0001
,
1100
0110
0011
0101
,
1000
0000
0001
0000
0100
0000
0001
0000
0010
0000
0001
0000
,
1001
0000
1000
0200
0000
0001
0000
1300
,
0000
0010
0100
0001
1000
0000
0110
0000
,
0010
0000
0100
0002
0000
0010
0000
0103
,
0001
0100
0010
2020
0000
0000
3030
1000
,
0100
0001
0100
1000
0000
0011
0000
1010
,
0000
1001
0000
0001
0101
0000
2000
0000
,
0010
0000
3020
0100
0000
0100
0000
0200
,
0000
0000
0000
0000
0330
0000
0010
1000
,
1010
0000
0100
0110
0000
0011
0000
1001
,
0000
1010
0000
2000
0100
0000
0100
0000
,
3100
0000
0020
0001
0000
0001
0000
0002
,
0000
0000
0000
0000
0000
0033
0000
0001
,
0101
0000
0100
1010
0000
1001
0000
1100
,
0000
0011
0000
0002
0100
0000
0100
0000
,
0103
0000
0020
0100
0000
0100
0000
0200
,
0000
0000
0000
0000
0000
0330
0000
0010
,
1000
0000
0100
0000
0001
0000
0100
0000
1000
0000
0001
0010
0000
0000
0001
0000
,
0100
1000
0100
0001
0100
0110
0000
0010
,
1010
1001
1100
0110
,
1000
0000
0100
0000
0001
0000
0010
0000
1000
0000
0010
0000
,
0100
0000
0000
0001
1000
0000
0100
0000
0010
0000
0000
0000
0011
0000
0000
0000
,
0200
0000
0000
0000
0010
0000
0000
0000
0310
0000
0000
0000
1000
0000
0001
0100
,
0020
0000
0000
0000
1030
0000
0010
1000
0200
0000
0000
0000
2300
0000
0000
0000
,
3010
0000
0000
0110
0000
0000
1000
0000
1001
0000
0000
0000
0001
0000
0010
0000
,
0001
0000
0000
0100
0000
0000
0010
0000
1000
0000
0000
0000
1100
0000
0000
0000
,
1010
0000
0000
0110
0000
0000
0001
0000
0011
0000
0000
0000
0001
0000
1000
0000
,
0200
0000
2300
0100
0000
0001
0000
0200
,
0000
0000
0000
0000
3300
0000
0010
0001
,
0200
0000
0000
0301
1001
0000
0110
0000
,
0100
0000
0010
0000
1000
0010
1000
0010
1000
0100
0010
0100
1000
0000
0001
0000
,
1001
0000
0000
1000
0001
0000
0010
0000
0100
0000
0000
0000
1100
0000
0000
0000
,
2000
0000
0000
0000
0010
0000
0000
0000
3100
0000
0000
0000
1000
0000
0001
0010
,
0002
0000
0000
0000
1003
0000
0001
0100
0020
0000
0000
0000
2030
0000
0000
0000
,
3100
0000
0000
0110
0000
0000
1000
0000
1001
0000
0000
0000
0001
0000
0100
0000
,
0010
0000
0000
1000
0000
0000
0100
0000
1000
0000
0000
0000
0011
0000
0000
0000
,
0101
0000
0000
1001
0000
0000
0010
0000
1010
0000
0000
0000
1000
0000
0001
0000
,
0200
0000
0302
0100
0000
1000
0000
0200
,
0000
0000
0000
0000
0303
0000
0001
1000
,
0200
0000
0000
1300
1100
0000
0101
0000
,
0001
0000
0100
0000
0001
0010
0100
0010
0001
1000
0010
1000
0010
0000
1000
0000
,
0100
0110
1001
1001
,
1000
0000
0000
0010
0000
0000
1000
0000
0001
0000
0000
0010
0000
0000
0001
0000
,
0110
0110
1010
1010
,
0011
0011
1001
1001
,
0200
0000
0000
0000
,
0300
0000
0000
0000
;
