#TITLE:himawari;
#SUBTITLE:;
#ARTIST:RIYU KOSAKA rmx. by megawolf77;
#TITLETRANSLIT:;
#SUBTITLETRANSLIT:;
#ARTISTTRANSLIT:;
#GENRE:;
#CREDIT:;
#BANNER:;
#BACKGROUND:;
#LYRICSPATH:;
#CDTITLE:;
#MUSIC:himawari.ogg;
#OFFSET:-0.037000;
#SAMPLESTART:97.982941;
#SAMPLELENGTH:12.000000;
#SELECTABLE:YES;
#BPMS:0.000000=185.000000
,132.000000=92.500000
,140.000000=185.000000
;
#STOPS:
;
#BGCHANGES:;
#KEYSOUNDS:;
#ATTACKS:;

//---------------dance-single - ----------------
#NOTES:
     dance-single:
     :
     Hard:
     13:
     0.636968,1.044780,0.449445,0.228289,0.089176,625.000000,562.000000,63.000000,32.000000,0.000000,0.000000,0.636968,1.044780,0.449445,0.228289,0.089176,625.000000,562.000000,63.000000,32.000000,0.000000,0.000000:
// measure 0
0000
0000
0000
0000
,  // measure 1
0000
0000
0000
0000
,  // measure 2
0000
0000
0000
0000
,  // measure 3
0000
0000
0000
0000
,  // measure 4
0002
0013
0200
1300
,  // measure 5
0020
0130
0002
1003
,  // measure 6
0200
0000
0000
0000
1000
1000
1300
0000
,  // measure 7
0000
0001
0100
0010
1000
0001
0010
0100
,  // measure 8
1100
0000
0101
0000
1000
0001
0000
1000
,  // measure 9
0000
1000
0000
0010
0100
0001
0100
0010
,  // measure 10
2000
0010
0001
3010
,  // measure 11
0100
0001
0010
0001
1000
0100
0010
0001
,  // measure 12
0011
0000
1010
0000
0001
1000
0000
0001
,  // measure 13
0000
0001
0000
0100
0010
1000
0010
0100
,  // measure 14
0001
0010
0100
1000
,  // measure 15
0110
0001
0001
0000
0110
1000
1000
0000
,  // measure 16
0001
0100
1000
0100
0001
0000
1001
0000
,  // measure 17
0110
0000
1000
0010
1000
0010
0000
0000
,  // measure 18
0101
0000
0011
0000
0010
0100
1000
0000
,  // measure 19
0101
0000
0001
0010
0001
0010
0000
0000
,  // measure 20
1100
0000
1010
0000
0010
0100
0001
0000
,  // measure 21
1100
0000
0001
0100
0001
0100
0000
0000
,  // measure 22
1010
0000
1100
0000
0100
0010
0001
0000
,  // measure 23
1010
0000
0001
0010
0001
0010
0000
0100
,  // measure 24
1100
0000
0001
0101
0000
0100
0001
1000
,  // measure 25
0100
0010
0001
0000
1000
0000
0001
0100
,  // measure 26
0010
1000
0010
0100
0010
0000
1000
0100
,  // measure 27
0010
0001
0010
0000
0100
0000
1000
0001
,  // measure 28
0100
0010
0100
0001
0100
0000
0010
1000
,  // measure 29
0001
0000
0100
0000
0010
0000
1000
1000
,  // measure 30
0100
0010
0001
0000
,  // measure 31
1000
0100
0010
0001
,  // measure 32
1000
0000
0001
0000
1000
0000
0001
0000
0100
0010
0100
0010
0100
0010
0100
0010
,  // measure 33
0100
0000
0001
0001
0011
0000
0000
1000
0010
0000
0100
0001
1000
0100
0010
0001
,  // measure 34
0011
0000
1000
1000
1010
0000
0000
0100
0001
0001
0000
1000
1000
0000
0100
0010
,  // measure 35
0001
0010
0001
0010
0001
1000
0100
0010
,  // measure 36
0011
0000
1000
0010
1000
0001
0100
0010
,  // measure 37
1010
0000
0001
1000
0001
1000
0100
0010
,  // measure 38
0011
1010
0011
1001
,  // measure 39
1010
0000
0000
1000
0001
0000
0002
0000
1000
0000
0000
0000
1003
0000
0000
0000
,  // measure 40
1000
0010
0001
0010
0000
0100
0001
1000
,  // measure 41
0000
0100
0010
0001
,  // measure 42
1000
0100
0001
0100
0000
0010
0001
0010
,  // measure 43
0000
0100
1000
0000
0001
0100
0010
1000
,  // measure 44
0001
0010
1000
0010
0000
0001
0001
0002
,  // measure 45
0000
0203
2300
3020
,  // measure 46
0031
0000
1000
0010
1010
0000
0100
0001
,  // measure 47
0101
0000
0001
0010
0100
1000
0100
0001
,  // measure 48
0100
1000
0010
1000
0000
0010
0100
0001
,  // measure 49
0000
1000
0100
0010
,  // measure 50
0001
0010
1000
0010
0000
0100
1000
0001
,  // measure 51
0101
0000
0000
0000
1000
0000
0001
0000
0000
0000
0010
0100
0010
0000
0100
0000
,  // measure 52
1000
0001
0100
0010
0000
1000
0010
1000
,  // measure 53
0002
0203
2300
3020
,  // measure 54
0031
0000
1000
0010
0000
0000
0100
0000
,  // measure 55
0100
0001
0000
1000
0000
0100
0010
0000
,  // measure 56
0012
0000
1000
1000
1003
0000
0000
0001
,  // measure 57
0100
0010
1000
0000
1010
0000
0010
0000
,  // measure 58
2000
0000
0001
0001
3001
0000
0000
1000
,  // measure 59
0100
0010
0001
0000
0011
0000
0001
0100
,  // measure 60
0020
0000
1000
1000
1030
0000
0000
0001
,  // measure 61
0010
0100
1000
0000
1100
0000
0001
0000
,  // measure 62
0200
0000
0010
0010
0310
0000
1000
0010
,  // measure 63
0100
0001
0100
0010
1000
0001
1000
0010
,  // measure 64
0200
0000
0001
0301
0000
1000
0100
0000
,  // measure 65
0010
0001
0010
0100
0000
0000
1000
0100
,  // measure 66
0020
0000
0001
0031
0000
1000
0010
0000
,  // measure 67
0100
0001
0100
0010
0000
0000
0000
0000
,  // measure 68
1000
0100
0010
0001
1000
0010
0001
0010
,  // measure 69
1010
0000
0001
0100
0010
1000
0001
0010
,  // measure 70
0011
0000
1000
0010
0100
0001
1000
0100
,  // measure 71
1100
0101
1100
1001
,  // measure 72
1010
0000
1001
0000
1100
0000
0011
0000
1001
0000
0101
0000
,  // measure 73
0220
0000
0000
0330
,  // measure 74
1000
0010
0001
0010
0000
0100
0001
1000
,  // measure 75
0000
0001
0010
0100
,  // measure 76
1000
0100
0001
0100
0000
0010
0001
0010
,  // measure 77
0000
0100
1000
0000
0001
0100
0010
1000
,  // measure 78
0001
0010
1000
0010
0000
0001
0001
0002
,  // measure 79
0000
0203
2300
3020
,  // measure 80
0031
0000
1000
0010
1010
0000
0100
0001
,  // measure 81
0101
0000
1000
0100
0001
0100
1000
0010
,  // measure 82
0100
0001
0010
0001
0000
0010
0100
1000
,  // measure 83
0000
0001
0100
0010
,  // measure 84
1000
0010
0001
0010
0000
0100
0010
1000
,  // measure 85
1010
0000
0000
0000
0001
0000
0011
0000
0000
0000
0010
0100
0010
0000
1000
0000
,  // measure 86
0001
0010
0100
0010
0000
0100
1000
0010
,  // measure 87
2000
3200
0302
0023
,  // measure 88
1030
0000
0001
0010
0000
0000
0100
0000
,  // measure 89
0100
1000
0000
0001
0000
0100
0010
0000
,  // measure 90
1000
0010
1000
0010
1000
0000
0000
0000
0001
0010
0001
0010
0001
0000
0000
0000
,  // measure 91
1100
0101
1100
1001
,  // measure 92
0001
0100
1000
0100
0001
0100
0000
0010
,  // measure 93
0000
0010
0000
1000
0001
0000
0010
0000
,  // measure 94
0200
1000
0010
1300
,  // measure 95
0001
0100
0010
0100
0001
1000
0100
0010
,  // measure 96
0011
0000
1010
0000
0001
1000
0000
0010
,  // measure 97
0000
0010
0000
0100
0001
0010
0001
0000
,  // measure 98
1000
0100
0010
0100
1000
0001
0010
0001
,  // measure 99
0110
1000
1000
0000
0110
0001
0001
0000
,  // measure 100
1000
0100
0001
0100
1000
0000
0110
0000
,  // measure 101
1001
0000
0000
0000
;
