#VERSION:0.83;
#TITLE:HEISEI;
#SUBTITLE:;
#ARTIST:dj TAKA;
#TITLETRANSLIT:;
#SUBTITLETRANSLIT:;
#ARTISTTRANSLIT:;
#GENRE:ELECTRONIC RHAPSODY;
#ORIGIN:;
#CREDIT:;
#BANNER:[Week 3] - HEISEI banner.png;
#BACKGROUND:[Week 3] - HEISEI background.png;
#PREVIEWVID:;
#JACKET:[Week 3] - HEISEI jacket.png;
#CDIMAGE:;
#DISCIMAGE:;
#LYRICSPATH:;
#CDTITLE:;
#MUSIC:[Week 3] - HEISEI.ogg;
#OFFSET:-1.000000;
#SAMPLESTART:89.421051;
#SAMPLELENGTH:12.631584;
#SELECTABLE:YES;
#BPMS:0.000=152.000;
#STOPS:;
#DELAYS:;
#WARPS:;
#TIMESIGNATURES:0.000=4=4;
#TICKCOUNTS:0.000=4;
#COMBOS:0.000=1;
#SPEEDS:0.000=1.000=0.000=0;
#SCROLLS:0.000=1.000;
#FAKES:;
#LABELS:0.000=Song Start;
#BGCHANGES:;
#KEYSOUNDS:;
#ATTACKS:
;

//---------------dance-single - ----------------
#NOTEDATA:;
#CHARTNAME:;
#STEPSTYPE:dance-single;
#DESCRIPTION:;
#CHARTSTYLE:;
#DIFFICULTY:Hard;
#METER:11;
#RADARVALUES:0.411164,0.574811,0.106295,0.278003,0.126736,352.000000,339.000000,13.000000,34.000000,0.000000,0.000000,2.000000,0.000000,0.000000,0.411164,0.574811,0.106295,0.278003,0.126736,352.000000,339.000000,13.000000,34.000000,0.000000,0.000000,2.000000,0.000000,0.000000;
#CREDIT:Pandemonium X;
#NOTES:
// measure 0
0000
0000
0000
0000
,  // measure 1
0000
0000
0000
0000
,  // measure 2
0000
0000
0000
0000
,  // measure 3
0000
0000
0000
0000
,  // measure 4
2000
0000
0000
0000
,  // measure 5
3002
0000
0000
0000
,  // measure 6
0203
0000
0000
0000
,  // measure 7
0320
0000
0000
0000
0000
0000
0000
0130
,  // measure 8
1001
0000
1000
1000
0000
0001
1000
0001
,  // measure 9
0100
0000
0000
0010
0000
0000
1000
0000
,  // measure 10
0100
0000
0010
0010
0000
0100
1000
0100
,  // measure 11
0010
0000
0000
0100
0000
0100
1000
0010
,  // measure 12
0100
0000
0010
0010
0000
0100
0010
0100
,  // measure 13
0001
0000
1000
0100
0000
0000
0000
0000
,  // measure 14
0020
0031
2000
3100
,  // measure 15
2000
3002
0203
0320
,  // measure 16
0130
0001
0010
0100
,  // measure 17
0010
0000
0001
0000
1000
0000
0001
0010
,  // measure 18
0100
1000
0100
1000
,  // measure 19
0010
0000
0100
0000
0001
0000
0010
0001
,  // measure 20
1000
1100
1000
1010
,  // measure 21
0100
0000
0101
0000
0010
0000
0110
0010
,  // measure 22
0001
0000
0000
1000
0001
0000
0000
0001
1000
0000
0000
1000
0001
0000
0100
0000
,  // measure 23
0020
0000
0000
0030
,  // measure 24
1001
0000
0100
0100
0000
0001
0100
0010
,  // measure 25
1000
0000
0000
0000
0100
0000
0100
0000
0000
0000
1000
0000
0100
0000
0010
0100
,  // measure 26
0010
0000
0100
0000
0000
0010
0001
0100
,  // measure 27
0010
0000
0000
0100
0010
1000
0001
0010
,  // measure 28
0100
0000
0010
0010
0000
0100
1000
0010
,  // measure 29
0100
0000
0001
1000
0000
0000
0000
0001
,  // measure 30
0100
0000
0000
0100
0000
0000
0010
0000
1000
0000
0000
1000
0000
0000
0001
0000
,  // measure 31
0010
0000
0000
0100
0010
0000
0000
0010
0100
0000
0000
0100
0010
0000
0000
0010
,  // measure 32
0002
0000
0000
0103
0000
0001
0100
0001
,  // measure 33
1000
0100
0001
0100
1000
0001
0100
0010
,  // measure 34
0200
0002
0003
0001
,  // measure 35
0010
0000
0002
0000
0003
0000
0000
0310
,  // measure 36
2000
0000
0000
3100
0000
1000
0100
0010
,  // measure 37
0001
0010
1000
0010
0100
0010
0001
1000
,  // measure 38
0020
2000
3000
1000
,  // measure 39
0100
0000
2000
0000
3000
0000
0000
0130
,  // measure 40
0002
0000
0000
0013
0000
0100
0010
0001
,  // measure 41
0100
1000
0100
0010
1000
0001
0100
0001
,  // measure 42
0020
0200
0300
0001
,  // measure 43
0100
0000
0002
0000
0003
0000
0000
0130
,  // measure 44
2000
0000
0000
3010
0000
0100
0010
1000
,  // measure 45
0001
0010
1000
0010
0001
0010
0100
1000
,  // measure 46
0002
0200
0300
0000
,  // measure 47
0013
0000
0000
0010
0000
0000
0010
0000
0100
0000
0000
0100
0000
0000
0100
0000
,  // measure 48
2000
0000
0000
0000
,  // measure 49
3002
0203
2300
3200
,  // measure 50
0320
0000
0000
0230
,  // measure 51
0002
0000
0000
0000
0000
0000
0000
0303
,  // measure 52
1001
0000
0000
1010
0000
0000
0100
0001
,  // measure 53
1001
0000
0000
1100
0000
0000
0000
0000
,  // measure 54
1000
1000
0001
0100
0100
0001
1000
1000
,  // measure 55
0001
0100
0000
0010
1000
0000
0001
0000
1000
0100
0000
0100
1000
0000
0000
0000
,  // measure 56
1001
0000
0001
0001
0000
0100
0001
1000
,  // measure 57
0100
0000
0000
0000
0010
0000
0010
0000
0000
0000
0100
0000
0010
0000
0001
1000
,  // measure 58
0001
0000
1000
0000
0000
0010
1000
0001
,  // measure 59
0100
0000
0000
0000
0000
0000
0001
0000
0010
0000
0100
1000
0001
0000
0100
0000
,  // measure 60
0101
0000
0000
0000
0000
0000
0001
0000
0010
0000
0100
0010
0001
0000
1000
0000
,  // measure 61
1010
0000
0000
0000
0000
0000
0001
0000
0000
0000
0000
0000
0000
0000
1000
0100
,  // measure 62
0010
0000
0000
0100
0000
0100
0010
0001
,  // measure 63
1000
0100
0000
0010
0001
0000
0100
0000
0010
0000
1000
0000
0001
0000
0010
0000
,  // measure 64
0100
0000
0010
0010
0000
0100
0010
0001
,  // measure 65
1000
0000
0000
0001
0000
0000
0010
0000
,  // measure 66
0100
0000
0000
1000
0000
0100
0000
1000
,  // measure 67
0000
0000
0000
0010
0100
0000
0000
0100
0010
0000
0100
0000
0010
0000
1000
0000
,  // measure 68
0100
0000
0010
0010
0000
0100
1000
0001
,  // measure 69
0100
0000
0100
0010
0000
0000
0000
1000
,  // measure 70
0100
0000
0000
0100
0000
0000
0100
0000
0010
0000
0000
0010
0000
0000
0010
0000
,  // measure 71
0001
0000
0000
0001
0010
0000
0000
0010
0100
0000
0000
0100
1000
0000
0000
1000
,  // measure 72
0010
0010
0100
0001
1000
1000
0001
1000
,  // measure 73
0400
0040
0000
0000
0000
0000
0000
0000
0000
0000
0000
0000
0000
0000
0000
0000
,  // measure 74
0330
0000
0000
0000
;

//---------------dance-single - ----------------
#NOTEDATA:;
#CHARTNAME:;
#STEPSTYPE:dance-single;
#DESCRIPTION:;
#CHARTSTYLE:;
#DIFFICULTY:Medium;
#METER:8;
#RADARVALUES:0.290852,0.514305,0.253473,0.261650,0.000000,249.000000,218.000000,31.000000,32.000000,0.000000,0.000000,0.000000,0.000000,0.000000,0.290852,0.514305,0.253473,0.261650,0.000000,249.000000,218.000000,31.000000,32.000000,0.000000,0.000000,0.000000,0.000000,0.000000;
#CREDIT:Pandemonium X;
#NOTES:
0000
0000
0000
0000
,
0000
0000
0000
0000
,
0000
0000
0000
0000
,
0000
0000
0000
0000
,
0000
0000
0000
0000
,
0000
0000
0000
0000
,
0000
0000
0000
0000
,
0000
0000
0000
0000
,
1010
0000
0000
0010
0000
0000
0100
0000
,
0101
0000
0000
0010
0000
0000
0100
0000
,
1100
0000
0000
0100
0000
0000
1000
0000
,
1001
0000
0000
0001
0000
0000
0100
0000
,
0110
0000
0000
0010
0000
0000
1000
0000
,
1100
0000
0000
0100
0000
0000
1000
0000
,
0002
0103
0020
1030
,
0002
1003
0020
0130
,
1001
0001
0100
0001
,
0010
0000
0100
0000
1000
0000
0100
1000
,
0010
0100
0001
0010
,
0100
0000
0010
0000
0001
0000
1000
0001
,
0100
1000
0100
0001
,
0100
0000
1000
0000
0100
0000
0010
1000
,
0001
0010
1000
0010
,
0022
0000
0000
0033
,
1000
0001
0000
0100
,
0001
0000
0000
0100
0000
0000
0100
0000
,
0001
1000
0000
1000
,
0001
0000
0100
0010
,
1000
0000
0001
0010
0000
0000
0100
0000
,
0010
0000
0001
1000
0000
0000
0000
1000
,
0001
0100
0001
0010
,
0100
1000
0100
0010
,
2000
0000
0000
3001
0000
0000
0010
0000
,
0200
0000
0000
1300
0000
0000
0100
0000
,
1000
0202
0000
0303
,
0000
2020
0000
3030
,
0002
0000
0000
0013
0000
0000
0100
0000
,
0020
0000
0000
0031
0000
0000
1000
0000
,
0001
0220
0000
0330
,
0000
2002
0000
3003
,
2000
0000
0000
3100
0000
0000
1000
0000
,
0020
0000
0000
0130
0000
0000
0001
0000
,
0010
2200
0000
3300
,
0000
0022
0000
0033
,
2000
0000
0000
3001
0000
0000
0100
0000
,
0002
0000
0000
0013
0000
0000
0100
0000
,
1000
2020
0000
3030
,
1000
0000
0001
0000
,
2000
0000
0000
0000
,
3001
0010
1000
0010
,
0200
0000
0000
0010
,
0020
0000
0000
0330
,
1001
0000
0000
1010
0000
0000
0000
0000
,
1001
0000
0000
0011
0000
0000
0000
0000
,
0001
0010
0100
1000
,
1001
0101
1010
1100
,
0011
0010
0000
0001
,
0100
0000
0010
1000
0000
0000
0100
0010
,
0001
1000
0000
0001
,
1000
0000
0000
0001
1000
0000
0100
0010
,
0001
0000
0000
0001
0010
0000
0100
1000
,
0001
0000
0000
1000
0000
0000
0000
0010
,
1000
0000
0000
0100
0000
0010
0100
1000
,
0001
1000
0010
0100
,
0101
0000
0100
0010
0000
0100
0010
0001
,
1000
0000
0000
0100
0000
0000
0010
0000
,
0100
0000
0000
1000
0000
0001
0000
0100
,
0000
0000
0000
0000
0000
0001
0100
0010
,
1000
0000
0001
0001
0000
1000
0100
0010
,
0001
0000
0010
0001
0000
0000
0000
0000
,
1001
0100
1001
0010
,
1001
0110
1001
0110
,
1000
0010
0010
1000
0100
0010
0001
0100
,
0020
0000
0000
0000
,
0030
0000
0000
0000
;

//---------------dance-single - ----------------
#NOTEDATA:;
#CHARTNAME:;
#STEPSTYPE:dance-single;
#DESCRIPTION:;
#CHARTSTYLE:;
#DIFFICULTY:Easy;
#METER:5;
#RADARVALUES:0.188061,0.272279,0.008177,0.081765,0.000000,161.000000,160.000000,1.000000,10.000000,0.000000,0.000000,0.000000,0.000000,0.000000,0.188061,0.272279,0.008177,0.081765,0.000000,161.000000,160.000000,1.000000,10.000000,0.000000,0.000000,0.000000,0.000000,0.000000;
#CREDIT:Pandemonium X;
#NOTES:
0000
0000
0000
0000
,
0000
0000
0000
0000
,
0000
0000
0000
0000
,
0000
0000
0000
0000
,
0000
0000
0000
0000
,
0000
0000
0000
0000
,
0000
0000
0000
0000
,
0000
0000
0000
0000
,
1000
0000
0000
0000
,
0001
0000
0000
0000
,
0100
0000
0000
0000
,
0010
0000
0000
0000
,
1000
0000
0000
0000
,
0100
0000
0000
0000
,
1000
0000
0001
0000
,
0100
0000
0010
0000
,
1001
0001
1000
0000
,
0001
0100
0010
1000
,
0100
0010
0100
0000
,
0010
0001
1000
0100
,
1000
0010
0000
0100
,
0000
0001
0000
1000
,
0001
0100
1000
0100
,
0001
0000
0000
0000
,
1000
0100
0000
1000
,
0010
0100
0000
0010
,
0100
0001
0000
1000
,
0001
0000
0010
0100
,
1000
0100
0000
1000
,
0001
0100
0000
0000
,
0010
0000
0100
0000
,
0001
1000
0010
0100
,
0001
0000
0000
0001
0000
0000
0001
0000
,
1000
0000
0000
1000
0000
0000
1000
0000
,
0010
0200
0300
0000
,
0000
0200
0300
0000
,
0010
0000
0000
0010
0000
0000
1000
0000
,
0001
0000
0000
0001
0000
0000
1000
0000
,
0100
2000
3000
0000
,
0000
2000
3000
0000
,
0001
0000
0000
1000
0000
0000
0010
0000
,
1000
0000
0000
0100
0000
0000
0010
0000
,
0001
0200
0300
0000
,
0000
0200
0300
0000
,
0010
0000
0000
1000
0000
0000
0001
0000
,
0010
0000
0000
0001
0000
0000
1000
0000
,
0100
0020
0030
0000
,
0100
0000
0010
0000
,
0001
0000
0000
0000
,
1000
0100
0010
0001
,
1000
0000
0000
0001
,
2000
0000
0000
0000
,
3001
0000
0000
0001
0000
0000
0000
0000
,
1000
0000
0000
1000
0000
0000
0000
0000
,
0010
0000
0000
0100
0000
0000
0010
0000
,
1000
0010
0100
0001
,
1000
0001
0000
0010
,
0001
1000
0000
0100
,
1000
0001
0000
0100
,
0001
0000
0010
0100
,
1000
0000
0100
0010
,
0001
0000
0000
0000
,
1000
0000
0001
0000
,
0200
0000
0000
0300
,
0010
1000
0000
0010
,
0100
0001
0010
0100
,
1000
0000
0100
1000
,
0010
0000
0000
0100
,
0001
1000
0000
0001
,
1000
0010
0000
0000
,
0100
0000
0010
0000
,
1000
0001
0010
0100
,
1000
1000
0001
0001
,
0200
0000
0000
0000
,
0300
0000
0000
0000
;

//---------------dance-single - ----------------
#NOTEDATA:;
#CHARTNAME:;
#STEPSTYPE:dance-single;
#DESCRIPTION:;
#CHARTSTYLE:;
#DIFFICULTY:Beginner;
#METER:2;
#RADARVALUES:0.126152,0.211773,0.106295,0.000000,0.000000,108.000000,95.000000,13.000000,0.000000,0.000000,0.000000,0.000000,0.000000,0.000000,0.126152,0.211773,0.106295,0.000000,0.000000,108.000000,95.000000,13.000000,0.000000,0.000000,0.000000,0.000000,0.000000,0.000000;
#CREDIT:Pandemonium X;
#NOTES:
0000
0000
0000
0000
,
0000
0000
0000
0000
,
0000
0000
0000
0000
,
0000
0000
0000
0000
,
0000
0000
0000
0000
,
0000
0000
0000
0000
,
0000
0000
0000
0000
,
0000
0000
0000
0000
,
0010
0000
0000
0000
,
0100
0000
0000
0000
,
0001
0000
0000
0000
,
1000
0000
0000
0000
,
0100
0000
0000
0000
,
1000
0000
0000
0000
,
0010
0000
0000
0000
,
0100
0000
0000
0000
,
1001
0000
0000
0000
,
0000
0000
0000
0000
,
1000
0000
0000
0000
,
0001
0000
0000
0000
,
0100
0000
0000
0000
,
0010
0000
0000
0000
,
1000
0000
0001
0000
,
0110
0000
0000
0000
,
1000
1000
0000
0000
,
0001
0001
0000
0100
,
0100
0000
0000
0010
,
0010
0000
1000
0000
,
0001
0000
0000
0000
,
1000
0000
0000
0000
,
0100
0000
1000
0000
,
0010
0000
0100
0000
,
1001
0000
0000
0000
,
0001
0000
0000
0000
,
1000
0001
0000
0000
,
1000
0001
0000
0000
,
0110
0000
0000
0000
,
0100
0000
0010
0000
,
1000
0100
0000
0000
,
1000
0100
0000
0000
,
1001
0000
0000
0000
,
0001
0000
1000
0000
,
0010
0100
0000
0000
,
0010
0100
0000
0000
,
1001
0000
0000
0000
,
0100
0000
0010
0000
,
0100
0010
0000
0000
,
0100
0000
0010
0000
,
1000
0000
0000
0000
,
0000
0000
0000
0000
,
0000
0000
0000
0000
,
0000
0000
0000
0000
,
1001
0000
0000
0000
,
1001
0000
0000
0000
,
0010
0000
0000
0000
,
0100
0000
0010
0000
,
1001
1000
0000
0001
,
0001
0000
0000
1000
,
1000
0000
0000
0010
,
0010
0000
0100
0000
,
1001
0000
0010
0000
,
0100
0000
0000
0000
,
0001
0000
1000
0000
,
0100
0000
0000
0000
,
1001
0000
1000
0000
,
0010
0000
0000
0000
,
0100
0000
0001
0000
,
0100
0000
0000
0000
,
0110
0000
0000
0000
,
0010
0000
0000
0000
,
1000
0000
1000
0000
,
0001
0000
0001
0000
,
0100
0000
0010
0000
,
0100
0000
0000
0000
,
1001
0000
0000
0000
;
