#TITLE:GIGANT;
#SUBTITLE:;
#ARTIST:seiya-murai;
#TITLETRANSLIT:;
#SUBTITLETRANSLIT:;
#ARTISTTRANSLIT:;
#GENRE:;
#CREDIT:;
#MUSIC:[Week 3] - GIGANT.ogg;
#BANNER:;
#BACKGROUND:;
#CDTITLE:;
#SAMPLESTART:1.626;
#SAMPLELENGTH:15.000;
#SELECTABLE:YES;
#OFFSET:0.079;
#BPMS:0.000=140.000;
#STOPS:;
#BGCHANGES:;
#FGCHANGES:;

//--------------- dance-single - forcednature ----------------
#NOTES:
     dance-single:
     forcednature:
     Beginner:
     3:
     0,0,0,0,0:
0000
0000
0000
0000
,
0010
0000
0000
0000
0000
0000
0000
0100
0000
0000
0000
0000
,
0010
0000
0000
0000
0000
0000
0000
0100
0000
0000
0000
0000
,
0010
0000
0100
0000
,
1000
0000
0001
0000
,
1000
0000
0000
0000
0000
0000
0000
0001
0000
0000
0000
0000
,
1000
0000
0000
0000
0000
0000
0000
0001
0000
0000
0000
0000
,
1000
0000
0001
0000
,
0100
0000
0010
0000
,
2002
0000
3003
0000
,
1000
0000
0010
0000
,
1000
0000
0100
0000
,
0010
0000
0010
0000
,
0001
1000
0001
0000
,
0100
0000
0001
0000
,
0010
0000
0001
0000
,
0100
0001
0100
0000
,
0010
0000
0010
0000
,
1000
0000
0100
0000
,
1000
0000
0010
0000
,
0100
0100
0010
0000
,
0100
0100
0010
0000
,
0001
0000
0100
0000
,
0001
0000
0010
0000
,
0100
0100
0010
0000
,
0100
0100
0010
0000
,
0001
0000
0000
0000
0000
0000
0000
1000
0000
0000
0000
0000
,
0001
0000
0000
0000
0000
0000
0000
1000
0000
0000
0000
0000
,
0001
0000
1000
0000
,
0010
0000
0100
0000
,
0010
0000
0000
0000
0000
0000
0000
0100
0000
0000
0000
0000
,
0010
0000
0000
0000
0000
0000
0000
0100
0000
0000
0000
0000
,
0001
0000
1000
0000
,
0100
0000
0010
0000
,
0001
0000
1000
0000
,
0001
0000
0000
0000
,
0100
0000
0010
0000
,
0100
0000
0000
0000
,
0001
0000
0010
0000
,
0100
0000
0000
0000
,
1000
0000
0010
0000
,
0100
0000
0000
0000
,
0001
0000
0000
0000
1000
0000
0000
0000
0100
0000
0000
0000
,
0010
0000
0000
0000
0001
0000
0000
0000
1000
0000
0000
0000
,
0010
0000
0000
0000
0100
0000
0000
0000
0001
0000
0000
0000
,
1000
0000
0000
0000
0100
0000
0000
0000
0001
0000
0000
0000
,
0100
0000
0000
0000
0000
0000
0000
1000
0000
0000
0000
0000
,
0001
0000
0000
0000
0000
0000
0000
1000
0000
0000
0000
0000
,
0010
0000
0000
0000
0100
0000
0000
0000
0001
0000
0000
0000
,
1000
0000
0000
0000
0100
0000
0000
0000
0010
0000
0000
0000
,
0001
0000
0000
0000
0000
0000
0000
1000
0000
1000
0000
1000
,
0000
0000
0000
0000
0000
0000
0000
0001
0000
0001
0000
0001
,
0000
0000
0000
0000
0000
0000
0000
0100
0000
0100
0000
0100
,
0000
0000
0000
0000
0000
0000
0010
0000
0010
0000
0010
0000
,
0000
0000
0000
0000
0000
0000
0000
1000
0000
1000
0000
1000
,
0000
0000
0000
0000
0000
0000
0000
0001
0000
0001
0000
0001
,
0000
0000
0000
0000
0000
0000
0000
0100
0000
0100
0000
0100
,
0000
0000
0000
0000
0000
0000
0010
0000
0010
0000
0010
0000
,
0010
0000
0000
0000
;

//--------------- dance-single - forcednature ----------------
#NOTES:
     dance-single:
     forcednature:
     Easy:
     6:
     0,0,0,0,0:
0000
0000
0000
0000
,
1000
0000
0000
0000
0001
0000
0000
0100
0000
0000
0000
0000
,
0010
0000
0000
0000
1000
0000
0000
0001
0000
0000
0000
0000
,
0010
0000
0000
0000
0100
0000
0000
0000
1000
0000
0000
0000
,
0001
0100
0001
1000
,
0100
0000
0000
0000
0010
0000
0000
0001
0000
0000
0000
0000
,
1000
0000
0000
0000
0010
0000
0000
0100
0000
0000
0000
0000
,
0001
1000
0100
1000
,
0010
0100
0001
0100
,
2002
0000
0000
0000
0000
0000
0000
0000
0000
0000
3003
0000
,
1000
0100
1000
0010
,
1000
0100
0010
0001
,
0100
0000
0100
0000
0000
0000
0100
0000
0100
0000
0000
0000
,
0001
1000
0100
1000
,
0001
0100
0001
1000
,
0001
0100
0001
1000
,
0100
0000
0100
0000
0000
0000
0100
0000
0100
0000
0000
0000
,
1000
0010
1000
0001
,
0010
1000
0010
0001
,
0010
1000
0010
0001
,
0100
0010
0100
0010
,
0100
0010
0100
0010
,
0100
1000
0100
0001
,
0100
1000
0100
0001
,
0100
0010
0100
0010
,
0100
0010
0100
0010
,
1000
0000
0000
0000
0001
0000
0000
0010
0000
0000
0000
0000
,
0100
0000
0000
0000
1000
0000
0000
0010
0000
0000
0000
0000
,
0100
0001
1000
0010
,
1000
0001
0100
0010
,
1000
0000
0000
0000
0100
0000
0000
0010
0000
0000
0000
0000
,
0001
0000
0000
0000
0100
0000
0000
0010
0000
0000
0000
0000
,
1000
0001
0010
0100
,
0010
1000
0010
0001
,
0002
0000
0100
0000
,
2000
0000
0000
3003
,
2000
0000
0010
0000
,
0002
0000
3003
0000
,
0001
0000
0010
0000
,
0100
1000
0010
0000
,
0100
0001
0010
0001
,
1000
0001
0100
0000
,
0001
0000
1000
0000
0001
0000
1000
0000
0001
0000
1000
0000
,
0010
0000
0100
0000
0010
0000
0100
0000
0010
0000
0100
0000
,
0001
0000
1000
0000
0001
0000
1000
0000
0001
0000
1000
0000
,
0100
0000
0010
0000
0100
0000
0010
0000
0100
0000
0010
0000
,
0001
0000
0010
0000
0100
0000
1000
0000
0100
0000
0010
0000
,
0001
0000
0100
0000
0010
0000
1000
0000
0010
0000
0100
0000
,
0001
0000
1000
0000
0100
0000
0010
0000
0001
0000
1000
0000
,
0010
0000
0100
0000
0001
0000
1000
0000
0010
0000
0100
0000
,
1001
0000
0000
0000
0000
0000
0000
0110
0000
0110
0000
0110
,
0000
0000
0000
0000
0000
0000
0000
0110
0000
0110
0000
0110
,
0000
0000
0000
0000
0000
0000
0000
0110
0000
0110
0000
0110
,
0000
0000
0000
0000
0000
0000
0010
0000
0010
0000
0010
0000
,
0100
0000
0000
0000
0000
0000
0000
1001
0000
1001
0000
1001
,
0000
0000
0000
0000
0000
0000
0000
1001
0000
1001
0000
1001
,
0000
0000
0000
0000
0000
0000
0000
1001
0000
1001
0000
1001
,
0000
0000
0100
0000
0010
0000
1000
0000
0100
0000
0010
0000
,
1001
0000
0000
0000
;

//--------------- dance-single - forcednature ----------------
#NOTES:
     dance-single:
     forcednature:
     Medium:
     8:
     0,0,0,0,0:
0000
0000
0000
0000
,
1000
0000
0001
0000
0100
0000
0010
1000
0000
1000
0000
1000
,
0100
0000
0010
0000
0001
0000
1000
0001
0000
0001
0000
0001
,
0100
0000
0010
0000
1000
0000
0100
0000
0010
0000
0001
0000
,
0101
1000
1100
0001
,
1000
0000
0001
0000
0010
0000
0100
1000
0000
1000
0000
1000
,
0010
0000
0100
0000
0001
0000
1000
0100
0000
0100
0000
0100
,
0010
0000
0001
0000
1000
0000
0010
0000
0100
0000
0001
0000
,
0101
1000
1100
0001
,
2002
0000
0000
0000
0000
0000
0000
3003
,
1000
0000
0000
1000
0000
0100
0010
0000
0000
0001
0000
0100
,
0010
0000
0000
1000
0000
0100
0010
0000
0000
0001
0000
0000
,
0110
0000
0001
1000
0000
0000
0110
0000
1000
0001
0000
0000
,
0100
0000
0000
0010
0100
0010
0100
0000
0000
1001
0000
0000
,
1000
0000
0000
0100
0010
0001
0100
0000
0000
0010
1000
0100
,
0010
0000
0000
0001
0100
0010
1000
0000
0000
0001
0000
0000
,
0110
0000
1000
0001
0000
0000
0110
0000
0001
1000
0000
0000
,
0100
0010
0100
0010
0000
0000
1000
0001
1000
0001
0000
0000
,
1000
0000
0100
0000
0010
0000
0001
0000
0100
0000
0010
0000
,
1000
0000
0000
0000
0001
0100
0010
0000
0000
0000
0000
0000
,
0101
1001
1100
1001
,
1010
1001
0011
1001
,
1000
0000
0010
0000
1000
0000
0100
0000
0010
0000
0001
0000
,
0100
0000
0000
0000
0010
1000
0010
0000
0000
0000
0000
0000
,
1010
1001
0101
1001
,
1100
0110
0011
0110
,
1000
0000
0001
0000
0100
0000
0010
1000
0000
1000
0000
1000
,
0100
0000
0010
0000
0001
0000
1000
0001
0000
0001
0000
0001
,
0100
0000
0010
0000
1000
0000
0001
0000
0010
0000
0100
0000
,
0110
1000
0110
0001
,
0001
0000
0100
0000
0010
0000
1000
0100
0000
0100
0000
0100
,
0010
0000
0001
0000
1000
0000
0010
0100
0000
0100
0000
0100
,
0001
0000
1000
0000
0100
0000
0010
0000
0001
0000
0100
0000
,
0110
1000
0110
0001
,
1000
0000
0001
0000
,
0100
0001
0010
0000
,
0100
1000
0010
0100
,
1000
0000
0100
0000
,
0001
0000
0000
0000
1000
0100
0010
0000
0000
0000
0000
0000
,
0001
0000
1000
0001
0000
0100
0010
0000
0000
0000
0000
0000
,
1000
0100
0010
0001
,
0100
0000
0010
0100
0000
0001
1000
0000
0100
0010
0000
0000
,
0001
0000
0100
0000
0001
0000
1000
0000
0100
0000
1000
0000
,
0010
0000
0100
0000
0001
0000
0100
0000
1000
0000
0100
0000
,
0010
0000
1000
0000
0100
0000
0001
0000
0100
0000
0010
0000
,
0001
0000
1000
0000
0010
0000
0100
0000
1000
0000
0001
0000
,
0010
0000
0100
0000
0001
0000
1000
0000
0100
0000
0010
0000
,
1000
0000
0001
0000
0100
0000
0010
0000
0001
0000
1000
0000
,
0010
0000
0100
0000
0001
0000
0010
0000
1000
0000
0010
0000
,
0001
0000
1000
0000
0010
0000
0100
0000
0001
0000
0100
0000
,
0220
0000
0000
0000
0000
0330
0000
1001
0000
0110
0000
1001
,
0220
0000
0000
0000
0000
0330
0000
1001
0000
0110
0000
1001
,
0220
0000
0000
0000
0000
0330
0000
1001
0000
0110
0000
1001
,
0220
0000
0000
0000
0000
0330
1000
0001
1000
0001
1000
0001
,
2002
0000
0000
0000
0000
3003
0000
0110
0000
1001
0000
0110
,
2002
0000
0000
0000
0000
3003
0000
0110
0000
1001
0000
0110
,
2002
0000
0000
0000
0000
3003
0000
0110
0000
1001
0000
0110
,
2002
0000
0000
0000
0000
3003
1000
0001
1000
0001
1000
0001
,
0100
0000
0000
0000
;

//--------------- dance-single - forcednature ----------------
#NOTES:
     dance-single:
     forcednature:
     Hard:
     11:
     0,0,0,0,0:
0000
0000
0000
0000
,
1000
0010
1000
0100
0010
0001
0100
0010
0000
0100
0000
0001
,
1000
0100
0010
0001
1000
0010
1000
0001
0000
0010
0000
0001
,
1000
0100
0010
0100
1000
0001
1000
0010
0100
0001
1000
0001
,
0101
0000
0000
1001
0000
0000
1100
0000
1000
0001
0000
0000
,
1000
0100
0010
0100
1000
0001
0010
0001
0000
1000
0000
0001
,
0100
0001
1000
0010
0100
0010
1000
0001
0000
1000
0000
0100
,
0010
0001
1000
0010
1000
0001
0010
0001
0100
0010
1000
0100
,
1100
0000
0000
0101
0000
0000
1000
0000
0001
0100
0000
0000
,
0110
0000
0000
0000
0000
0000
0001
1000
0001
1000
0001
1000
,
0001
0000
0001
0010
0001
1000
0001
0000
0001
0100
0001
1000
,
0001
0000
0001
0010
0001
1000
0001
0000
0000
1001
0000
0000
,
1000
0000
1000
0100
0000
0000
0001
0000
0001
0100
0000
0000
,
1000
0000
0000
0010
0100
0010
0100
0000
0000
1001
0000
0000
,
1000
0000
1000
0100
1000
0001
1000
0000
1000
0010
1000
0001
,
1000
0000
1000
0100
1000
0001
1000
0000
1000
0010
0000
0000
,
0100
0000
0100
0010
0000
0000
0010
0000
0010
0100
0000
0000
,
1000
0000
0001
1000
0001
0100
0010
1000
0100
0010
0001
0100
,
0010
0000
1000
0000
0001
0000
0100
0000
0010
0000
1000
0000
,
0100
0000
0100
0010
0001
0100
0010
0000
0010
1000
0100
0010
,
0100
1000
0010
0100
0001
0010
0001
1000
0010
1000
0001
0010
,
0001
1000
0100
1000
0001
0100
0001
0010
0100
1000
0100
0010
,
0001
0000
1000
0000
0010
0000
0100
0000
0001
0000
0010
0000
,
0100
0000
1000
0010
0100
0001
1000
0000
0100
0010
0001
0100
,
0010
1000
0100
0010
0001
0100
0010
1000
0100
0010
0001
0100
,
0001
0010
0100
1000
0010
0100
0001
0010
0100
1000
0010
0100
,
0001
1000
0010
1000
0001
0010
0001
0011
0000
1001
0000
1010
,
1000
0100
0010
0001
0100
0010
1000
1100
0000
1001
0000
0101
,
0001
0010
0100
1000
0010
0100
0001
1000
0100
0010
0001
1000
,
1010
0000
0000
1001
0000
0000
0101
0000
0010
0100
0000
0000
,
0001
0010
0100
1000
0001
0100
0010
0110
0000
1010
0000
1001
,
1000
0100
0010
0001
1000
0001
0100
0101
0000
1001
0000
1100
,
1000
0001
0010
0001
1000
0010
1000
0001
0100
0001
1000
0100
,
1100
0000
0000
1001
0000
0000
0011
0000
0001
0100
0000
0000
,
0020
0000
0000
0000
0000
0000
0000
0000
0000
0000
0000
0000
0000
0000
0000
0030
1000
0000
0000
0000
0100
0000
0000
0000
0020
0000
0000
0000
0000
0000
0000
0000
0000
0000
0000
0000
0000
0000
0000
0000
0000
0000
0030
0000
0001
0000
0000
0000
,
0020
0000
0000
0000
0000
0000
0000
0000
0000
0030
0000
0000
0002
0000
0000
0000
0000
0000
0003
0000
0010
0000
0000
0000
0200
0000
0000
0000
0000
0000
0000
0000
0000
0000
0000
0000
0000
0000
0000
0000
0000
0000
0000
0000
0000
0300
0000
0000
,
2000
0000
0000
0000
0000
0000
0000
0000
0000
3000
0000
0000
0010
0000
0000
0000
0100
0000
0000
0000
0001
0000
0000
0000
0200
0000
0000
0000
0000
0000
0000
0000
0000
0300
0000
0000
0020
0000
0000
0000
0000
0000
0030
0000
1000
0000
0000
0000
,
0200
0000
0000
0000
0000
0000
0000
0000
0000
0300
0000
0000
1000
0000
0000
0000
0100
0000
0000
0000
0010
0000
0000
0000
0200
0000
0000
0000
0000
0000
0000
0000
0000
0300
0000
0000
0020
0000
0000
0000
0000
0000
0000
0000
0000
0030
0000
0000
,
0002
0000
0000
0000
0000
0000
0000
0000
0000
0003
0000
0000
1000
0000
0000
0000
0010
0000
0000
0000
0100
0000
0000
0000
0002
0000
0000
0000
0000
0000
0000
0000
0000
0000
0000
0000
0000
0000
0000
0000
0000
0000
0003
0000
1000
0000
0000
0000
,
0200
0000
0000
0000
0000
0000
0000
0000
0000
0300
0000
0000
0020
0000
0000
0000
0000
0000
0030
0000
0001
0000
0000
0000
0020
0000
0000
0000
0000
0000
0000
0000
0000
0000
0000
0000
0000
0000
0000
0000
0000
0000
0000
0000
0000
0030
0000
0000
,
0002
0000
0000
0000
0000
0000
0000
0000
0000
0003
0000
0000
1000
0000
0000
0000
0010
0000
0000
0000
0100
0000
0000
0000
0002
0000
0000
0000
0000
0000
0000
0000
0000
0003
0000
0000
0200
0000
0000
0000
0000
0000
0300
0000
0010
0000
0000
0000
,
2000
0000
0000
0000
0000
0000
0000
0000
0000
0000
0000
0000
3000
0000
0000
0000
0100
0000
0000
0000
0010
0000
0000
0000
0200
0000
0000
0000
0000
0000
0000
0000
0000
0000
0000
0000
0000
0000
0000
0000
0000
0000
0000
0000
0000
0300
0000
0000
,
0010
0001
1000
0010
1000
0000
1010
0000
1001
0000
0101
0000
,
0001
0010
0100
1000
0100
0010
0001
1000
0001
0100
0010
1000
,
0001
1000
0010
0100
0001
0000
0011
0000
1001
0000
1100
0000
,
1000
0001
0100
0010
1000
0100
0010
0001
1000
0010
0100
0001
,
0010
0100
1000
0001
0100
0010
1000
0100
0000
0100
0000
0100
,
0010
0001
1000
0100
1000
0001
0010
0100
0000
0100
0000
0100
,
1000
0010
1000
0001
0010
0001
1000
0100
0000
0100
0000
0100
,
0010
0001
1000
0010
1000
0001
0010
0001
2000
0000
0010
3000
,
1001
0000
1000
0000
0010
0000
0100
0101
0000
0101
0000
0101
,
1001
0000
0010
0000
0100
0000
1000
1010
0000
1010
0000
1010
,
1001
0000
0100
0000
0010
0000
0001
0101
0000
0101
0000
0101
,
1001
0000
0100
0000
0010
1000
0100
0010
0001
1000
0010
1000
,
1001
0000
1000
0000
0010
0000
1000
1100
0000
1100
0000
1100
,
1001
0000
0001
0000
0100
0000
0010
1010
0000
1010
0000
1010
,
1001
0000
0100
0000
0010
0000
0001
0011
0000
0011
0000
0011
,
1001
1000
0010
0100
0001
0010
0100
1000
0010
0100
0001
0010
,
0100
0000
0000
0000
;

//--------------- dance-single - forcednature ----------------
#NOTES:
     dance-single:
     forcednature:
     Challenge:
     14:
     0,0,0,0,0:
0000
0000
0000
0000
,
1000
0010
0100
1000
0100
0001
0010
0110
0000
1001
0000
0110
,
0001
1000
0010
0100
0001
1000
0010
1010
0000
0101
0000
1010
,
1000
0100
0010
0100
0010
0001
1000
0010
0001
1000
0100
0001
,
0011
0000
0000
1100
0000
0000
1001
0000
1000
1010
0000
0000
,
1000
0100
0001
0100
1000
0010
0100
0110
0000
1001
0000
0110
,
0100
0001
1000
0010
0100
0001
0010
0110
0000
1001
0000
0110
,
1000
0010
0001
1000
0100
0001
1000
0100
0001
1000
0010
0001
,
1001
0000
0001
1000
0001
1000
0001
0000
1000
0000
0100
0000
0010
0000
0001
0000
0100
0000
0010
0000
1000
0000
0100
0000
,
0220
0000
0000
0000
0000
0300
0100
0100
0100
0100
0100
0130
,
1000
0000
1000
0010
0100
0001
0010
0000
1000
0010
0001
1000
,
0010
0000
0000
0000
0100
0000
1000
0000
0100
0000
0001
0000
1000
0000
0000
0000
0100
0000
0010
0000
0000
0000
0100
1000
,
0100
0000
0001
1001
0000
0000
0110
0000
1000
1001
0000
0000
,
0110
0000
0000
0000
0000
0000
0001
0000
1000
0000
0001
0000
1000
0000
0000
0001
1000
0001
1000
0000
0010
0000
0100
0000
,
0001
0000
0100
0001
1000
0010
0001
0000
0010
1000
0100
0010
,
1000
0000
0000
0000
0010
0000
0001
0000
1000
0000
0010
0000
0100
0000
0000
0000
0001
0000
0100
0000
0000
0000
0001
1000
,
0001
0000
0100
0110
0000
0000
1001
0000
0010
0110
0000
0000
,
1001
0000
0000
0000
0000
0000
0100
0000
0010
0000
0100
0000
0010
0000
1000
0001
1000
0000
0001
0000
0010
0000
0100
0000
,
1000
0000
0010
0000
0100
0000
1000
0000
0001
0000
0010
0000
,
0200
0000
0000
0300
0001
1000
0002
0000
0000
0000
0003
0000
,
1000
0100
0001
1000
0010
0001
1000
0010
0001
1000
0100
0001
,
1000
0010
0100
1000
0001
0010
0100
0001
1000
0100
0010
1000
,
0001
0000
0100
0000
0010
0000
0001
0000
1000
0000
0010
0000
,
0200
0000
0000
0300
0001
1000
0002
0000
0000
0000
0003
0000
,
1000
0100
0001
1000
0010
0001
1000
0010
0001
1000
0100
0001
,
1000
0000
0100
1000
0100
0000
0010
0000
0001
0000
1000
0000
0010
0000
0100
0001
0100
0000
0010
0000
1000
0000
0100
0000
,
0010
0100
0001
1000
0010
0100
1000
1001
0000
0110
0000
1001
,
1000
0010
0100
1000
0001
0010
0100
0101
0000
1010
0000
0101
,
0001
0100
0010
0001
1000
0100
0010
1000
0001
0010
0100
1000
,
1100
0000
0000
0011
0000
0000
0110
0000
0001
1001
0000
0000
,
0001
0100
1000
0100
0010
1000
0100
0110
0000
1001
0000
0110
,
1000
0100
0001
0100
0010
1000
0010
0011
0000
1100
0000
0011
,
0001
0100
0010
0001
0010
1000
0001
0010
0100
1000
0010
1000
,
1001
0000
0001
1000
0001
1000
0001
0000
1000
0000
0100
0000
1000
0000
0001
0000
0100
0000
0110
0000
0000
0000
0000
0000
,
2000
0000
0000
3000
0010
0100
2000
0000
0000
0000
3000
0001
,
0020
0000
0030
2000
3000
0100
0002
0000
0000
0000
0003
0000
,
1200
0000
0300
1000
0001
1000
0020
0000
0030
0200
0300
1000
,
0002
0000
0000
0003
0010
1000
0200
0000
0300
0002
0000
0003
,
2000
0000
0000
3000
0010
0001
0200
0000
0000
0000
0300
1000
,
0200
0000
0300
0002
0003
1000
0200
0000
0000
0000
0300
0000
,
0021
0000
0030
0001
0100
0010
2000
0000
3000
0200
0300
0001
,
2000
0000
0000
3000
0010
0001
0200
0000
0000
0000
0000
0000
,
0301
0010
1000
0010
0100
1000
0001
0100
1000
0100
0010
1000
,
0100
0001
0100
1000
0100
0001
0100
1000
0010
0100
1000
0001
,
0010
0100
0001
1000
0100
0001
0100
0010
1000
0010
0001
1000
,
0010
0000
0100
0000
0001
0000
1000
0000
0100
0000
0001
0000
0100
0000
1000
0000
0100
0010
0100
0010
0100
0000
1000
0000
,
0010
0100
1000
0001
0010
0100
0001
1001
0000
1001
0000
1001
,
0001
1000
0001
0010
1000
0010
0100
0110
0000
0110
0000
0110
,
1000
0100
0010
0001
0100
0010
1000
1001
0000
1001
0000
1001
,
0001
0000
0100
0000
1000
0000
0100
0000
0010
0000
1000
0000
0100
0010
0100
0010
0100
0000
1000
0000
0001
0000
0100
0000
,
0101
0001
1000
0100
0001
0100
1000
0020
0000
0001
0000
1030
,
0010
0100
1000
0001
0010
0100
0001
0200
0000
1000
0000
0301
,
0100
0010
1000
0001
0100
1000
0001
0020
0000
1000
0000
0031
,
0010
0000
0100
0000
0001
0000
1000
0000
0100
0000
0001
0000
0100
0010
0100
0010
0100
0000
1000
0000
0100
0000
0010
0000
,
0011
0001
1000
0100
0001
0100
0010
0002
0000
0010
0000
0103
,
0001
0010
0001
0100
1000
0100
0001
2000
0000
0100
0000
3010
,
1000
0100
0001
0100
1000
0010
0100
0020
0000
1000
0000
0031
,
0010
0100
0010
0000
1000
0000
0001
0000
0010
0000
1000
0000
0010
0000
0100
0000
1000
0000
0001
0000
0100
0000
0010
0000
,
0001
0000
0000
0000
;

//--------------- dance-double - forcednature ----------------
#NOTES:
     dance-double:
     forcednature:
     Easy:
     6:
     0,0,0,0,0:
00000000
00000000
00000000
00000000
,
00010000
00000000
00000000
00000000
00001000
00000000
00000000
01000000
00000000
00000000
00000000
00000000
,
00100000
00000000
00000000
00000000
10000000
00000000
00000000
01000000
00000000
00000000
00000000
00000000
,
00100000
00001000
00010000
00000010
,
00000100
00001001
00000010
00001001
,
00000100
00000000
00000000
00000000
00000001
00000000
00000000
00000010
00000000
00000000
00000000
00000000
,
00000100
00000000
00000000
00000000
00010000
00000000
00000000
00001000
00000000
00000000
00000000
00000000
,
01000000
00010000
10000000
00100000
,
01000000
10010000
00100000
10010000
,
00002000
00000000
00000000
00003000
,
00010000
00001000
00010000
00000100
,
00010000
00001000
01000000
00010000
,
00100000
00000000
00100000
00000000
00000000
00000000
00100000
00000000
00100000
00000000
00000000
00000000
,
01000000
10000000
00100000
01000000
,
00001000
00010000
00000100
00000010
,
00000001
00000100
00000010
00001000
,
00000100
00000000
00000100
00000000
00000000
00000000
00000100
00000000
00000100
00000000
00000000
00000000
,
00001000
00000010
00010000
00001000
,
01000000
01000000
00100000
10000000
,
00010000
00100000
00001000
00000000
,
00011000
00001000
00011000
00100000
,
01100000
00010000
01100000
10000000
,
00100000
10000000
00010000
01000000
,
00001000
00000000
00010000
00000000
,
00000110
00000001
00000110
00000100
,
00001001
00001000
00001001
00000010
,
00001000
00000000
00000000
00000000
00000100
00000000
00000000
00010000
00000000
00000000
00000000
00000000
,
00001000
00000000
00000000
00000000
01000000
00000000
00000000
00100000
00000000
00000000
00000000
00000000
,
10000000
01000000
00100000
00010000
,
01000000
10010000
00100000
10010000
,
00100000
00000000
00000000
00000000
00001000
00000000
00000000
00010000
00000000
00000000
00000000
00000000
,
00000010
00000000
00000000
00000000
00001000
00000000
00000000
00000001
00000000
00000000
00000000
00000000
,
00000100
00000010
00010000
00001000
,
00100000
10010000
01000000
10010000
,
00200000
00000000
00000000
00000000
00002000
00300000
00000000
00000000
,
00020000
00000000
00000000
00000000
00000000
00033000
00000000
00000000
,
00000020
00000000
00000000
00000000
00002000
00000030
00000000
00000000
,
00000002
00000000
00000000
00000000
00000000
00003003
00000000
00000000
,
00001000
00000000
00000100
00000000
,
00010000
00001000
01000000
00000000
,
00010000
10000000
00100000
01000000
,
00010000
10000000
01000000
00000000
,
00100000
00000000
00010000
00000000
01000000
00000000
00001000
00000000
00010000
00000000
00000100
00000000
,
00001000
00000000
00000010
00000000
00000100
00000000
00000001
00000000
00000010
00000000
00000100
00000000
,
00001000
00000000
00000010
00000000
00010000
00000000
00001000
00000000
00100000
00000000
01000000
00000000
,
10000000
00000000
00010000
00000000
01000000
00000000
00100000
00000000
10000000
00000000
01000000
00000000
,
00100000
00000000
00010000
00000000
01000000
00000000
00001000
00010000
00000000
00000000
00000000
00000000
,
00000010
00000000
00001000
00000000
00000001
00000000
00000100
00000010
00000000
00000000
00000000
00000000
,
00001000
00000000
00000100
00000000
00010000
00000000
00001000
00000000
01000000
00000000
00010000
00000000
,
10000000
00000000
01000000
00000000
00100000
00000000
00010000
00000000
01000000
00000000
00001000
00000000
,
00011000
00000000
00000000
00000000
00000000
00000000
00000000
00000110
00000000
00000110
00000000
00000110
,
00000100
00000000
00000000
00000000
00000000
00000000
00000000
00001001
00000000
00001001
00000000
00001001
,
00000001
00000000
00000000
00000000
00000000
00000000
00000000
00000110
00000000
00000110
00000000
00000110
,
00000010
00000000
00000000
00000000
00000000
00000000
00001000
00000000
00000100
00000000
00010000
00000000
,
00011000
00000000
00000000
00000000
00000000
00000000
00000000
01100000
00000000
01100000
00000000
01100000
,
01000000
00000000
00000000
00000000
00000000
00000000
00000000
10010000
00000000
10010000
00000000
10010000
,
10000000
00000000
00000000
00000000
00000000
00000000
00000000
01100000
00000000
01100000
00000000
01100000
,
00100000
00000000
00000000
00000000
00000000
00000000
00010000
00000000
00001000
00000000
00010000
00000000
,
00011000
00000000
00000000
00000000
;

//--------------- dance-double - forcednature ----------------
#NOTES:
     dance-double:
     forcednature:
     Medium:
     8:
     0,0,0,0,0:
00000000
00000000
00000000
00000000
,
00001000
00000000
01000000
00000000
00010000
00000000
10000000
00100000
00000000
00100000
00000000
00100000
,
10000000
00000000
01000000
00000000
00100000
00000000
00010000
00100000
00000000
00100000
00000000
00100000
,
00001000
00010000
00000010
00001000
,
00001001
00000100
00001001
00000010
,
00001000
00000000
00000001
00000000
00000100
00000000
00000010
00010000
00000000
00010000
00000000
00010000
,
00001000
00000000
00100000
00000000
01000000
00000000
10000000
00010000
00000000
00010000
00000000
00010000
,
00100000
01000000
10000000
00100000
,
10010000
01000000
10010000
00100000
,
20020000
00000000
00000000
30030000
,
10000000
10000000
00010000
10000000
,
00010000
00010000
00100000
00001000
,
00010000
00000000
00001000
00010000
00000000
00000000
00001000
00000000
00010000
00001000
00000000
00000000
,
00010000
00000100
00001001
00000110
,
00000001
00000100
00000001
00000010
,
00000100
00010000
00001000
01000000
,
00010000
00000000
00100000
00010000
00000000
00000000
10000000
00000000
01000000
10000000
00000000
00000000
,
01100000
01000000
10010000
01100000
,
10000000
00000000
00010000
00000000
10000000
00000000
00010000
00000000
10000000
00000000
00010000
00000000
,
01000000
00001000
00010000
00000100
,
00001000
00000000
00000100
00001000
00000000
00000000
00000001
00000000
00000100
00000001
00000000
00000000
,
00001000
00000000
00000100
00001000
00000000
00000000
00000001
00000000
00000100
00000001
00000000
00000000
,
00000010
00000000
00000100
00000000
00000010
00000000
00000100
00000000
00000010
00000000
00000100
00000000
,
00000010
00000100
00010000
00001000
,
01000000
00000000
00010000
01000000
00000000
00000000
00100000
00000000
10000000
00100000
00000000
00000000
,
01000000
00000000
00010000
01000000
00000000
00000000
00100000
00000000
10000000
00100000
00000000
00000000
,
10000000
00000000
01000000
00000000
00100000
00000000
00010000
01000000
00000000
01000000
00000000
01000000
,
00010000
00000000
00100000
00000000
00010000
00000000
01000000
00001000
00000000
00001000
00000000
00001000
,
00010000
00000010
00001000
00000100
,
00000110
00001000
00001001
00000110
,
00000001
00000000
00000100
00000000
00000010
00000000
00010000
00001000
00000000
00001000
00000000
00001000
,
01000000
00000000
00010000
00000000
10000000
00000000
00100000
01000000
00000000
01000000
00000000
01000000
,
00010000
00100000
01000000
10000000
,
10010000
01000000
10010000
01100000
,
02000000
00000000
00000000
03000000
00002000
00000000
00000000
00003000
,
00020000
00000000
00000000
00030000
00000200
00000000
00000000
00000300
00002000
00000000
00000000
00000000
00003000
00000000
00000000
00000000
,
00000002
00000000
00000000
00000003
00000020
00000000
00000000
00000030
00000200
00000000
00000000
00000300
00002000
00000000
00000000
00003000
,
00020000
00000000
00000000
00000000
00000000
00030000
00000000
00000000
20000000
00000000
00000000
00000000
00000000
30000000
00000000
00000000
,
00200000
00000000
00000000
00000000
00000000
00000000
00000000
00000000
00000000
00000000
00000000
00000000
00000000
00000000
00000000
00000000
00000000
00000000
00000000
00000000
00000000
00000000
00000000
00000000
00000000
00000000
00000000
00000000
00000000
00300000
00000000
00000000
00000000
00000000
00000000
00000000
00000000
00000000
00000000
00000000
00000000
00000000
00000000
00000000
00000000
00000000
00000000
00000000
20000000
00000000
00000000
00000000
00000000
00000000
00000000
00000000
00000000
00000000
00000000
00000000
00000000
00000000
00000000
00000000
00000000
00000000
00000000
00000000
00000000
00000000
00000000
00000000
00000000
00000000
00000000
00000000
00000000
30000000
00000000
00000000
00000000
00000000
00000000
00000000
00000000
00000000
00000000
00000000
00000000
00000000
00000000
00000000
00000000
00000000
00000000
00000000
,
02000000
00000000
00000000
00000000
00000000
00000000
00000000
00000000
00000000
00000000
00000000
00000000
00000000
00000000
00000000
00000000
00000000
00000000
00000000
00000000
00000000
00000000
00000000
00000000
00000000
00000000
00000000
00000000
00000000
03000000
00000000
00000000
00000000
00000000
00000000
00000000
00000000
00000000
00000000
00000000
00000000
00000000
00000000
00000000
00000000
00000000
00000000
00000000
00200000
00000000
00000000
00000000
00000000
00000000
00000000
00000000
00000000
00000000
00000000
00000000
00000000
00000000
00000000
00000000
00000000
00000000
00000000
00000000
00000000
00000000
00000000
00000000
00000000
00000000
00000000
00000000
00000000
00300000
00000000
00000000
00000000
00000000
00000000
00000000
00000000
00000000
00000000
00000000
00000000
00000000
00000000
00000000
00000000
00000000
00000000
00000000
00020000
00000000
00000000
00000000
00000000
00000000
00000000
00000000
00000000
00000000
00000000
00000000
00000000
00000000
00000000
00000000
00000000
00000000
00000000
00000000
00000000
00000000
00000000
00000000
00000000
00000000
00000000
00000000
00000000
00000000
00000000
00000000
00000000
00000000
00000000
00000000
00000000
00000000
00000000
00000000
00000000
00000000
00000000
00000000
00000000
00000000
00000000
00000000
00000000
00000000
00000000
00000000
00000000
00000000
00000000
00000000
00000000
00000000
00000000
00000000
00000000
00000000
00000000
00000000
00000000
00000000
00000000
00030000
00000000
00000000
00000000
00000000
00000000
00000000
00000000
00000000
00000000
00000000
00000000
00000000
00000000
00000000
00000000
00000000
00000000
00000000
00000000
00000000
00000000
00000000
00000000
00000000
00000000
00000000
00000000
00000000
,
02000000
00000000
00000000
00000000
00000000
00000000
00000000
00000000
00000000
00000000
00000000
00000000
00000000
00000000
00000000
00000000
00000000
00000000
00000000
00000000
00000000
00000000
00000000
00000000
00000000
00000000
00000000
00000000
00000000
03000000
00000000
00000000
00000000
00000000
00000000
00000000
00000000
00000000
00000000
00000000
00000000
00000000
00000000
00000000
00000000
00000000
00000000
00000000
00002000
00000000
00000000
00000000
00000000
00000000
00000000
00000000
00000000
00000000
00000000
00000000
00000000
00000000
00000000
00000000
00000000
00000000
00000000
00000000
00000000
00000000
00000000
00000000
00000000
00000000
00000000
00000000
00000000
00003000
00000000
00000000
00000000
00000000
00000000
00000000
00000000
00000000
00000000
00000000
00000000
00000000
00000000
00000000
00000000
00000000
00000000
00000000
00020000
00000000
00000000
00000000
00000000
00000000
00000000
00000000
00000000
00000000
00000000
00000000
00000000
00000000
00000000
00000000
00000000
00000000
00000000
00000000
00000000
00000000
00000000
00000000
00000000
00000000
00000000
00000000
00000000
00030000
00000000
00000000
00000000
00000000
00000000
00000000
00000000
00000000
00000000
00000000
00000000
00000000
00000000
00000000
00000000
00000000
00000000
00000000
00000200
00000000
00000000
00000000
00000000
00000000
00000000
00000000
00000000
00000000
00000000
00000000
00000000
00000000
00000000
00000000
00000000
00000000
00000000
00000000
00000000
00000000
00000000
00000000
00000000
00000000
00000000
00000000
00000000
00000300
00000000
00000000
00000000
00000000
00000000
00000000
00000000
00000000
00000000
00000000
00000000
00000000
00000000
00000000
00000000
00000000
00000000
00000000
,
00002000
00000000
00000000
00000000
00000000
00000000
00000000
00000000
00000000
00000000
00000000
00000000
00000000
00000000
00000000
00000000
00000000
00000000
00000000
00000000
00000000
00000000
00000000
00000000
00000000
00000000
00000000
00000000
00000000
00003000
00000000
00000000
00000000
00000000
00000000
00000000
00000000
00000000
00000000
00000000
00000000
00000000
00000000
00000000
00000000
00000000
00000000
00000000
00000002
00000000
00000000
00000000
00000000
00000000
00000000
00000000
00000000
00000000
00000000
00000000
00000000
00000000
00000000
00000000
00000000
00000000
00000000
00000000
00000000
00000000
00000000
00000000
00000000
00000000
00000000
00000000
00000000
00000003
00000000
00000000
00000000
00000000
00000000
00000000
00000000
00000000
00000000
00000000
00000000
00000000
00000000
00000000
00000000
00000000
00000000
00000000
00000200
00000000
00000000
00000000
00000000
00000000
00000000
00000000
00000000
00000000
00000000
00000000
00000000
00000000
00000000
00000000
00000000
00000000
00000000
00000000
00000000
00000000
00000000
00000000
00000000
00000000
00000000
00000000
00000000
00000300
00000000
00000000
00000000
00000000
00000000
00000000
00000000
00000000
00000000
00000000
00000000
00000000
00000000
00000000
00000000
00000000
00000000
00000000
00000020
00000000
00000000
00000000
00000000
00000000
00000000
00000000
00000000
00000000
00000000
00000000
00000000
00000000
00000000
00000000
00000000
00000000
00000000
00000000
00000000
00000000
00000000
00000000
00000000
00000000
00000000
00000000
00000000
00000030
00000000
00000000
00000000
00000000
00000000
00000000
00000000
00000000
00000000
00000000
00000000
00000000
00000000
00000000
00000000
00000000
00000000
00000000
,
00001001
00000000
00001000
00000000
00000100
00000000
00010000
00000000
00001000
00000000
01000000
00000000
,
10010000
00000000
10000000
00000000
00100000
00000000
10000000
00000000
01000000
00000000
00100000
00000000
,
01100000
00000000
00100000
00000000
00001000
00000000
00010000
00000000
00000010
00000000
00001000
00000000
,
00001001
00000000
00000001
00000000
00000100
00000000
00000010
00000000
00001000
00000000
00000100
00000000
,
00000110
00000000
00000100
00000000
00001000
00000000
00000010
00000000
00010000
00000000
00001000
00000000
,
00011000
00000000
00010000
00000000
00001000
00000000
01000000
00000000
00010000
00000000
10000000
00000000
,
10010000
00000000
10000000
00000000
01000000
00000000
00100000
00000000
00010000
00000000
01000000
00000000
,
01100000
00000000
01000000
00000000
00010000
00000000
00100000
00000000
00001000
00000000
00010000
00000000
,
00000100
00000000
00010000
00000000
00000010
00000000
00001000
00000100
00000000
00001010
00000000
00000100
,
00001000
00000000
00000010
00000000
00001000
00000000
00000100
00010000
00000000
00101000
00000000
00010000
,
00001000
00000000
01000000
00000000
00010000
00000000
10000000
01000000
00000000
10100000
00000000
01000000
,
00100000
00000000
00010000
00000000
01000000
00000000
00001000
00010000
00001000
00010000
00001000
00010000
,
00000010
00000000
00001000
00000000
00000001
00000000
00000010
00000100
00000000
00001010
00000000
00000100
,
00001000
00000000
00000001
00000000
00000100
00000000
00000010
00001000
00000000
00010100
00000000
00001000
,
00000100
00000000
00010000
00000000
00001000
00000000
01000000
00010000
00000000
00101000
00000000
00010000
,
10000000
00000000
00100000
00000000
10000000
00000000
00010000
10000000
00010000
10000000
00010000
10000000
,
00010000
00000000
00000000
00000000
;

//--------------- dance-double - forcednature ----------------
#NOTES:
     dance-double:
     forcednature:
     Hard:
     12:
     0,0,0,0,0:
00000000
00000000
00000000
00000000
,
00001000
00010000
01000000
10000000
00010000
01000000
10000000
01000000
00000000
01000000
00000000
01000000
,
00010000
10000000
01000000
00010000
00001000
00000100
00000001
00001000
00000000
00001000
00000000
00001000
,
00000001
00000100
00001000
00010000
01000000
10000000
01000000
00010000
00001000
00000100
00000001
00001000
,
00001100
00000000
00000000
00011000
00000000
00000000
01010000
00000000
10000000
01000000
00000000
00000000
,
10000000
01000000
00010000
00001000
00010000
01000000
10000000
00010000
00000000
00010000
00000000
00010000
,
01000000
00010000
10000000
01000000
00010000
00001000
00000100
00000001
00000000
00000001
00000000
00000001
,
00001000
00000001
00001000
00000100
00000001
00000100
00001000
00000001
00000100
00001000
00010000
01000000
,
11000000
00000000
00000000
01010000
00000000
00000000
00011000
00000000
00001000
00000100
00000000
00000000
,
00001200
00000000
00000000
00000000
00000000
00000000
00000000
00000000
00000000
00000000
00000000
00000000
00000010
00000000
00000010
00000000
00000010
00000000
00000010
00000000
00000010
00000300
00000010
00000000
,
00000100
00000000
00000100
00001000
00000001
00000100
00000010
00000000
00000010
00001000
00000100
00000010
,
00000001
00000000
00001000
00000010
00000100
00000001
00001000
00000000
00000001
00001000
00000000
00000000
,
00001001
00000000
00001000
00010000
00000000
00000000
10010000
00000000
00010000
00001000
00000000
00000000
,
10010000
00000000
00000000
10000000
01000000
00100000
00010000
00000000
00000000
10010000
00000000
00000000
,
10000000
00000000
10000000
01000000
00100000
00010000
01000000
00000000
00100000
10000000
00010000
00100000
,
01000000
00000000
10000000
00010000
01000000
00100000
10000000
00000000
01000000
00100000
00000000
00000000
,
10010000
00000000
00010000
00001000
00000000
00000000
00001001
00000000
00001000
00010000
00000000
00000000
,
00011000
00000000
00000000
00010000
00001000
00010000
00001000
00000000
00000000
00011000
00000000
00000000
,
00010000
00000000
01000000
00000000
10000000
00000000
01000000
00000000
00010000
00000000
00001000
00000000
,
00000100
00000000
00000000
00000000
00000001
00000100
00001000
00000000
00000000
00000000
00000000
00000000
,
00000010
00000100
00000001
00000100
00000010
00001000
00000100
00000010
00000001
00000010
00000100
00001000
,
00000001
00000100
00001000
00010000
01000000
10000000
00010000
10000000
01000000
00100000
00010000
01000000
,
00100000
00000000
10000000
00000000
00010000
00000000
00100000
00000000
10000000
00000000
00100000
00000000
,
00010000
00000000
00000000
00000000
01000000
00001000
00010000
00000000
00000000
00000000
00000000
00000000
,
00000100
00001000
00000001
00000010
00001000
00010000
01000000
10000000
01000000
00010000
00001000
00000100
,
00000001
00000100
00001000
00010000
00100000
10000000
01000000
00010000
00001000
00000010
00000001
00001000
,
00000001
00000100
00000010
00001000
00000100
00010000
00001000
00010000
00000000
00010000
00000000
00010000
,
01000000
10000000
01000000
00010000
00001000
00010000
00100000
10000000
00000000
10000000
00000000
10000000
,
01000000
00100000
00010000
01000000
00001000
00010000
00000100
00001000
00000001
00000100
00001000
00000100
,
00000101
00000000
00000000
00001100
00000000
00000000
00000110
00000000
00001000
00000001
00000000
00000000
,
00001000
00000100
00010000
00001000
00010000
01000000
10000000
01000000
00000000
01000000
00000000
01000000
,
00010000
00001000
00000100
00000001
00001000
00000100
00000001
00000100
00000000
00000100
00000000
00000100
,
00001000
00000010
00000100
00001000
00010000
01000000
10000000
00100000
00010000
00001000
00000100
00000001
,
00001001
00000000
00000000
00000110
00000000
00000000
00001001
00000000
00000100
00000010
00000000
00000000
,
00000002
00000000
00000000
00000000
00000000
00000000
00000000
00000000
00000000
00000000
00000000
00000000
00000000
00000000
00000000
00000000
00000000
00000000
00000000
00000000
00000000
00000000
00000000
00000000
00000000
00000000
00000000
00000000
00000000
00000000
00000000
00000000
00000000
00000000
00000000
00000000
00000000
00000000
00000000
00000000
00000000
00000000
00000000
00000000
00000000
00000000
00000000
00000000
00000000
00000000
00000000
00000000
00000000
00000000
00000000
00000000
00000000
00000000
00000003
00000000
00000000
00000000
00000000
00000000
00000100
00000000
00000000
00000000
00000000
00000000
00000000
00000000
00000000
00000000
00000000
00000000
00000000
00000000
00000000
00000000
00001000
00000000
00000000
00000000
00000000
00000000
00000000
00000000
00000000
00000000
00000000
00000000
00000000
00000000
00000000
00000000
00020000
00000000
00000000
00000000
00000000
00000000
00000000
00000000
00000000
00000000
00000000
00000000
00000000
00000000
00000000
00000000
00000000
00000000
00000000
00000000
00000000
00000000
00000000
00000000
00000000
00000000
00000000
00000000
00000000
00000000
00000000
00000000
00000000
00000000
00000000
00000000
00000000
00000000
00000000
00000000
00000000
00000000
00000000
00000000
00000000
00000000
00000000
00000000
00000000
00000000
00000000
00000000
00000000
00000000
00000000
00000000
00000000
00000000
00000000
00000000
00000000
00000000
00000000
00000000
00000000
00000000
00000000
00000000
00000000
00000000
00000000
00000000
00000000
00000000
00000000
00000000
00000000
00030000
00000000
00000000
00100000
00000000
00000000
00000000
00000000
00000000
00000000
00000000
00000000
00000000
00000000
00000000
00000000
00000000
00000000
00000000
,
20000000
00000000
00000000
00000000
00000000
00000000
00000000
00000000
00000000
00000000
00000000
00000000
00000000
00000000
00000000
00000000
00000000
00000000
00000000
00000000
00000000
00000000
00000000
00000000
00000000
00000000
00000000
00000000
00000000
00000000
00000000
00000000
00000000
00000000
00000000
00000000
00000000
00000000
30000000
00000000
00000000
00000000
00000000
00000000
00000000
00000000
00000000
00000000
02000000
00000000
00000000
00000000
00000000
00000000
00000000
00000000
00000000
00000000
00000000
00000000
00000000
00000000
00000000
00000000
00000000
00000000
00000000
00000000
00000000
00000000
00000000
00000000
00000000
00000000
00000000
00000000
00000000
03000000
00000000
00000000
00010000
00000000
00000000
00000000
00000000
00000000
00000000
00000000
00000000
00000000
00000000
00000000
00000000
00000000
00000000
00000000
00002000
00000000
00000000
00000000
00000000
00000000
00000000
00000000
00000000
00000000
00000000
00000000
00000000
00000000
00000000
00000000
00000000
00000000
00000000
00000000
00000000
00000000
00000000
00000000
00000000
00000000
00000000
00000000
00000000
00000000
00000000
00000000
00000000
00000000
00000000
00000000
00000000
00000000
00000000
00000000
00000000
00000000
00000000
00000000
00000000
00000000
00000000
00000000
00000000
00000000
00000000
00000000
00000000
00000000
00000000
00000000
00000000
00000000
00000000
00000000
00000000
00000000
00000000
00000000
00000000
00000000
00000000
00000000
00000000
00000000
00000000
00000000
00000000
00000000
00000000
00000000
00000000
00000000
00000000
00000000
00000000
00000000
00000000
00000000
00000000
00000000
00003000
00000000
00000000
00000000
00000000
00000000
00000000
00000000
00000000
00000000
,
00000020
00000000
00000000
00000000
00000000
00000000
00000000
00000000
00000000
00000000
00000000
00000000
00000000
00000000
00000000
00000000
00000000
00000000
00000000
00000000
00000000
00000000
00000000
00000000
00000000
00000000
00000000
00000000
00000000
00000000
00000000
00000000
00000000
00000000
00000000
00000000
00000000
00000000
00000030
00000000
00000000
00000000
00000000
00000000
00000000
00000000
00000000
00000000
00000001
00000000
00000000
00000000
00000000
00000000
00000000
00000000
00000000
00000000
00000000
00000000
00000000
00000000
00000000
00000000
00000100
00000000
00000000
00000000
00000000
00000000
00000000
00000000
00000000
00000000
00000000
00000000
00000000
00000000
00000000
00000000
00000001
00000000
00000000
00000000
00000000
00000000
00000000
00000000
00000000
00000000
00000000
00000000
00000000
00000000
00000000
00000000
00000200
00000000
00000000
00000000
00000000
00000000
00000000
00000000
00000000
00000000
00000000
00000000
00000000
00000000
00000000
00000000
00000000
00000000
00000000
00000000
00000000
00000000
00000000
00000000
00000000
00000000
00000000
00000000
00000000
00000000
00000000
00000000
00000000
00000000
00000000
00000000
00000000
00000000
00000300
00000000
00000000
00000000
00000000
00000000
00000000
00000000
00000000
00000000
00000020
00000000
00000000
00000000
00000000
00000000
00000000
00000000
00000000
00000000
00000000
00000000
00000000
00000000
00000000
00000000
00000000
00000000
00000000
00000000
00000000
00000000
00000000
00000000
00000000
00000000
00000000
00000000
00000000
00000030
00000000
00000000
00010000
00000000
00000000
00000000
00000000
00000000
00000000
00000000
00000000
00000000
00000000
00000000
00000000
00000000
00000000
00000000
,
00002000
00000000
00000000
00000000
00000000
00000000
00000000
00000000
00000000
00000000
00000000
00000000
00000000
00000000
00000000
00000000
00000000
00000000
00000000
00000000
00000000
00000000
00000000
00000000
00000000
00000000
00000000
00000000
00000000
00003000
00000000
00000000
00100000
00000000
00000000
00000000
00000000
00000000
00000000
00000000
01000000
00000000
00000000
00000000
00000000
00000000
00000000
00000000
00200000
00000000
00000000
00000000
00000000
00000000
00000000
00000000
00000000
00000000
00000000
00000000
00000000
00000000
00000000
00000000
00000000
00000000
00000000
00300000
00000000
00000000
00000000
00000000
02000000
00000000
00000000
00000000
00000000
00000000
00000000
00000000
00000000
00000000
00000000
00000000
00000000
00000000
00000000
00000000
00000000
00000000
00000000
03000000
00000000
00000000
00000000
00000000
,
20000000
00000000
00000000
00000000
00000000
00000000
00000000
00000000
00000000
00000000
00000000
00000000
00000000
00000000
00000000
00000000
00000000
00000000
00000000
00000000
00000000
00000000
00000000
00000000
00000000
00000000
00000000
00000000
00000000
00000000
00000000
00000000
00000000
00000000
00000000
00000000
00000000
00000000
00000000
00000000
00000000
00000000
00000000
00000000
00000000
00000000
00000000
00000000
00000000
00000000
00000000
00000000
00000000
00000000
00000000
00000000
00000000
00000000
30000000
00000000
00000000
00000000
00000000
00000000
00100000
00000000
00000000
00000000
00000000
00000000
00000000
00000000
00000000
00000000
00000000
00000000
00000000
00000000
00000000
00000000
00010000
00000000
00000000
00000000
00000000
00000000
00000000
00000000
00000000
00000000
00000000
00000000
00000000
00000000
00000000
00000000
00200000
00000000
00000000
00000000
00000000
00000000
00000000
00000000
00000000
00000000
00000000
00000000
00000000
00000000
00000000
00000000
00000000
00000000
00000000
00000000
00000000
00000000
00000000
00000000
00000000
00000000
00000000
00000000
00000000
00000000
00000000
00000000
00000000
00000000
00000000
00000000
00000000
00000000
00000000
00000000
00000000
00000000
00000000
00000000
00000000
00000000
00000000
00000000
00000000
00000000
00000000
00000000
00000000
00000000
00000000
00000000
00000000
00000000
00000000
00000000
00000000
00000000
00000000
00000000
00000000
00000000
00000000
00000000
00000000
00000000
00000000
00000000
00000000
00000000
00000000
00000000
00000000
00300000
00000000
00000000
10000000
00000000
00000000
00000000
00000000
00000000
00000000
00000000
00000000
00000000
00000000
00000000
00000000
00000000
00000000
00000000
,
02000000
00000000
00000000
00000000
00000000
00000000
00000000
00000000
00000000
00000000
00000000
00000000
00000000
00000000
00000000
00000000
00000000
00000000
00000000
00000000
00000000
00000000
00000000
00000000
00000000
00000000
00000000
00000000
00000000
00000000
00000000
00000000
00000000
00000000
00000000
00000000
00000000
00000000
03000000
00000000
00000000
00000000
00000000
00000000
00000000
00000000
00000000
00000000
00020000
00000000
00000000
00000000
00000000
00000000
00000000
00000000
00000000
00000000
00000000
00000000
00000000
00000000
00000000
00000000
00000000
00000000
00000000
00000000
00000000
00000000
00000000
00000000
00000000
00000000
00000000
00000000
00000000
00030000
00000000
00000000
00001000
00000000
00000000
00000000
00000000
00000000
00000000
00000000
00000000
00000000
00000000
00000000
00000000
00000000
00000000
00000000
00000020
00000000
00000000
00000000
00000000
00000000
00000000
00000000
00000000
00000000
00000000
00000000
00000000
00000000
00000000
00000000
00000000
00000000
00000000
00000000
00000000
00000000
00000000
00000000
00000000
00000000
00000000
00000000
00000000
00000000
00000000
00000000
00000000
00000000
00000000
00000000
00000000
00000000
00000000
00000000
00000000
00000000
00000000
00000000
00000000
00000000
00000000
00000000
00000000
00000000
00000000
00000000
00000000
00000000
00000000
00000000
00000000
00000000
00000000
00000000
00000000
00000000
00000000
00000000
00000000
00000000
00000000
00000000
00000000
00000000
00000000
00000000
00000000
00000000
00000000
00000000
00000000
00000000
00000000
00000000
00000000
00000000
00000000
00000000
00000000
00000000
00000030
00000000
00000000
00000000
00000000
00000000
00000000
00000000
00000000
00000000
,
00000002
00000000
00000000
00000000
00000000
00000000
00000000
00000000
00000000
00000000
00000000
00000000
00000000
00000000
00000000
00000000
00000000
00000000
00000000
00000000
00000000
00000000
00000000
00000000
00000000
00000000
00000000
00000000
00000000
00000000
00000000
00000000
00000000
00000000
00000000
00000000
00000000
00000000
00000003
00000000
00000000
00000000
00000000
00000000
00000000
00000000
00000000
00000000
00000100
00000000
00000000
00000000
00000000
00000000
00000000
00000000
00000000
00000000
00000000
00000000
00000000
00000000
00000000
00000000
00001000
00000000
00000000
00000000
00000000
00000000
00000000
00000000
00000000
00000000
00000000
00000000
00000000
00000000
00000000
00000000
00010000
00000000
00000000
00000000
00000000
00000000
00000000
00000000
00000000
00000000
00000000
00000000
00000000
00000000
00000000
00000000
00200000
00000000
00000000
00000000
00000000
00000000
00000000
00000000
00000000
00000000
00000000
00000000
00000000
00000000
00000000
00000000
00000000
00000000
00000000
00000000
00000000
00000000
00000000
00000000
00000000
00000000
00000000
00000000
00000000
00000000
00000000
00000000
00000000
00000000
00000000
00000000
00000000
00000000
00300000
00000000
00000000
00000000
00000000
00000000
00000000
00000000
00000000
00000000
20000000
00000000
00000000
00000000
00000000
00000000
00000000
00000000
00000000
00000000
00000000
00000000
00000000
00000000
00000000
00000000
00000000
00000000
00000000
00000000
00000000
00000000
00000000
00000000
00000000
00000000
00000000
00000000
00000000
30000000
00000000
00000000
01000000
00000000
00000000
00000000
00000000
00000000
00000000
00000000
00000000
00000000
00000000
00000000
00000000
00000000
00000000
00000000
,
00020000
00000000
00000000
00000000
00000000
00000000
00000000
00000000
00000000
00000000
00000000
00000000
00000000
00000000
00000000
00000000
00000000
00000000
00000000
00000000
00000000
00000000
00000000
00000000
00000000
00000000
00000000
00000000
00000000
00030000
00000000
00000000
00001000
00000000
00000000
00000000
00000000
00000000
00000000
00000000
00000010
00000000
00000000
00000000
00000000
00000000
00000000
00000000
00002000
00000000
00000000
00000000
00000000
00000000
00000000
00000000
00000000
00000000
00000000
00000000
00000000
00000000
00000000
00000000
00000000
00000000
00000000
00000000
00000000
00000000
00000000
00000000
00000000
00000000
00000000
00000000
00000000
00000000
00000000
00000000
00000000
00000000
00000000
00000000
00000000
00000000
00000000
00000000
00000000
00000000
00000000
00003000
00000000
00000000
00000000
00000000
,
00010000
01000000
10000000
01000000
00010000
00000000
00001000
00000000
00100000
00000000
00010000
00000000
,
10000000
01000000
00010000
01000000
10000000
00100000
00010000
00100000
10000000
01000000
00010000
00001000
,
00000010
00000001
00000010
00001000
00010000
00000000
00010000
00000000
00010000
00000000
00010000
00000000
,
00010000
00001000
00010000
01000000
10000000
00010000
01000000
10000000
01000000
00010000
10000000
01000000
,
00010000
00001000
00000100
00000001
00000100
00001000
00000100
00000001
00000000
00000001
00000000
00000001
,
00000100
00001000
00000100
00000010
00001000
00000100
00010000
01000000
00000000
01000000
00000000
01000000
,
10000000
00100000
00010000
00100000
10000000
01000000
00010000
00001000
00000000
00001000
00000000
00001000
,
00000100
00000010
00000100
00000001
00001000
00000001
00000010
00000100
00000010
00000001
00001000
00000001
,
00002002
00000000
00000000
00000000
00000000
00000000
00000000
00000000
00000000
00000000
00000000
00000000
00000000
00000000
00000000
00000000
00000000
00000000
00000000
00000000
00000000
00000000
00000000
00000000
00000000
00000000
00000000
00000000
00000000
00000000
00000000
00000000
00000000
00000000
00000000
00000000
00000000
00000000
00000000
00000000
00000000
00000000
00000000
00000000
00000000
00000000
00000000
00000000
00000000
00000000
00000000
00000000
00000000
00000000
00000000
00000000
00000000
00000000
00000000
00000000
00000000
00000000
00000000
00000000
00000000
00000000
00000000
00000000
00000000
00000000
00000000
00000000
00000000
00000000
00000000
00000000
00000000
00000000
00000000
00000000
00000000
00000000
00000000
00000000
00000000
00000000
00000000
00000000
00000000
00000000
00000000
00000000
00000000
00000000
00000000
00003003
00000000
00000000
00000000
00000000
00000000
00000000
00000000
00000000
00000000
00000000
00000000
00000000
00000000
00000000
00000000
00000000
00001100
00000000
00000000
00000000
00000000
00000000
00000000
00000000
00000000
00000000
00000000
00000000
00000000
00000000
00000000
00000000
00000000
00000000
00000000
00000000
00000000
00000000
00000000
00000000
00000000
00000000
00000000
00000000
00000000
00000000
00000000
00000000
00010100
00000000
00000000
00000000
00000000
00000000
00000000
00000000
00000000
00000000
00000000
00000000
00000000
00000000
00000000
00000000
00000000
00000000
00000000
00000000
00000000
00000000
00000000
00000000
00000000
00000000
00000000
00000000
00000000
00000000
00000000
00000000
00011000
00000000
00000000
00000000
00000000
00000000
00000000
00000000
00000000
00000000
00000000
00000000
00000000
00000000
00000000
00000000
,
02002000
00000000
00000000
00000000
00000000
00000000
00000000
00000000
00000000
00000000
00000000
00000000
00000000
00000000
00000000
00000000
00000000
00000000
00000000
00000000
00000000
00000000
00000000
00000000
00000000
00000000
00000000
00000000
00000000
00000000
00000000
00000000
00000000
00000000
00000000
00000000
00000000
00000000
00000000
00000000
00000000
00000000
00000000
00000000
00000000
00000000
00000000
00000000
00000000
00000000
00000000
00000000
00000000
00000000
00000000
00000000
00000000
00000000
00000000
00000000
00000000
00000000
00000000
00000000
00000000
00000000
00000000
00000000
00000000
00000000
00000000
00000000
00000000
00000000
00000000
00000000
00000000
00000000
00000000
00000000
00000000
00000000
00000000
00000000
00000000
00000000
00000000
00000000
00000000
00000000
00000000
00000000
00000000
00000000
00000000
03003000
00000000
00000000
00000000
00000000
00000000
00000000
00000000
00000000
00000000
00000000
00000000
00000000
00000000
00000000
00000000
00000000
10010000
00000000
00000000
00000000
00000000
00000000
00000000
00000000
00000000
00000000
00000000
00000000
00000000
00000000
00000000
00000000
00000000
00000000
00000000
00000000
00000000
00000000
00000000
00000000
00000000
00000000
00000000
00000000
00000000
00000000
00000000
00000000
10100000
00000000
00000000
00000000
00000000
00000000
00000000
00000000
00000000
00000000
00000000
00000000
00000000
00000000
00000000
00000000
00000000
00000000
00000000
00000000
00000000
00000000
00000000
00000000
00000000
00000000
00000000
00000000
00000000
00000000
00000000
00000000
00110000
00000000
00000000
00000000
00000000
00000000
00000000
00000000
00000000
00000000
00000000
00000000
00000000
00000000
00000000
00000000
,
20020000
00000000
00000000
00000000
00000000
00000000
00000000
00000000
00000000
00000000
00000000
00000000
00000000
00000000
00000000
00000000
00000000
00000000
00000000
00000000
00000000
00000000
00000000
00000000
00000000
00000000
00000000
00000000
00000000
00000000
00000000
00000000
00000000
00000000
00000000
00000000
00000000
00000000
00000000
00000000
00000000
00000000
00000000
00000000
00000000
00000000
00000000
00000000
00000000
00000000
00000000
00000000
00000000
00000000
00000000
00000000
00000000
00000000
00000000
00000000
00000000
00000000
00000000
00000000
00000000
00000000
00000000
00000000
00000000
00000000
00000000
00000000
00000000
00000000
00000000
00000000
00000000
00000000
00000000
00000000
00000000
00000000
00000000
00000000
00000000
00000000
00000000
00000000
00000000
00000000
00000000
00000000
00000000
00000000
00000000
30030000
00000000
00000000
00000000
00000000
00000000
00000000
00000000
00000000
00000000
00000000
00000000
00000000
00000000
00000000
00000000
00000000
01010000
00000000
00000000
00000000
00000000
00000000
00000000
00000000
00000000
00000000
00000000
00000000
00000000
00000000
00000000
00000000
00000000
00000000
00000000
00000000
00000000
00000000
00000000
00000000
00000000
00000000
00000000
00000000
00000000
00000000
00000000
00000000
01001000
00000000
00000000
00000000
00000000
00000000
00000000
00000000
00000000
00000000
00000000
00000000
00000000
00000000
00000000
00000000
00000000
00000000
00000000
00000000
00000000
00000000
00000000
00000000
00000000
00000000
00000000
00000000
00000000
00000000
00000000
00000000
00011000
00000000
00000000
00000000
00000000
00000000
00000000
00000000
00000000
00000000
00000000
00000000
00000000
00000000
00000000
00000000
,
00020200
00000000
00000000
00000000
00000000
00000000
00000000
00000000
00000000
00000000
00000000
00000000
00000000
00000000
00000000
00000000
00000000
00000000
00000000
00000000
00000000
00000000
00000000
00000000
00000000
00000000
00000000
00000000
00000000
00000000
00000000
00000000
00000000
00000000
00000000
00000000
00000000
00000000
00000000
00000000
00000000
00000000
00000000
00000000
00000000
00000000
00000000
00000000
00000000
00000000
00000000
00000000
00000000
00000000
00000000
00000000
00000000
00000000
00000000
00000000
00000000
00000000
00000000
00000000
00000000
00000000
00000000
00000000
00000000
00000000
00000000
00030300
00000000
00000000
00000000
00000000
00000000
00000000
00000000
00000000
00000000
00000000
00000000
00000000
00000000
00000000
00000000
00000000
00000000
00000000
00000000
00000000
00000000
00000000
00000000
00000000
00000001
00000000
00000000
00000000
00000000
00000000
00000000
00000000
00000000
00000000
00000000
00000000
00000000
00000000
00000000
00000000
00000010
00000000
00000000
00000000
00000000
00000000
00000000
00000000
00000000
00000000
00000000
00000000
00000000
00000000
00000000
00000000
00000100
00000000
00000000
00000000
00000000
00000000
00000000
00000000
00000000
00000000
00000000
00000000
00000000
00000000
00000000
00000000
00001000
00000000
00000000
00000000
00000000
00000000
00000000
00000000
00000000
00000000
00000000
00000000
00000000
00000000
00000000
00000000
00000100
00000000
00000000
00000000
00000000
00000000
00000000
00000000
00000000
00000000
00000000
00000000
00000000
00000000
00000000
00000000
00000010
00000000
00000000
00000000
00000000
00000000
00000000
00000000
00000000
00000000
00000000
00000000
00000000
00000000
00000000
00000000
,
00000022
00000000
00000000
00000000
00000000
00000000
00000000
00000000
00000000
00000000
00000000
00000000
00000000
00000000
00000000
00000000
00000000
00000000
00000000
00000000
00000000
00000000
00000000
00000000
00000000
00000000
00000000
00000000
00000000
00000000
00000000
00000000
00000000
00000000
00000000
00000000
00000000
00000000
00000000
00000000
00000000
00000000
00000000
00000000
00000000
00000000
00000000
00000000
00000000
00000000
00000000
00000000
00000000
00000000
00000000
00000000
00000000
00000000
00000000
00000000
00000000
00000000
00000000
00000000
00000000
00000000
00000000
00000000
00000000
00000000
00000000
00000000
00000000
00000000
00000000
00000000
00000000
00000000
00000000
00000000
00000000
00000000
00000000
00000000
00000000
00000000
00000000
00000000
00000000
00000000
00000000
00000000
00000000
00000000
00000000
00000033
00000000
00000000
00000000
00000000
00000000
00000000
00000000
00000000
00000000
00000000
00000000
00000000
00000000
00000000
00000000
00000000
00001001
00000000
00000000
00000000
00000000
00000000
00000000
00000000
00000000
00000000
00000000
00000000
00000000
00000000
00000000
00000000
00000000
00000000
00000000
00000000
00000000
00000000
00000000
00000000
00000000
00000000
00000000
00000000
00000000
00000000
00000000
00000000
00001010
00000000
00000000
00000000
00000000
00000000
00000000
00000000
00000000
00000000
00000000
00000000
00000000
00000000
00000000
00000000
00000000
00000000
00000000
00000000
00000000
00000000
00000000
00000000
00000000
00000000
00000000
00000000
00000000
00000000
00000000
00000000
00000101
00000000
00000000
00000000
00000000
00000000
00000000
00000000
00000000
00000000
00000000
00000000
00000000
00000000
00000000
00000000
,
00002002
00000000
00000000
00000000
00000000
00000000
00000000
00000000
00000000
00000000
00000000
00000000
00000000
00000000
00000000
00000000
00000000
00000000
00000000
00000000
00000000
00000000
00000000
00000000
00000000
00000000
00000000
00000000
00000000
00000000
00000000
00000000
00000000
00000000
00000000
00000000
00000000
00000000
00000000
00000000
00000000
00000000
00000000
00000000
00000000
00000000
00000000
00000000
00000000
00000000
00000000
00000000
00000000
00000000
00000000
00000000
00000000
00000000
00000000
00000000
00000000
00000000
00000000
00000000
00000000
00000000
00000000
00000000
00000000
00000000
00000000
00000000
00000000
00000000
00000000
00000000
00000000
00000000
00000000
00000000
00000000
00000000
00000000
00000000
00000000
00000000
00000000
00000000
00000000
00000000
00000000
00000000
00000000
00000000
00000000
00003003
00000000
00000000
00000000
00000000
00000000
00000000
00000000
00000000
00000000
00000000
00000000
00000000
00000000
00000000
00000000
00000000
00001100
00000000
00000000
00000000
00000000
00000000
00000000
00000000
00000000
00000000
00000000
00000000
00000000
00000000
00000000
00000000
00000000
00000000
00000000
00000000
00000000
00000000
00000000
00000000
00000000
00000000
00000000
00000000
00000000
00000000
00000000
00000000
00011000
00000000
00000000
00000000
00000000
00000000
00000000
00000000
00000000
00000000
00000000
00000000
00000000
00000000
00000000
00000000
00000000
00000000
00000000
00000000
00000000
00000000
00000000
00000000
00000000
00000000
00000000
00000000
00000000
00000000
00000000
00000000
01010000
00000000
00000000
00000000
00000000
00000000
00000000
00000000
00000000
00000000
00000000
00000000
00000000
00000000
00000000
00000000
,
20020000
00000000
00000000
00000000
00000000
00000000
00000000
00000000
00000000
00000000
00000000
00000000
00000000
00000000
00000000
00000000
00000000
00000000
00000000
00000000
00000000
00000000
00000000
00000000
00000000
00000000
00000000
00000000
00000000
00000000
00000000
00000000
00000000
00000000
00000000
00000000
00000000
00000000
00000000
00000000
00000000
00000000
00000000
00000000
00000000
00000000
00000000
00000000
00000000
00000000
00000000
00000000
00000000
00000000
00000000
00000000
00000000
00000000
00000000
00000000
00000000
00000000
00000000
00000000
00000000
00000000
00000000
00000000
00000000
00000000
00000000
00000000
00000000
00000000
00000000
00000000
00000000
00000000
00000000
00000000
00000000
00000000
00000000
00000000
00000000
00000000
00000000
00000000
00000000
00000000
00000000
00000000
00000000
00000000
00000000
30030000
00000000
00000000
00000000
00000000
00000000
00000000
00000000
00000000
00000000
00000000
00000000
00000000
00000000
00000000
00000000
00000000
01100000
00000000
00000000
00000000
00000000
00000000
00000000
00000000
00000000
00000000
00000000
00000000
00000000
00000000
00000000
00000000
00000000
00000000
00000000
00000000
00000000
00000000
00000000
00000000
00000000
00000000
00000000
00000000
00000000
00000000
00000000
00000000
10010000
00000000
00000000
00000000
00000000
00000000
00000000
00000000
00000000
00000000
00000000
00000000
00000000
00000000
00000000
00000000
00000000
00000000
00000000
00000000
00000000
00000000
00000000
00000000
00000000
00000000
00000000
00000000
00000000
00000000
00000000
00000000
10100000
00000000
00000000
00000000
00000000
00000000
00000000
00000000
00000000
00000000
00000000
00000000
00000000
00000000
00000000
00000000
,
00220000
00000000
00000000
00000000
00000000
00000000
00000000
00000000
00000000
00000000
00000000
00000000
00000000
00000000
00000000
00000000
00000000
00000000
00000000
00000000
00000000
00000000
00000000
00000000
00000000
00000000
00000000
00000000
00000000
00000000
00000000
00000000
00000000
00000000
00000000
00000000
00000000
00000000
00000000
00000000
00000000
00000000
00000000
00000000
00000000
00000000
00000000
00000000
00000000
00000000
00000000
00000000
00000000
00000000
00000000
00000000
00000000
00000000
00000000
00000000
00000000
00000000
00000000
00000000
00000000
00000000
00000000
00000000
00000000
00000000
00000000
00330000
00000000
00000000
00000000
00000000
00000000
00000000
00000000
00000000
00000000
00000000
00000000
00000000
00000000
00000000
00000000
00000000
00000000
00000000
00000000
00000000
00000000
00000000
00000000
00000000
10000000
00000000
00000000
00000000
00000000
00000000
00000000
00000000
00000000
00000000
00000000
00000000
00000000
00000000
00000000
00000000
01000000
00000000
00000000
00000000
00000000
00000000
00000000
00000000
00000000
00000000
00000000
00000000
00000000
00000000
00000000
00000000
00100000
00000000
00000000
00000000
00000000
00000000
00000000
00000000
00000000
00000000
00000000
00000000
00000000
00000000
00000000
00000000
00010000
00000000
00000000
00000000
00000000
00000000
00000000
00000000
00000000
00000000
00000000
00000000
00000000
00000000
00000000
00000000
01000000
00000000
00000000
00000000
00000000
00000000
00000000
00000000
00000000
00000000
00000000
00000000
00000000
00000000
00000000
00000000
00001000
00000000
00000000
00000000
00000000
00000000
00000000
00000000
00000000
00000000
00000000
00000000
00000000
00000000
00000000
00000000
,
00011000
00000000
00000000
00000000
;

//--------------- dance-double - forcednature ----------------
#NOTES:
     dance-double:
     forcednature:
     Challenge:
     14:
     0,0,0,0,0:
00000000
00000000
00000000
00000000
,
00010000
00001000
00000100
00000001
00001000
00000100
00000010
00000011
00000000
00001100
00000000
00000011
,
00000001
00000100
00001000
00010000
01000000
10000000
00100000
10100000
00000000
01010000
00000000
10100000
,
10000000
00100000
00010000
00001000
00010000
01000000
00100000
00001000
00000010
00001000
00010000
00001000
,
00001100
00000000
00000000
00011000
00000000
00000000
01010000
00000000
00010000
00011000
00000000
00000000
,
00010000
00001000
00010000
01000000
10000000
00010000
01000000
01010000
00000000
10100000
00000000
01010000
,
00010000
00100000
10000000
00010000
01000000
10000000
00100000
00110000
00000000
11000000
00000000
00110000
,
00010000
00001000
00000010
00000001
00001000
00000010
00000100
00010000
01000000
00010000
00100000
00010000
,
10010000
00000000
10000000
01000000
10000000
01000000
10000000
00000000
00100000
00000000
00010000
00000000
00001000
00000000
00000010
00000000
00000001
00000000
00001000
00000000
00000000
00000000
00000000
00000000
,
00000220
00000000
00000000
00000000
00000000
00000300
00000100
00000100
00000100
00000100
00000100
00000130
,
00000110
00000000
00000000
00000001
00000010
00000100
00010000
00000000
00000000
00000010
00001000
00010000
,
01000000
00000000
00000000
00000000
00000000
00000000
00001000
00000000
00010000
00000000
00100000
00000000
10000000
00000000
00000000
00000000
00000000
00000000
01100000
00000000
00000000
00000000
10000000
00010000
,
10000000
00000000
00010000
00001000
00000000
00000000
00000001
00000000
00001000
00010000
00000000
00000000
,
00011000
00000000
00000000
00000000
00000000
00000000
00010000
00000000
00001000
00000000
00000100
00000000
00000001
00000000
00000000
00001000
00000100
00001000
00000100
00000000
00000100
00000000
00000100
00000000
,
00000110
00000000
00000000
00001000
00000100
00010000
01000000
00000000
00000000
10000000
00100000
00010000
,
00001000
00000000
00000000
00000000
00000000
00000000
00010000
00000000
00001000
00000000
00000010
00000000
00000001
00000000
00000000
00000000
00000000
00000000
00000110
00000000
00000000
00000000
00000001
00001000
,
00000001
00000000
00000100
00010000
00000000
00000000
10000000
00000000
01000000
00001000
00000000
00000000
,
00011000
00000000
00000000
00000000
00000000
00000000
00010000
00000000
00000100
00000000
00001000
00000000
00001001
00000000
00000001
00000100
00000001
00000000
00001000
00000000
00001000
00000000
00001000
00000000
,
00000001
00000000
00000100
00000000
00010000
00000000
00001000
00000000
00100000
00000000
10000000
00000000
,
00010000
00000000
00000000
00000000
10000000
01000000
00010000
00000000
00000000
00000000
00000000
00000000
,
00001000
00010000
00100000
00010000
00001000
00000010
00001000
00010000
01000000
00010000
00001000
00000100
,
00001000
00010000
01000000
10000000
00100000
00010000
00001000
00000100
00000001
00000010
00001000
00010000
,
01000000
00000000
10000000
00000000
00100000
00000000
00001000
00000000
00000010
00000000
00000001
00000000
,
00001000
00000000
00000000
00000000
00000100
00000001
00000010
00000000
00000000
00000000
00000000
00000000
,
00000001
00000100
00001000
00010000
01000000
10000000
00100000
00010000
00001000
00000010
00000001
00000100
,
00001000
00000000
00010000
00001000
00010000
00000000
01000000
00000000
10000000
00000000
00100000
00000000
01000000
00000000
00010000
00100000
00010000
00000000
01000000
00000000
00001000
00000000
00010000
00000000
,
00000010
00001000
00000100
00000001
00001000
00000010
00000001
00000101
00000000
00001010
00000000
00000101
,
00000001
00000100
00001000
00010000
01000000
10000000
00100000
10100000
00000000
01010000
00000000
10100000
,
10000000
01000000
00100000
10000000
00010000
01000000
00100000
00010000
00001000
00000100
00000010
00000001
,
00000101
00000000
00000000
00001100
00000000
00000000
00011000
00000000
01000000
01100000
00000000
00000000
,
10000000
00100000
00010000
00001000
00010000
01000000
10000000
10010000
00000000
01100000
00000000
10010000
,
00010000
01000000
00001000
00000100
00000001
00001000
00000100
00000110
00000000
00001001
00000000
00000110
,
00000001
00000100
00001000
00010000
01000000
10000000
00010000
00100000
10000000
00010000
01000000
10000000
,
10100000
00000000
00010000
01000000
00010000
01000000
00010000
00000000
00100000
00000000
00001000
00000000
01000000
00000000
00010000
00000000
00000100
00000000
00000110
00000000
00000000
00000000
00000000
00000000
,
00000002
00000000
00000000
00000003
00001000
00000010
00020000
00000000
00000000
00000000
00030000
00001000
,
02000000
00000000
03000000
00200000
00300000
00010000
00000200
00000000
00000000
00000000
00000300
00000000
,
00000002
00000000
00000003
00001000
00000010
00010000
02000000
00000000
03000000
20000000
30000000
01000000
,
00002000
00000000
00000000
00003000
00010000
00000010
00000002
00000000
00000003
00002000
00000000
00003000
,
00000210
00000000
00000000
00000300
00000001
00000100
00002000
00000000
00000000
00000000
00003000
10000000
,
02000000
00000000
03000000
00002000
00003000
00010000
00000020
00000000
00000000
00000000
00000030
00000000
,
00000002
00000000
00000003
00001000
00000010
00010000
00200000
00000000
00300000
20000000
30000000
01000000
,
00020000
00000000
00000000
00030000
00001000
00000100
00000002
00000000
00000000
00000000
00000000
00000003
,
00001000
00000010
00000100
00001000
00000001
00000010
00000100
00000001
00001000
00000010
00010000
00001000
,
00100000
01000000
10000000
00010000
01000000
10000000
01000000
00010000
10000000
01000000
00100000
00010000
,
01000000
00001000
00010000
00000010
00000100
00001000
00000100
00000001
00001000
00000100
00000001
00000100
,
00000010
00000000
00000001
00000000
00001000
00000000
00000010
00000000
00000100
00000000
00001000
00000000
00010000
00000000
01000000
00000000
10000000
00010000
10000000
00010000
10000000
00000000
00100000
00000000
,
00010000
00100000
01000000
00010000
00100000
10000000
00100000
01100000
00000000
01100000
00000000
01100000
,
00100000
00010000
00001000
00000100
00000001
00001000
00000010
00000110
00000000
00000110
00000000
00000110
,
00000010
00000001
00000100
00001000
00010000
01000000
10000000
10010000
00000000
10010000
00000000
10010000
,
10000000
00000000
00100000
00000000
00010000
00000000
00100000
00000000
01000000
00000000
00001000
00000000
00100000
01000000
00100000
01000000
00100000
00000000
00010000
00000000
01000000
00000000
00001000
00000000
,
00011000
00010000
00000100
00001000
00000001
00000100
00000010
00002000
00000000
00100000
00000000
00003010
,
00001000
00000100
00010000
01000000
10000000
00010000
01000000
00020000
00000000
00000100
00000000
01030000
,
00010000
00100000
00001000
00010000
00000010
00001000
00000100
00002000
00000000
01000000
00000000
00003100
,
00001000
00000000
00000001
00000000
00001000
00000000
00000100
00000000
00000001
00000000
00000100
00000000
00001000
00000010
00001000
00000010
00001000
00000000
00000100
00000000
00010000
00000000
01000000
00000000
,
10000000
00010000
01000000
00100000
10000000
01000000
00100000
00002000
00000000
00000100
00000000
00103000
,
00001000
00010000
00000010
00001000
00000100
00010000
00000010
00002000
00000000
01000000
00000000
00003010
,
00001000
00000100
00010000
01000000
10000000
00100000
01000000
00020000
00000000
00000010
00000000
01030000
,
00010000
10000000
00010000
00000000
01000000
00000000
00001000
00000000
00000100
00000000
00000010
00000000
00001000
00000000
00000100
00000000
00000010
00000000
00001000
00000000
00010000
00000000
00100000
00000000
,
10000000
00000000
00000000
00000000
;
