#TITLE:Follow Me;
#SUBTITLE:;
#ARTIST:SHK;
#TITLETRANSLIT:;
#SUBTITLETRANSLIT:;
#ARTISTTRANSLIT:;
#GENRE:CHIPTUNE;
#CREDIT:;
#BANNER:[Week 3] - Follow me.png;
#BACKGROUND:[Week 3] - Follow me-bg.png;
#LYRICSPATH:;
#CDTITLE:cdtitle.png;
#MUSIC:[Week 3] - Follow Me.ogg;
#OFFSET:-0.800000;
#SAMPLESTART:28.664982;
#SAMPLELENGTH:12.387096;
#SELECTABLE:YES;
#BPMS:0.000000=155.000000
;
#STOPS:
;
#BGCHANGES:;
#KEYSOUNDS:;
#ATTACKS:;

//---------------dance-single - ----------------
#NOTES:
     dance-single:
     :
     Hard:
     15:
     0.793099,0.937004,0.711544,0.066190,0.546068,671.000000,585.000000,86.000000,8.000000,0.000000,0.000000,0.793099,0.937004,0.711544,0.066190,0.546068,671.000000,585.000000,86.000000,8.000000,0.000000,0.000000:
// measure 0
0000
0000
0000
0000
,  // measure 1
0000
0000
0000
0000
,  // measure 2
0000
0000
0000
0000
,  // measure 3
0000
0000
0000
1001
,  // measure 4
0000
1100
0000
1100
0000
0101
0000
0101
,  // measure 5
0000
0011
0000
0011
0000
1010
0000
1010
,  // measure 6
0000
1100
0000
1100
0000
0101
0000
0101
,  // measure 7
0000
0011
0000
0011
0000
0001
1001
0000
,  // measure 8
1000
0000
0100
0000
0010
0000
0000
0001
1000
0001
1000
0000
0001
0000
0010
0000
,  // measure 9
0001
0100
1000
0100
0002
0000
2003
0000
,  // measure 10
3001
0000
0010
0000
0100
0000
0000
1000
0001
1000
0001
0000
1000
0000
0100
0000
,  // measure 11
1000
0010
0001
0010
2000
0000
3002
0000
,  // measure 12
1003
0000
0100
0000
0010
0000
0100
0000
1000
0001
0000
1000
0000
0001
0010
0001
,  // measure 13
0010
0000
0100
0000
0010
0000
0001
0000
0100
0010
0000
1000
0000
0010
1000
0010
,  // measure 14
1000
0000
0100
0000
0010
0000
0000
0001
1000
0001
1000
0000
0001
0000
0010
0000
,  // measure 15
0001
0100
1000
0100
0001
0000
1001
0000
,  // measure 16
1000
0100
0010
0100
0001
0100
0010
0100
,  // measure 17
1000
0010
1000
0010
0100
0001
0100
0001
1000
0001
1000
0000
0001
0000
1001
0000
,  // measure 18
1000
0000
0100
0000
0010
0000
0001
1000
0001
1000
0001
0000
0100
0000
0010
0000
,  // measure 19
1000
0000
0100
0000
0001
0000
0100
0000
1000
0000
0100
0010
0100
0010
0001
1000
,  // measure 20
0001
0000
0100
0000
0010
0000
1000
0001
1000
0001
1000
0000
0100
0000
0010
0000
,  // measure 21
0001
0000
0100
0000
1000
0000
0100
0000
0001
0000
0010
0100
0010
0100
1000
0001
,  // measure 22
1000
0000
0010
0000
0100
0000
0010
0000
1000
0001
0000
1000
0000
0001
0100
0001
,  // measure 23
0100
0000
0010
0000
0100
0000
0001
0000
0010
0100
0000
1000
0000
0100
1000
0100
,  // measure 24
1000
0000
0010
0000
0100
0000
0001
1000
0001
1000
0001
0000
0010
0000
0100
0000
,  // measure 25
1000
0000
0010
0000
0001
0000
0010
0000
1000
0000
0010
0100
0010
0100
0001
1000
,  // measure 26
0001
0011
1010
1001
,  // measure 27
0001
0000
1000
0000
0100
0000
0010
0000
0001
0000
0000
1000
0000
0000
0001
0000
,  // measure 28
1000
1100
0000
0110
0000
0011
0000
1001
,  // measure 29
0000
1010
0000
0110
0000
0101
0000
1001
,  // measure 30
1000
1100
0101
1001
,  // measure 31
1000
0000
0001
0000
0010
0000
0100
0000
1000
0000
0000
0001
0000
0000
1000
0000
,  // measure 32
0001
0011
0000
0110
0000
1100
0000
1001
,  // measure 33
1001
0110
1001
0110
,  // measure 34
1000
0100
0010
0100
1000
0100
0001
0100
,  // measure 35
1000
0010
1000
0010
1000
0010
1000
0010
0100
0001
0100
0001
0100
0001
0100
0001
,  // measure 36
1000
0010
0100
0010
1000
0010
0001
0010
,  // measure 37
1000
0100
1000
0100
1000
0100
1000
0100
0010
0001
0010
0001
0010
0001
0010
0001
,  // measure 38
1000
0000
0001
0100
0001
0000
1000
0100
1000
0000
0001
0100
0001
0000
1001
0000
,  // measure 39
0000
1100
0000
1100
0000
0101
0000
0101
,  // measure 40
0000
0011
0000
0011
0000
1010
0000
1010
,  // measure 41
0000
1100
0000
1100
0000
0101
0000
0101
,  // measure 42
0000
0011
0000
0011
0000
0001
1001
0000
,  // measure 43
1000
0000
0100
0000
0010
0000
0000
0001
1000
0001
1000
0000
0001
0000
0010
0000
,  // measure 44
0001
0100
1000
0100
0002
0000
2003
0000
,  // measure 45
3001
0000
0010
0000
0100
0000
0000
1000
0001
1000
0001
0000
1000
0000
0100
0000
,  // measure 46
1000
0000
0010
0000
0001
0000
0010
0000
2000
0000
0000
0000
3001
1000
0001
0000
,  // measure 47
1000
0000
0100
0000
0010
0000
0100
0000
1000
0001
0000
1000
0000
0001
0010
0001
,  // measure 48
0010
0000
0100
0000
0010
0000
0001
0000
0100
0010
0000
1000
0000
0010
1000
0010
,  // measure 49
1000
0000
0100
0000
0010
0000
0000
0001
1000
0001
1000
0000
0001
0000
0010
0000
,  // measure 50
0001
0000
0100
0000
1000
0000
0100
0000
0001
0000
0010
0100
0010
0100
1000
0001
,  // measure 51
1000
0100
1000
0100
0010
0001
0010
0001
1000
0100
0010
0000
0001
0010
0100
1000
,  // measure 52
0001
0100
0001
0000
0100
0001
0100
0000
0010
1000
0010
0000
1000
0010
1000
0000
,  // measure 53
0001
0010
0001
0000
0010
0001
0010
0000
0100
1000
0100
0000
1000
0100
1000
0000
,  // measure 54
0001
0101
0000
0110
0000
1010
0000
1001
,  // measure 55
0000
1100
0000
0110
0000
0011
0000
1001
,  // measure 56
1000
0010
1000
0000
0010
1000
0010
0000
0100
0001
0100
0000
0001
0100
0001
0000
,  // measure 57
1000
0100
1000
0000
0100
1000
0100
0000
0010
0001
0010
0000
0001
0010
0001
0000
,  // measure 58
1000
1010
0000
0110
0000
0101
0000
1001
,  // measure 59
0001
0010
1000
0010
0001
0100
1000
0100
,  // measure 60
0001
0010
0001
0000
1000
0100
1000
0000
0001
0010
0001
0000
1000
0100
1000
0000
,  // measure 61
0001
0100
0001
0000
1000
0010
1000
0000
0001
0100
0001
0000
1000
0010
1000
0000
,  // measure 62
0001
0101
0000
0110
0000
1010
0000
1001
,  // measure 63
0000
1100
0000
0110
0000
0011
0000
1001
,  // measure 64
1000
0100
1000
0000
0001
0010
0001
0000
1000
0100
1000
0000
0001
0010
0001
0000
,  // measure 65
1000
0010
1000
0000
0001
0100
0001
0000
1000
0010
1000
0000
0001
0100
0001
0000
,  // measure 66
1000
1010
0000
0110
0000
0101
0000
1001
,  // measure 67
0001
0010
1000
0010
0001
0100
1000
0100
,  // measure 68
0002
0003
0110
1001
,  // measure 69
1000
0100
1000
0100
0010
0001
0010
0001
1000
0100
0010
0001
1000
0100
0010
0001
,  // measure 70
1000
0000
0010
0000
0100
0000
0000
0001
1000
0001
1000
0000
0001
0000
0010
0000
,  // measure 71
0001
0100
1000
0100
0110
0000
0000
0000
,  // measure 72
0001
0000
0010
0000
0100
0000
0000
1000
0001
1000
0001
0000
1000
0000
0010
0000
,  // measure 73
1000
0100
0001
0100
0110
0000
0000
0000
,  // measure 74
1000
0010
0100
0001
1001
0000
0000
0000
,  // measure 75
0001
0010
0100
1000
1001
0000
0000
0000
;

//---------------dance-single - ----------------
#NOTES:
     dance-single:
     :
     Medium:
     12:
     0.535431,0.562202,0.132380,0.364046,0.024821,453.000000,437.000000,16.000000,44.000000,0.000000,0.000000,0.535431,0.562202,0.132380,0.364046,0.024821,453.000000,437.000000,16.000000,44.000000,0.000000,0.000000:
0000
0000
0000
0000
,
0000
0000
0000
0000
,
0000
0000
0000
0000
,
0000
0000
0000
1001
,
2000
0010
0000
0010
0000
0010
0000
3010
,
0200
0001
0000
0001
0000
0001
0000
0301
,
0020
0100
0000
0100
0000
0100
0000
0130
,
2000
0001
0000
0001
0000
3001
1000
0000
,
0001
0010
0100
0000
1000
0001
1000
0000
,
0001
0100
1000
0100
0001
0000
1001
0000
,
1000
0100
0010
0000
0001
1000
0001
0000
,
1000
0010
0001
0010
1000
0000
1001
0000
,
0001
0100
0001
0100
0010
1000
0010
0000
,
1000
0100
1000
0100
0010
0001
0010
0000
,
0001
0100
0010
0000
1000
0001
1000
0000
,
0001
0010
1000
0010
0001
0000
1001
0000
,
1000
0100
0010
0001
1000
0100
0010
0001
,
1000
1000
0001
0001
0100
0100
0001
1001
,
1000
0100
0010
0100
1000
0010
0001
0010
,
1000
0100
0010
0001
1000
0000
1001
0000
,
0001
0010
0100
0010
0001
0100
1000
0100
,
0001
0010
0100
1000
0001
0000
1001
0000
,
1000
0010
1000
0010
0100
0001
0100
0000
,
0001
0010
0001
0010
0100
1000
0100
0000
,
1000
0010
0100
0010
1000
0100
0001
0100
,
1000
0010
0100
0001
1000
0100
0010
0001
,
2000
0000
3010
0100
0020
0000
0230
0000
,
0300
0000
0001
0000
1000
0000
0001
0000
0010
0000
0000
0100
0000
0000
1000
0000
,
0002
0100
0000
0100
0000
0100
0000
0103
,
0020
1000
0000
1030
0200
0010
0000
0310
,
0002
0000
0103
0010
0200
0000
0320
0000
,
0030
0000
1000
0000
0001
0000
1000
0000
0100
0000
0000
0010
0000
0000
0001
0000
,
2000
0010
0000
0010
0000
0010
0000
3010
,
0200
0001
0000
0301
0020
0100
0000
0130
,
1000
0100
0010
0001
1000
0100
0010
0001
,
1000
0100
0010
0001
1000
0001
0010
0100
,
1000
0010
0100
0001
1000
0010
0100
0001
,
1000
0010
0100
0001
1000
0001
0100
0010
,
1000
0000
1100
0000
0101
0000
0011
0010
,
0002
0100
0000
0100
0000
0100
0000
0103
,
0020
1000
0000
1000
0000
1000
0000
1030
,
0200
0010
0000
0010
0000
0010
0000
0310
,
0002
1000
0000
1000
0000
1003
0001
0000
,
1000
0100
0010
0000
0001
1000
0001
0000
,
1000
0010
0001
0010
1000
0000
1001
0000
,
0001
0010
0100
0000
1000
0001
1000
0000
,
0001
0100
1000
0100
0001
0000
1001
0000
,
1000
0010
1000
0010
0100
0001
0100
0000
,
0001
0010
0001
0010
0100
1000
0100
0000
,
1000
0010
0100
0000
0001
1000
0001
0000
,
1000
0100
0001
0100
1000
0010
0100
0001
,
1000
1000
0001
0001
0010
0010
0100
1000
,
0002
0000
0103
0010
0200
0000
0320
0000
,
0030
0000
1000
0000
0001
0000
1000
0000
0100
0000
0000
0010
0000
0000
0001
0000
,
2000
0010
0000
0010
0000
0010
0000
3010
,
0200
0001
0000
0301
0020
0100
0000
0130
,
2000
0000
3010
0100
0020
0000
0230
0000
,
0300
0000
0001
0000
1000
0000
0001
0000
0010
0000
0000
0100
0000
0000
1000
0000
,
0002
0100
0000
0100
0000
0100
0000
0103
,
0020
1000
0000
1030
0200
0010
0000
0310
,
0002
0000
0103
0010
0200
0000
0320
0000
,
0030
0000
1000
0000
0001
0000
1000
0000
0100
0000
0000
0010
0000
0000
0001
0000
,
2000
0010
0000
0010
0000
0010
0000
3010
,
0200
0001
0000
0301
0020
0100
0000
0130
,
2000
0000
3010
0100
0020
0000
0230
0000
,
0300
0000
0001
0000
1000
0000
0001
0000
0010
0000
0000
0100
0000
0000
1000
0000
,
0002
0100
0000
0100
0000
0100
0000
0103
,
0020
1000
0000
1030
0200
0010
0000
0310
,
0001
0000
1000
0001
,
1000
0100
0010
0001
1000
0001
0010
0100
,
1000
0010
0100
0000
0001
1000
0001
0000
,
1000
0100
0010
0001
1001
0000
0000
0000
,
0001
0100
0010
0000
1000
0001
1000
0000
,
0001
0010
0100
1000
1001
0000
0000
0000
,
1000
0010
0100
0001
1001
0000
0000
0000
,
0001
0010
0100
1000
1001
0000
0000
0000
;

//---------------dance-single - ----------------
#NOTES:
     dance-single:
     :
     Easy:
     7:
     0.332132,0.468502,0.148928,0.413688,0.000000,281.000000,263.000000,18.000000,50.000000,0.000000,0.000000,0.332132,0.468502,0.148928,0.413688,0.000000,281.000000,263.000000,18.000000,50.000000,0.000000,0.000000:
0000
0000
0000
0000
,
0000
0000
0000
0000
,
0000
0000
0000
0000
,
0000
0000
0000
1001
,
1000
0100
0010
0001
,
1000
0100
0010
0001
,
1000
0010
0100
0001
,
1000
0010
0100
1001
,
0001
0001
1000
1000
,
0001
0010
0100
1000
,
0010
0010
0100
0100
,
0010
1000
0001
0100
,
0001
0001
0010
0100
,
1000
1000
0010
0100
,
0001
0001
1000
1000
,
0001
0010
0100
1001
,
1000
0010
1000
0000
0001
0100
0001
0000
,
1000
0100
0010
0001
0010
0100
1000
0000
,
0001
0101
1000
1100
,
0001
0010
0100
1000
,
0001
0011
1000
1010
,
0001
0100
0010
1000
,
0001
0001
0010
0100
,
1000
1000
0010
0100
,
0001
0110
1000
0110
,
0001
0000
1000
0000
0001
1000
0001
1000
,
0002
0203
0320
2030
,
3000
0100
0010
0001
,
2000
0000
0000
3002
,
0203
0000
0320
0000
,
2030
3200
0320
0032
,
0003
0100
0010
1000
,
0002
0000
0000
2003
,
3200
0000
0320
0000
,
0031
0000
0100
0000
0000
0001
0100
0000
,
0010
0000
1000
0000
0000
0010
1000
0000
,
0100
0000
0010
0000
0000
0100
0010
0000
,
2002
0000
0000
3003
,
1010
0000
0110
0000
0101
0000
1000
0001
,
1000
0100
0010
0001
,
1000
0100
0010
0001
,
1000
0010
0100
0001
,
1000
0010
0100
1001
,
0001
0001
1000
1000
,
0001
0010
0100
1000
,
0010
0010
0100
0100
,
0010
1000
0001
0100
,
0001
0001
0010
0100
,
1000
1000
0010
0100
,
0001
0001
1000
1000
,
0001
0010
0100
0000
,
1000
0010
1000
0000
0001
1000
0001
1000
,
0002
0203
0320
2030
,
3000
0100
0010
0001
,
2000
0000
0000
3002
,
0203
0000
0320
0000
,
2030
3200
0320
0032
,
0003
0100
0010
1000
,
0002
0000
0000
2003
,
3200
0000
0320
0000
,
0032
0203
0320
2030
,
3000
0100
0010
0001
,
2000
0000
0000
3002
,
0203
0000
0320
0000
,
2030
3200
0320
0032
,
0003
0100
0010
1000
,
0002
0000
0000
2003
,
3200
0000
0320
0000
,
0031
0000
1000
0001
,
1000
0010
1000
0000
0001
0100
0001
0000
,
1000
0100
0010
0001
,
0100
0010
1001
0000
,
0001
0010
0100
1000
,
0010
0100
1001
0000
,
1000
0001
1001
0000
,
0001
1000
1001
0000
;

//---------------dance-single - ----------------
#NOTES:
     dance-single:
     :
     Beginner:
     3:
     0.139472,0.249868,0.074464,0.215118,0.000000,118.000000,109.000000,9.000000,26.000000,0.000000,0.000000,0.139472,0.249868,0.074464,0.215118,0.000000,118.000000,109.000000,9.000000,26.000000,0.000000,0.000000:
0000
0000
0000
0000
,
0000
0000
0000
0000
,
0000
0000
0000
0000
,
0000
0000
0000
0000
,
2000
0000
0000
3000
,
0002
0000
0000
0003
,
0200
0000
0000
0300
,
0020
0000
0000
0030
,
1000
0000
0001
0000
,
1000
0000
0000
0000
,
0001
0000
1000
0000
,
0001
0000
0000
0000
,
0100
0000
0010
0000
,
0100
0000
0000
0000
,
0010
0000
0100
0000
,
0010
0000
0000
0000
,
2002
0000
0000
3003
,
0220
0000
0000
0330
,
1000
0000
1000
0000
,
0001
0000
0001
0000
,
1000
0000
1000
0000
,
0001
0000
0001
0000
,
0100
0000
0100
0000
,
0010
0000
0010
0000
,
0100
0000
0100
0000
,
0010
0000
0010
0000
,
1000
0000
0000
0000
,
0100
0000
0010
0000
,
0002
0000
0000
0003
,
2000
0000
0000
3000
,
0001
0000
0000
0000
,
0100
0000
0010
0000
,
2000
0000
0000
3000
,
0002
0000
0000
0003
,
1000
0000
0000
0000
,
1001
0000
0000
0000
,
0001
0000
0000
0000
,
1001
0000
0000
0000
,
1000
1000
0001
0001
,
2000
0000
0000
3000
,
0002
0000
0000
0003
,
0200
0000
0000
0300
,
0020
0000
0000
0030
,
1000
0000
0001
0000
,
1000
0000
0000
0000
,
0001
0000
1000
0000
,
0001
0000
0000
0000
,
0100
0000
0010
0000
,
0100
0000
0000
0000
,
0010
0000
0100
0000
,
0010
0000
0000
0000
,
1000
1000
0001
0001
,
1000
0000
0100
0000
,
0010
0000
0001
0000
,
2000
0000
0000
3000
,
0002
0000
0000
0003
,
1000
0000
0010
0000
,
0100
0000
0001
0000
,
2000
0000
0000
3000
,
0002
0000
0000
0003
,
1000
0000
0100
0000
,
0010
0000
0001
0000
,
2000
0000
0000
3000
,
0002
0000
0000
0003
,
1000
0000
0010
0000
,
0100
0000
0001
0000
,
2000
0000
0000
3000
,
0002
0000
0000
0003
,
0000
0000
0000
0000
,
2002
0000
0000
3003
,
1000
0000
0001
0000
,
1000
0000
1001
0000
,
0001
0000
1000
0000
,
0001
0000
1001
0000
,
1000
0000
1001
0000
,
0001
0000
1001
0000
;

//---------------dance-single - ----------------
#NOTES:
     dance-single:
     :
     Challenge:
     10:
     0.668993,0.562202,2.076714,0.000000,0.000000,566.000000,315.000000,251.000000,0.000000,0.000000,0.000000,0.668993,0.562202,2.076714,0.000000,0.000000,566.000000,315.000000,251.000000,0.000000,0.000000,0.000000:
0000
0000
0000
0000
,
0000
0000
0000
0000
,
0000
0000
0000
0000
,
0000
0000
0000
1001
,
1100
1100
0101
0101
,
0011
0011
1010
1010
,
1100
1100
0101
0101
,
0011
0011
1010
1001
,
1100
1100
0110
0110
,
0011
0011
1001
1001
,
1010
1010
0110
0110
,
0101
0101
1001
1001
,
1100
0011
1100
0011
,
1010
0101
1010
0101
,
1100
1100
0110
0110
,
0011
0011
1001
1001
,
1000
0010
1000
0010
1000
0010
1000
0010
,
1000
0100
0010
0001
0010
0100
1000
0001
,
1001
1001
0110
0110
,
1010
1010
0011
0011
,
1001
1001
0110
0110
,
1100
1100
0101
0101
,
1100
0011
1100
0011
,
1010
0101
1010
0101
,
1001
1001
0110
0110
,
1100
0101
0011
1010
,
1001
1001
1001
1001
,
0110
0110
0110
0110
,
1100
0101
1100
0101
,
1010
0011
1010
0011
,
1001
1001
1001
1001
,
0110
0110
0110
0110
,
1010
0011
1010
0011
,
1100
0101
1100
0101
,
1000
0001
1000
0001
1000
0001
1000
0001
,
1000
0100
0010
0001
1000
0100
0010
0001
,
0100
0010
0100
0010
0100
0010
0100
0010
,
1000
0100
0010
0001
1000
0100
0010
0001
,
1001
0110
1001
0110
,
1100
1100
0101
0101
,
0011
0011
1010
1010
,
1100
1100
0101
0101
,
0011
0011
1010
1001
,
1100
1100
0110
0110
,
0011
0011
1001
1001
,
1010
1010
0110
0110
,
0101
0101
1001
1001
,
1100
0011
1100
0011
,
1010
0101
1010
0101
,
1100
1100
0110
0110
,
0011
0011
1001
0000
,
1000
0010
1000
0010
0100
0001
0100
0001
,
1001
1001
1001
1001
,
0110
0110
0110
0110
,
1100
0101
1100
0101
,
1010
0011
1010
0011
,
1001
1001
1001
1001
,
0110
0110
0110
0110
,
1010
0011
1010
0011
,
1100
0101
1100
0101
,
1001
1001
0110
0110
,
1001
1001
0110
0110
,
1010
0011
0101
1100
,
0011
1010
1100
0101
,
1001
1001
0110
0110
,
1001
1001
0110
0110
,
0101
1100
1010
0011
,
1100
0101
0011
1010
,
1001
0000
1001
1001
,
1000
0100
0010
0001
1000
0100
0010
0001
,
1001
1001
0110
0110
,
1001
0110
1001
0000
,
1001
1001
0110
0110
,
1001
0110
1001
0000
,
1100
0110
0011
0000
,
0101
0110
1010
0000
;
