#VERSION:0.83;
#TITLE:First Dance;
#SUBTITLE:;
#ARTIST:Sakuzyo;
#TITLETRANSLIT:;
#SUBTITLETRANSLIT:;
#ARTISTTRANSLIT:;
#GENRE:;
#ORIGIN:;
#CREDIT:;
#BANNER:;
#BACKGROUND:;
#PREVIEWVID:;
#JACKET:First Dance-jacket.jpg;
#CDIMAGE:;
#DISCIMAGE:;
#LYRICSPATH:;
#CDTITLE:;
#MUSIC:First Dance.ogg;
#OFFSET:-0.512000;
#SAMPLESTART:31.800941;
#SAMPLELENGTH:14.999998;
#SELECTABLE:YES;
#BPMS:0.000=87.000,
29.000=174.000,
60.500=348.000,
238.000=174.000,
343.500=348.000,
401.000=174.000;
#STOPS:29.000=0.172,
60.500=0.258,
124.500=0.172,
265.000=0.172,
326.000=0.172,
326.500=0.172,
327.000=0.172,
340.500=0.172,
341.000=0.172,
341.500=0.172,
343.500=0.086;
#DELAYS:;
#WARPS:;
#TIMESIGNATURES:0.000=4=4;
#TICKCOUNTS:0.000=4;
#COMBOS:0.000=1;
#SPEEDS:0.000=1.000=0.000=0;
#SCROLLS:0.000=1.000;
#FAKES:;
#LABELS:0.000=Song Start;
#LASTSECONDHINT:127.116127;
#BGCHANGES:;
#KEYSOUNDS:;
#ATTACKS:
;

//---------------dance-single - ----------------
#NOTEDATA:;
#CHARTNAME:;
#STEPSTYPE:dance-single;
#DESCRIPTION:;
#CHARTSTYLE:;
#DIFFICULTY:Hard;
#METER:17;
#RADARVALUES:0.790661,1.353122,0.404802,0.495534,0.303602,793.000000,735.000000,58.000000,71.000000,0.000000,0.000000,0.000000,0.000000,0.000000,0.790661,1.353122,0.404802,0.495534,0.303602,793.000000,735.000000,58.000000,71.000000,0.000000,0.000000,0.000000,0.000000,0.000000;
#CREDIT:;
#OFFSET:-0.512000;
#BPMS:0.000000=87.000000
,29.000000=174.000000
,60.500000=348.000000
,229.000000=174.000000
,305.500000=348.000000
,421.000000=174.000000
;
#STOPS:29.000000=0.172000
,60.500000=0.258207
,124.500000=0.172000
,188.500000=0.172413
,189.000000=0.172413
,189.500000=0.172413
,197.500000=0.172413
,198.000000=0.172413
,198.500000=0.172413
,206.500000=0.172413
,207.000000=0.172413
,207.500000=0.172413
,256.000000=0.172000
,328.500000=0.172000
,329.500000=0.172000
,330.500000=0.172000
,357.500000=0.172000
,358.500000=0.172000
,359.500000=0.172000
,363.500000=0.086212
;
#DELAYS:;
#WARPS:;
#TIMESIGNATURES:0.000000=4=4
;
#TICKCOUNTS:0.000000=4
;
#COMBOS:0.000000=1
;
#SPEEDS:0.000000=1.000000=0.000000=0
;
#SCROLLS:0.000000=1.000000
;
#FAKES:;
#LABELS:0.000000=Song Start
;
#NOTES:
0000
0000
0000
0000
,
0000
0000
0000
0000
,
2000
0000
3200
0000
0320
0000
0032
0000
0203
0000
0301
0100
2000
0000
3200
0000
,
0302
0000
0023
0000
0230
0000
2300
0000
3001
0100
0002
0000
1003
0010
1000
0000
,
0001
0001
0100
0010
1000
1000
0001
0010
0001
0000
1000
0100
1000
0010
0100
0100
,
0001
0010
0100
1000
0100
0010
0001
1000
0001
0001
0100
0000
0010
0010
1000
0100
,
0010
0010
0100
0100
0001
0100
1000
1000
0001
0001
0100
0100
0001
0001
1000
1000
,
0010
0010
0100
0100
1001
0000
0120
0000
0000
0000
0000
0000
0000
0000
0000
0000
,
0230
0302
2003
0000
3002
0000
0000
0000
,
0103
0000
0000
0100
0000
0000
0210
0000
0000
0000
0000
0000
0000
0000
0000
0000
,
0320
2030
3200
0000
0302
0203
2300
0000
,
3002
0203
0000
0320
0000
0000
0000
0000
,
0230
0302
0023
0000
2030
0000
0000
0000
,
3010
0000
0000
0001
0000
0000
0200
0000
0000
0000
0000
0000
0000
0000
0000
0000
,
0320
2030
3002
0000
0203
0320
2030
0000
,
3001
1001
1010
0000
0010
0000
0110
0000
,
0100
0001
1000
1001
,
0001
0100
0001
0000
0100
0000
0001
0000
,
1000
0010
0100
0000
0010
0000
0100
0000
,
0010
0000
1000
0001
0100
0000
0001
0000
,
0100
0001
1000
0000
0001
0010
0100
1000
,
0100
0010
0001
0000
1000
0001
0010
0000
,
0010
0001
1000
0000
0010
0000
1001
0000
,
0000
0000
1000
0000
0001
0010
0001
0000
,
0100
0010
1000
0010
0100
0010
1000
0000
,
0001
1000
0010
0000
0100
0010
1000
0000
,
0010
0100
0001
1000
,
0010
0000
1000
0100
0010
0100
1000
0100
,
0010
0100
1000
0000
0001
0000
0100
0001
,
1000
0001
0100
0000
0001
0000
0010
0000
,
0100
0010
0100
0000
1000
0000
0001
0000
,
1000
0001
0000
0000
0001
0000
1000
0010
,
1000
0000
0001
0000
0010
0001
0010
0000
,
0001
0010
0100
0010
0001
0000
1000
0000
,
0001
0100
0010
0100
0001
0100
0010
0100
,
0002
0000
2003
3200
,
0320
0032
0203
0320
,
2030
0000
3200
0000
0320
0000
0031
0100
,
0000
0001
0100
0000
0010
0000
1000
0001
,
0000
1000
0001
0000
0101
0000
0100
0000
,
0001
2000
3200
2300
,
3001
1000
0010
1000
0001
1000
0010
1000
,
0002
0000
0000
0000
0003
0000
1000
0100
,
1000
0100
0001
0000
0100
0010
0001
0000
,
0100
0001
0100
0001
1000
0000
0010
1000
,
0001
0000
0100
0000
0001
0000
0010
0001
,
0010
0001
0100
0010
0100
0010
1000
0000
,
0000
0001
0100
0101
0010
0000
1000
0000
,
0001
0010
0000
0010
0001
0000
1000
0001
,
1000
0000
0000
1001
0100
0110
0001
1000
,
0001
1000
0010
0100
0010
0100
0001
0010
,
0001
0010
0001
0000
0000
1100
0110
0011
,
0001
0100
0001
0100
1000
0100
1000
0100
,
0010
0100
0010
0100
0001
0100
0000
0001
,
0010
0000
1000
0010
0000
0001
0000
1000
,
0100
0000
0001
0100
0000
1000
0000
0010
,
0001
0000
0001
0010
0000
2002
0000
0000
,
0000
0000
3003
0000
0001
0000
1000
0000
0010
0000
1000
0000
0100
0000
1000
0001
,
0100
0000
0010
0000
1000
0000
0010
0000
0100
0001
0010
0000
0001
0000
0100
0000
,
0102
0000
1003
0010
1000
0001
0100
0001
,
0010
0000
0100
0000
1000
0001
1000
0001
0100
0000
0001
0000
0201
0000
0000
0000
,
0000
0000
0320
0000
,
1030
0001
1000
0001
2000
0000
0000
0000
3002
0000
0000
0000
0103
0000
1000
0000
,
0100
0010
1000
0100
0010
0001
0100
0010
,
0110
0000
0100
0000
0001
0010
0001
1000
0100
0000
1000
0010
1000
0001
0100
0000
,
0001
0000
1000
0010
0100
0000
0010
0100
0001
0010
0100
1000
0010
0000
1000
0001
,
0010
0100
0010
0001
1000
0000
1000
0100
0001
0000
0001
0100
1000
0000
0001
0100
,
0001
0000
1000
0010
0100
0010
1000
0010
0100
0010
1000
0000
0001
0000
0010
0100
,
0001
0100
0010
0000
0001
1000
0100
0010
0001
0000
0010
0100
1000
0100
0010
0001
,
0100
0001
1000
0000
0100
0000
1100
0000
0000
0000
1001
0000
0000
0000
0001
0000
,
0100
0000
0101
0000
0000
0000
0010
0000
1000
0000
0100
0000
0010
0001
0010
0000
,
0010
0100
0010
0000
0100
0000
1000
0000
0001
1000
0010
0000
1000
0000
0100
0000
,
0010
1000
0010
0000
0001
0000
0010
0001
0100
0010
1000
0000
0001
0100
1000
0100
,
0001
0000
1000
0100
0010
0100
1000
0100
0010
0100
1000
0100
0010
0000
0001
0100
,
0010
0100
0001
0100
0010
0100
0001
0100
0010
0000
1000
0000
1001
0000
0000
0000
,
0000
0000
0000
0000
,
0001
0010
0001
0000
1001
0000
1020
0000
0000
0000
0000
0000
0000
0000
0130
0000
,
0000
0001
0100
0010
0000
1000
0000
2001
,
0000
0000
0000
3100
0000
1000
0001
0100
,
0000
0001
0000
0010
0001
0100
0000
0010
,
0100
0001
0000
1000
0100
0010
0001
1000
,
0000
0010
1000
0001
0000
0100
0001
0010
,
0000
0110
0000
1100
0000
1001
0000
1000
,
0000
0010
0000
0100
0000
0001
0000
0000
,
0001
0100
0000
1000
0100
0001
0000
0010
,
0000
0100
0000
0010
0000
0001
0000
0000
,
1000
0100
0000
0001
0100
1000
0000
0100
,
0000
0010
0000
0100
1000
0001
0000
0100
,
0001
0100
0010
1000
0100
0010
1000
0010
,
0001
0100
0000
1001
0000
1010
0000
0110
,
0000
0100
0000
0001
0000
1000
0000
1001
,
0000
0000
1000
0000
0010
0100
0001
0100
,
0010
0000
0100
0000
0010
1000
0100
1000
,
0010
0000
0100
0000
0001
0010
0100
0010
,
0001
0010
0100
1001
,
0000
0000
0110
0000
0000
1001
0000
0000
,
1100
0000
0000
0101
0000
0000
0011
0000
,
0000
1010
0000
0000
1001
0000
0000
1100
,
0000
0000
0100
0010
0001
0000
0010
0000
,
0100
1000
0001
0100
0001
0000
1000
0000
,
0100
1000
0010
1000
0100
0000
0010
0000
,
0001
0000
0100
0000
0001
0000
1000
0100
,
0010
0001
0100
0000
0001
0100
0010
0100
,
0001
0000
0100
0010
1000
0010
0100
0000
,
0010
1000
0001
1000
0010
0000
1000
0100
,
0001
0000
0100
0000
2000
0000
0000
0000
3001
0000
0010
0000
0100
0000
1000
0100
,
0010
0001
0100
0000
0010
0000
1000
0000
0010
0100
0001
0010
0200
0000
0000
0000
,
0320
0000
0130
0010
0100
0001
0100
1000
,
0002
0000
0203
0000
0310
1000
0002
0000
,
1003
0000
0010
0000
0100
0000
0010
0000
1000
0001
1000
0001
0200
0000
0000
0000
,
0301
1000
0010
1000
0002
0000
0103
0010
,
0100
0010
0100
0000
1001
0000
0000
0000
0101
0000
0000
0000
0110
0000
0000
0000
,
1010
0000
1000
1000
0100
0010
1001
0000
,
0110
0000
1001
0000
0110
0000
0001
0001
,
0010
0100
1010
0000
0101
0000
1010
0000
,
0101
0000
1000
1000
0010
0000
1001
0000
,
0100
1010
0100
0001
0110
0001
2002
0000
,
0000
0000
3003
0000
;
