#TITLE:Everytime (Above & Beyond's Club Mix);
#SUBTITLE:;
#ARTIST:Britney Spears;
#TITLETRANSLIT:;
#SUBTITLETRANSLIT:;
#ARTISTTRANSLIT:;
#GENRE:Trance;
#CREDIT:;
#BANNER:Everytime_A&B-bn.png;
#BACKGROUND:Everytime_A&B-bg.png;
#LYRICSPATH:;
#CDTITLE:cdtitle.png;
#MUSIC:Everytime (Above & Beyond's Club Mix).ogg;
#OFFSET:-0.222000;
#SAMPLESTART:36.213001;
#SAMPLELENGTH:14.231000;
#SELECTABLE:YES;
#BPMS:0.000000=135.000000
;
#STOPS:
;
#BGCHANGES:;
#KEYSOUNDS:;
#ATTACKS:;

//---------------dance-single - ----------------
#NOTES:
     dance-single:
     :
     Hard:
     10:
     0.383978,0.435271,0.050146,0.621816,0.225659,268.000000,263.000000,5.000000,62.000000,0.000000,0.000000,0.383978,0.435271,0.050146,0.621816,0.225659,268.000000,263.000000,5.000000,62.000000,0.000000,0.000000:
// measure 0
0000
0000
0000
0000
,  // measure 1
0000
0000
0000
0000
,  // measure 2
0000
0000
0000
0000
,  // measure 3
0000
0000
0000
0000
,  // measure 4
0000
0000
0000
0000
1000
0000
0000
0100
0000
0000
1000
0000
1000
0000
0000
0001
,  // measure 5
0000
0000
0100
0000
0100
0000
0000
0010
0000
0000
1000
0000
1000
0000
0000
0100
,  // measure 6
0000
0000
0010
0000
0010
0000
0000
0001
0000
0000
1000
0000
1000
0000
0000
0010
,  // measure 7
0000
0000
0100
0000
0100
0000
0000
0001
0000
0000
1000
0000
1000
0000
0000
0100
,  // measure 8
0000
1000
1001
0000
0001
1000
0010
0000
,  // measure 9
0100
0020
0001
0000
0100
0000
1030
0000
,  // measure 10
0010
0000
1000
0000
0100
0010
0001
0000
,  // measure 11
1000
0200
0001
0000
1000
1300
0002
0000
,  // measure 12
1003
0000
0001
0000
0010
0001
1000
0000
,  // measure 13
0001
0200
1000
0000
0010
0000
0301
0000
,  // measure 14
0100
0000
0001
0000
0010
0100
1000
0000
,  // measure 15
0001
0020
1000
0000
0001
0031
0200
0000
,  // measure 16
0310
0000
0000
0000
1000
0000
0010
0000
1010
0000
0000
0000
0001
0000
0010
0001
,  // measure 17
0000
0000
0000
0000
0010
0000
0100
0000
0110
0000
0000
0000
1000
0000
0001
0010
,  // measure 18
0000
0000
0000
0000
0100
0000
1000
0000
1100
0000
0000
0000
0001
0000
0100
0001
,  // measure 19
0000
0000
2000
0000
0000
0000
0000
0004
,  // measure 20
0000
0000
0000
3003
1001
0000
0000
0000
1000
0000
0100
0000
0020
0000
0000
0000
,  // measure 21
0031
2000
0010
3000
1000
0200
0300
0020
,  // measure 22
0030
0002
1000
0000
0013
0200
0300
0020
,  // measure 23
0030
0200
1000
0300
0001
2000
3000
0020
,  // measure 24
0030
0000
2000
0000
0001
0000
0000
0001
3000
0000
1000
0000
0100
0000
0000
0010
,  // measure 25
0000
0000
0100
0010
0100
0000
0000
1000
0000
0000
0001
0000
1000
0000
0000
0010
,  // measure 26
0000
0000
0100
0010
0100
0000
0000
0001
0000
0000
0010
0000
0200
0000
0000
0000
,  // measure 27
2300
3002
0023
2030
,  // measure 28
3020
0000
0031
0000
1000
0010
0200
0000
,  // measure 29
0301
0020
0000
0030
0100
2000
3000
0002
,  // measure 30
0003
0200
1000
0000
0301
0020
0030
0200
,  // measure 31
0300
2000
0001
3000
1000
0200
0300
0020
,  // measure 32
0030
0000
0002
0000
1000
0000
0000
1000
0003
0000
0001
0000
0100
0000
0000
0010
,  // measure 33
0000
0000
0100
0010
0100
0000
0000
0001
0000
0000
1000
0000
0001
0000
0000
0010
,  // measure 34
0000
0000
0100
0010
0100
0000
0000
1000
0000
0000
0001
0000
0200
0000
0000
0000
,  // measure 35
0320
2030
3020
0032
,  // measure 36
0023
0000
0000
0000
1030
0000
0000
0100
1000
0000
0001
0000
1000
0000
0000
0100
,  // measure 37
0020
0032
2003
3020
,  // measure 38
0130
0000
0002
0000
1000
0000
0000
0010
0000
0000
1000
0000
1003
0000
0000
0100
,  // measure 39
0000
0000
0010
0100
0010
0000
0000
0000
0001
0000
0200
0000
0300
0000
0010
0000
,  // measure 40
2000
0000
0000
0000
0001
0000
0000
0100
0000
0000
0001
0000
3001
0000
0000
0010
,  // measure 41
0200
2300
3002
2003
,  // measure 42
3010
0000
0200
0000
1000
0000
0000
0010
0000
0000
0001
0000
0301
0000
0000
0000
,  // measure 43
0010
0100
2000
0000
3002
0000
2003
0000
,  // measure 44
3000
0000
0002
0000
0100
0000
0000
0100
0000
0000
0100
0000
0000
0100
0000
0000
,  // measure 45
0100
0000
0000
0000
1000
0000
0000
1000
0000
0000
1003
0000
0000
1000
0000
0000
,  // measure 46
1000
0000
0000
0000
0100
0000
0010
0000
0000
0010
0001
0000
1000
0000
0000
0000
,  // measure 47
0000
0000
0000
0000
0001
0000
0100
0000
0000
0100
0010
0000
1000
0000
0000
0000
,  // measure 48
0000
0000
0000
0000
1000
0000
0000
0010
0000
0000
1000
0000
0000
0000
0000
0001
,  // measure 49
0100
0000
0001
0000
0001
0000
0000
0010
0000
0000
0100
0000
0100
0000
0000
1000
,  // measure 50
0100
0000
1000
0000
0001
0000
0000
0010
0000
0000
0001
0000
1000
0000
0000
0100
,  // measure 51
1000
0100
0020
0000
0032
0000
0023
0000
,  // measure 52
0030
0002
2000
0000
0000
0000
0000
0003
,  // measure 53
0000
0000
0000
0000
,  // measure 54
0000
3000
0000
0000
;

//---------------dance-single - ----------------
#NOTES:
     dance-single:
     :
     Challenge:
     12:
     0.548745,0.572610,0.050146,0.210615,0.436274,383.000000,378.000000,5.000000,21.000000,0.000000,0.000000,0.548745,0.572610,0.050146,0.210615,0.436274,383.000000,378.000000,5.000000,21.000000,0.000000,0.000000:
// measure 0
0000
0000
0000
0000
,  // measure 1
0000
0000
0000
0000
,  // measure 2
0000
0000
0000
0000
,  // measure 3
0000
0000
0000
0000
,  // measure 4
0000
0000
0000
0000
0001
0000
0000
0100
0001
0000
0010
0000
0100
0000
0000
1000
,  // measure 5
0100
0000
1000
0100
1000
0000
0000
0001
0100
0000
0001
0000
0010
0000
0000
0100
,  // measure 6
0010
0000
0001
0100
0001
0000
0000
1000
0010
0000
1000
0000
0001
0000
0000
0010
,  // measure 7
0100
0000
1000
0010
1000
0000
0000
0001
0010
0000
0001
0000
1000
0000
0000
0100
,  // measure 8
0010
0000
0001
0100
0101
0000
0100
0000
1000
0000
0100
0000
0001
0000
0000
0000
,  // measure 9
0100
0000
0020
0000
0031
0010
1000
0000
,  // measure 10
0001
0000
0200
0000
1300
0100
0001
0000
,  // measure 11
1000
0000
0020
0000
0031
0010
0100
0000
,  // measure 12
0001
0000
0200
0000
1300
0100
0010
0000
,  // measure 13
1000
0000
0020
0000
0031
0010
1000
0000
,  // measure 14
0001
0000
0200
0000
1300
0100
0001
0000
,  // measure 15
1000
0000
0020
0000
0031
0010
0100
0000
,  // measure 16
0010
0000
0000
0000
1000
0000
0001
0000
1001
0000
0001
0000
0010
0000
0100
1000
,  // measure 17
0100
0000
0000
0000
1000
0000
0010
0000
1001
0000
1000
0000
0100
0000
0010
0001
,  // measure 18
0010
0000
0000
0001
1000
0000
0010
0000
0101
0000
0001
0000
1000
0000
0100
1000
,  // measure 19
0100
0000
0000
0000
1100
0000
0000
0000
0000
0000
0000
0000
0000
0000
0001
1000
,  // measure 20
0001
1000
0001
1000
0001
0000
0000
0010
0001
0000
1000
0000
0010
0000
0000
0100
,  // measure 21
0010
0000
1000
0010
0100
0000
0000
0010
0100
0000
0001
0000
1000
0100
0000
0010
,  // measure 22
0100
0000
1000
0100
1000
0000
0000
0001
0100
0000
0001
0000
1000
0000
0000
0100
,  // measure 23
0010
0000
0100
0000
1000
0000
0000
0001
1000
0000
0010
0000
0100
0010
0000
0100
,  // measure 24
0010
0000
1000
0010
1000
0000
0000
0001
1000
0000
0100
0000
1000
0000
0000
0100
,  // measure 25
0010
0000
0001
0100
0001
0000
0000
0010
0100
0000
1000
0000
0001
0100
0000
0000
,  // measure 26
0010
0000
0100
0010
0100
0000
0000
0001
1000
0000
0100
0000
1000
0000
0000
0100
,  // measure 27
0010
0001
2000
0000
3200
0000
0302
0000
,  // measure 28
0023
0000
0000
0000
1030
0000
0000
0010
1000
0000
0001
0000
0010
0000
0000
0100
,  // measure 29
0010
0000
0001
0010
0001
0000
0000
1000
0001
0000
1000
0000
0010
0100
0000
0010
,  // measure 30
0100
0000
0001
0100
0001
0000
0000
0010
0100
0000
1000
0000
0001
0000
0000
0100
,  // measure 31
0001
0000
1000
0001
0100
0000
0000
0010
0100
0000
0010
0000
1000
0001
0000
1000
,  // measure 32
0001
0000
0100
0010
0100
0000
0000
0001
0010
0000
1000
0000
0010
0000
0000
0001
,  // measure 33
0010
0000
0100
0010
0100
0000
0000
1000
0001
0000
1000
0000
0010
0100
0000
0010
,  // measure 34
0100
0000
0001
0010
0100
0000
0000
1000
0100
0000
0001
0000
0100
0000
0000
1000
,  // measure 35
0100
0010
0002
0000
0203
0000
2300
0000
,  // measure 36
3020
0000
0031
0010
0100
0010
0001
0010
,  // measure 37
0100
0010
0001
1000
0010
1000
0001
1000
,  // measure 38
0010
1000
0001
0010
1000
0010
0001
0010
,  // measure 39
1000
0010
0001
0100
0010
0100
0001
0100
,  // measure 40
0010
0100
0001
0010
0100
1000
0001
0010
,  // measure 41
0100
1000
0001
0100
0010
1000
0001
0100
,  // measure 42
0010
1000
0001
1000
0010
1000
0001
1000
,  // measure 43
0100
0000
1000
0000
0001
0000
0000
0010
0000
0000
0001
0000
0000
1000
0001
1000
,  // measure 44
0001
1000
0001
1000
0001
0000
0010
0000
0000
0001
0010
0000
0100
0000
0000
1000
,  // measure 45
0100
0000
1000
0000
0001
0000
0000
0010
0000
0000
0001
0000
1000
0000
0000
1000
,  // measure 46
0100
0000
1000
0000
0001
0000
0001
0000
0000
0100
0001
0000
0010
0000
0000
0010
,  // measure 47
0000
0000
0000
0000
0100
0000
0100
0000
0000
1000
0100
0000
1000
0000
0000
1000
,  // measure 48
0000
0000
0001
1000
0001
0000
0000
0010
0100
0000
0010
0000
0001
0000
0000
1000
,  // measure 49
0010
0000
1000
0000
0100
0000
0000
0010
0001
0000
0100
0000
0010
0000
0000
1000
,  // measure 50
0001
0000
1000
0000
0100
0000
0000
0010
0001
0000
1000
0000
0001
0000
0000
0010
,  // measure 51
0100
1000
0002
0000
0203
0000
0302
0000
,  // measure 52
0003
0000
2000
0000
0000
0000
0000
0000
0000
0000
0000
0000
0000
0000
3100
0010
,  // measure 53
0100
0010
0002
0000
0000
0000
0000
0000
0000
0000
1003
0001
1000
0001
0200
0000
,  // measure 54
0000
0000
0000
0300
0000
0000
0000
0000
;

//---------------dance-single - ----------------
#NOTES:
     dance-single:
     :
     Medium:
     5:
     0.309475,0.371209,0.070205,0.862519,0.090264,216.000000,209.000000,7.000000,86.000000,0.000000,0.000000,0.309475,0.371209,0.070205,0.862519,0.090264,216.000000,209.000000,7.000000,86.000000,0.000000,0.000000:
// measure 0
0000
0000
0000
0000
,  // measure 1
0000
0000
0000
0000
,  // measure 2
0000
0000
0000
0000
,  // measure 3
0000
0000
0000
0000
,  // measure 4
0000
0000
0000
0000
0001
0000
0000
1000
0000
0000
0001
0000
0000
0000
0000
0010
,  // measure 5
0000
0000
0100
0000
0100
0000
0000
1000
0000
0000
0001
0000
0000
0000
0000
0100
,  // measure 6
0000
0000
0010
0000
0010
0000
0000
1000
0000
0000
0001
0000
0000
0000
0000
1000
,  // measure 7
0000
0000
0100
0000
0100
0000
0000
0010
0000
0000
0001
0000
0000
0000
0000
1000
,  // measure 8
0000
0100
2100
0000
3000
0001
2000
0000
,  // measure 9
3200
0320
0002
0000
0003
0100
0130
0000
,  // measure 10
1000
0001
2000
0000
3000
0100
0020
0000
,  // measure 11
0032
2003
0020
0000
0030
3010
2000
0000
,  // measure 12
3001
0000
0020
0000
0030
0100
0020
0000
,  // measure 13
0032
0203
2000
0000
3000
0001
0001
0320
,  // measure 14
0030
0020
2030
0000
3000
0001
0200
0000
,  // measure 15
0320
2030
0002
0000
0003
3010
2000
0000
,  // measure 16
3100
0010
0110
0001
,  // measure 17
1001
1000
1100
0100
,  // measure 18
1010
0001
0011
0100
,  // measure 19
0110
2000
0000
0000
,  // measure 20
0000
0000
3001
0000
1000
0001
0020
0000
,  // measure 21
0130
2000
3000
0000
0001
0200
0300
0020
,  // measure 22
0030
2000
0000
0000
3001
0020
0030
0200
,  // measure 23
0300
0020
0030
0000
0001
2000
3000
0200
,  // measure 24
0300
2000
0001
3000
0020
0000
0001
0000
,  // measure 25
0100
0000
0001
0000
1000
0000
0130
0200
,  // measure 26
0300
0000
0020
0000
0130
0000
0000
0001
0000
0000
1000
0000
0200
0000
0000
0000
,  // measure 27
2300
3002
0023
2030
,  // measure 28
3020
0000
0031
0000
1000
0010
0200
0000
,  // measure 29
0301
0020
0030
0000
0100
2000
3000
0002
,  // measure 30
0003
0200
0000
0000
0310
0200
0300
0002
,  // measure 31
0003
0020
0000
0030
0100
2000
3000
0002
,  // measure 32
0003
0200
0000
0300
0020
0000
0001
0000
,  // measure 33
0100
0000
0001
0000
1000
0000
0130
0200
,  // measure 34
0300
0000
0020
0000
1030
0000
0000
0001
0000
0000
1000
0000
0200
0000
0000
0000
,  // measure 35
2300
3020
0032
0023
,  // measure 36
2030
0000
0000
0000
3001
0000
0000
0010
0000
0000
0001
0000
0001
0000
0000
0000
,  // measure 37
2000
3020
2030
3020
,  // measure 38
1030
0000
0200
0000
0010
0000
0000
0000
1000
0000
0000
0000
0310
0000
0000
0001
,  // measure 39
0000
1000
0001
0000
0010
0200
0300
1000
,  // measure 40
0002
0000
0000
0000
0010
0000
0000
1000
0000
0000
0013
0000
0010
0000
0000
0000
,  // measure 41
0200
2300
3002
0203
,  // measure 42
0301
2000
0010
0000
0001
0000
3100
0000
,  // measure 43
1000
0100
0020
0000
0230
0000
0320
0000
,  // measure 44
0030
0002
1000
0000
0000
0000
1000
0000
,  // measure 45
0000
2003
0001
0000
0000
3000
0001
0000
,  // measure 46
0000
0100
0000
0010
,  // measure 47
0000
1000
0000
0001
,  // measure 48
0000
0000
0000
0000
0010
0000
0000
0001
0000
0000
1000
0000
0000
0000
0000
0001
,  // measure 49
0000
0000
0100
0000
0010
0000
0000
0100
0000
0000
0001
0000
0000
0000
0000
0100
,  // measure 50
0000
0000
0010
0000
1000
0000
0000
0100
0000
0000
0010
0000
0000
0000
0000
0000
,  // measure 51
0100
0010
0002
0000
2003
0000
3002
0000
,  // measure 52
0003
0020
0000
0000
0000
0000
0000
0030
;

//---------------dance-single - ----------------
#NOTES:
     dance-single:
     :
     Easy:
     3:
     0.236405,0.318179,0.040117,0.501464,0.000000,165.000000,161.000000,4.000000,50.000000,0.000000,0.000000,0.236405,0.318179,0.040117,0.501464,0.000000,165.000000,161.000000,4.000000,50.000000,0.000000,0.000000:
// measure 0
0000
0000
0000
0000
,  // measure 1
0000
0000
0000
0000
,  // measure 2
0000
0000
0000
0000
,  // measure 3
0000
0000
0000
0000
,  // measure 4
0000
1000
0000
0001
,  // measure 5
0000
1000
0000
0001
,  // measure 6
0000
0010
0000
0100
,  // measure 7
0000
0010
0000
0100
,  // measure 8
0000
1100
1000
0001
,  // measure 9
1000
0200
0010
0000
0000
0000
1300
0000
,  // measure 10
0001
0010
0001
1000
,  // measure 11
0010
0200
1000
0000
0000
0000
0302
0000
,  // measure 12
1003
1001
0001
0100
,  // measure 13
0010
0200
1000
0000
0000
0000
0301
0000
,  // measure 14
0100
0010
1000
0100
,  // measure 15
0010
0002
1000
0000
0000
0000
0203
0000
,  // measure 16
0310
0000
1000
0100
1000
0000
0001
0000
,  // measure 17
0100
0000
0010
0100
0010
0000
1000
0000
,  // measure 18
0100
0000
0010
0001
0010
0000
0100
0000
,  // measure 19
1000
1001
0000
0000
,  // measure 20
0000
1010
1000
0001
,  // measure 21
1000
0000
0100
0000
0010
0002
0003
2000
,  // measure 22
3000
0002
0000
0000
0013
0200
0300
2000
,  // measure 23
3000
0200
0000
0300
1000
0002
0003
0020
,  // measure 24
0030
0002
0000
0000
2003
0000
0000
0000
,  // measure 25
0010
0000
0000
0000
0001
0000
3000
2000
,  // measure 26
3000
0200
1300
0000
0100
0000
1000
0000
,  // measure 27
0010
0100
0001
0010
,  // measure 28
0100
1000
0001
1000
,  // measure 29
0010
0000
1000
0000
0001
0200
0300
0020
,  // measure 30
0030
0200
0000
0000
0301
0020
0030
0200
,  // measure 31
0300
0020
0000
0030
0001
2000
3000
0020
,  // measure 32
0030
2000
0000
0000
3002
0000
0000
0000
,  // measure 33
0100
0000
0000
0000
1000
0000
0003
0002
,  // measure 34
0003
0200
0310
0000
0100
0000
0001
0000
,  // measure 35
0010
0100
1000
0010
,  // measure 36
0100
0001
1000
0001
,  // measure 37
2000
3200
2300
3200
,  // measure 38
0310
0002
0000
0000
1000
0000
0000
0003
,  // measure 39
0001
0000
0010
0000
0100
2000
0000
3001
,  // measure 40
2000
0000
0000
0000
0010
3000
0000
0000
,  // measure 41
2000
3200
0320
0032
,  // measure 42
1003
0020
0000
0000
0100
0000
0030
0000
,  // measure 43
1000
0001
0020
0000
0032
0000
0023
0000
,  // measure 44
0030
0002
1000
0000
0000
0000
0000
0000
,  // measure 45
0000
0000
0100
0000
0000
0003
0000
0000
,  // measure 46
0000
0001
0000
1000
,  // measure 47
0000
0001
0000
1000
,  // measure 48
0000
0100
0000
0000
,  // measure 49
0000
0010
0000
0000
,  // measure 50
0000
0001
0000
0000
,  // measure 51
1000
0001
0200
0000
0320
0000
0230
0000
,  // measure 52
0300
0020
0000
0000
0000
0000
0000
0030
;

//---------------dance-single - ----------------
#NOTES:
     dance-single:
     :
     Beginner:
     1:
     0.106024,0.157209,0.010029,0.000000,0.000000,74.000000,73.000000,1.000000,0.000000,0.000000,0.000000,0.106024,0.157209,0.010029,0.000000,0.000000,74.000000,73.000000,1.000000,0.000000,0.000000,0.000000:
// measure 0
0000
0000
0000
0000
,  // measure 1
0000
0000
0000
0000
,  // measure 2
0000
0000
0000
0000
,  // measure 3
0000
0000
0000
0000
,  // measure 4
0000
1000
0000
0000
,  // measure 5
0000
0100
0000
0000
,  // measure 6
0000
0010
0000
0000
,  // measure 7
0000
0001
0000
0000
,  // measure 8
0000
1000
0000
0000
,  // measure 9
0000
0001
0000
0000
,  // measure 10
0000
1000
0000
0000
,  // measure 11
0000
0001
0000
0000
,  // measure 12
0000
0010
0000
0000
,  // measure 13
0000
0100
0000
0000
,  // measure 14
0000
0010
0000
0000
,  // measure 15
0000
0100
0000
0000
,  // measure 16
0000
1000
0000
0000
,  // measure 17
0000
0001
0000
0000
,  // measure 18
0000
1000
0000
0000
,  // measure 19
0000
0001
0000
0000
,  // measure 20
0000
1001
0000
1000
,  // measure 21
0000
0100
0000
1000
,  // measure 22
0000
0100
0000
0010
,  // measure 23
0000
0001
0000
0010
,  // measure 24
0000
0001
0000
1000
,  // measure 25
0000
0001
0000
1000
,  // measure 26
0000
0001
0000
0100
,  // measure 27
0000
0001
0000
0100
,  // measure 28
0000
0001
0000
0010
,  // measure 29
0000
0100
0000
0010
,  // measure 30
0000
0100
0000
1000
,  // measure 31
0000
0001
0000
1000
,  // measure 32
0000
0001
0000
0100
,  // measure 33
0000
0010
0000
0100
,  // measure 34
0000
0010
0000
1000
,  // measure 35
0000
0001
0000
1000
,  // measure 36
0000
0001
0000
0010
,  // measure 37
0000
0001
0000
0010
,  // measure 38
0000
0100
0000
1000
,  // measure 39
0000
0100
0000
1000
,  // measure 40
0000
0001
0000
1000
,  // measure 41
0000
0001
0000
1000
,  // measure 42
0000
0010
0000
0100
,  // measure 43
0000
0010
0000
0100
,  // measure 44
0000
0001
0000
0000
,  // measure 45
0000
0010
0000
0000
,  // measure 46
0000
0100
0000
0000
,  // measure 47
0000
1000
0000
0000
,  // measure 48
0000
0001
0000
0000
,  // measure 49
0000
0010
0000
0000
,  // measure 50
0000
0100
0000
0000
,  // measure 51
0000
1000
0000
0000
,  // measure 52
0000
0001
0000
0000
;
