#TITLE:Beautiful Stranger;
#SUBTITLE:;
#ARTIST:Madonna;
#TITLETRANSLIT:;
#SUBTITLETRANSLIT:;
#ARTISTTRANSLIT:;
#GENRE:;
#CREDIT:;
#MUSIC:Beautiful Stranger.ogg;
#BANNER:;
#BACKGROUND:;
#CDTITLE:;
#SAMPLESTART:0.000;
#SAMPLELENGTH:0.000;
#SELECTABLE:YES;
#OFFSET:-0.322;
#BPMS:0.000=121.818
,8.000=61.300
,12.000=121.801
,16.000=122.801
,48.000=121.801
,56.000=122.585
,96.000=122.409
,176.000=122.432
;
#STOPS:;
#BGCHANGES:;
#FGCHANGES:;

//--------------- dance-single - ----------------
#NOTES:
     dance-single:
     :
     Beginner:
     3:
     0,0,0,0,0:
0000
0000
0000
0000
,
0010
0000
0010
0000
,
0010
0000
0000
0000
,
0200
0000
0300
0000
,
0002
0000
0003
0000
,
2000
0000
3000
0000
,
0020
0000
0030
0000
,
2000
0000
3000
0000
,
0020
0000
0030
0000
,
0020
0000
0030
0000
,
0200
0000
0300
0000
,
0002
0000
0003
0000
,
2000
0000
3000
0000
,
0002
0000
0003
0000
,
2000
0000
3000
0000
,
1001
0000
0001
0000
,
2000
0000
3000
0000
,
0001
0000
0001
0000
,
0001
0000
1000
0000
,
2000
0000
3000
0000
,
0010
0000
0100
0000
,
0002
0000
0003
0000
,
1000
0000
0001
0000
,
2000
0000
3000
0000
,
0020
0000
0030
0000
,
2000
0000
3000
0000
,
0020
0000
0030
0000
,
2000
0000
3000
0000
,
0002
0000
0003
0000
,
0200
0000
0300
0000
,
0020
0000
0030
0000
,
1000
0000
1000
0000
,
0002
0000
0000
0000
,
0003
0000
0010
0000
,
0100
0000
0001
0000
,
2000
0000
3000
0000
,
0100
0000
0010
0000
,
0020
0000
0030
0000
,
0100
0000
1000
0000
,
0002
0000
0003
0000
,
2000
0000
3000
0000
,
1000
0000
0100
0000
,
0010
0000
0200
0000
,
0300
0000
0100
0000
,
0010
0000
0001
0000
,
1000
0000
0001
0000
,
0100
0000
0010
0000
,
1000
0000
1000
0000
,
0001
0000
1000
0000
,
1001
0000
0000
0000
,
0200
0000
0300
0000
,
1001
0000
0100
0000
,
0100
0000
0010
0000
,
1001
0000
0000
0000
;

//--------------- dance-single - ----------------
#NOTES:
     dance-single:
     :
     Easy:
     5:
     0,0,0,0,0:
0000
1000
0001
0100
,
0010
1000
0001
1000
,
2002
0000
0000
3003
,
2000
0000
0000
3001
,
0200
0000
0000
0310
,
2000
0000
0000
3010
,
0200
0000
0301
1000
,
0020
0000
0000
0030
,
0110
0000
0200
0000
,
0302
0000
2000
3003
,
2002
3003
1000
0001
,
2002
0000
3003
0000
,
0001
0000
1000
0010
,
0200
0000
0300
0000
,
0001
0000
1000
0000
,
2001
0100
3001
0100
,
0002
0000
0003
0000
,
1001
1000
0001
0100
,
0010
0000
1000
1000
,
0002
0000
0003
0000
,
1000
0010
0100
0001
,
1000
0100
1000
0001
,
0200
0000
0300
0010
,
2000
0000
0001
0100
,
3002
0000
0010
1000
,
0203
0000
0010
1000
,
0302
0000
1000
0010
,
2003
0000
0100
0001
,
3020
0000
0100
1000
,
0130
1000
0002
0000
,
0000
0000
0000
0003
,
2001
0000
3001
0100
,
0020
0000
0000
0030
,
1000
0010
0100
0100
,
0010
0000
1000
0001
,
0200
0300
0010
1000
,
0001
0100
0010
1000
,
0020
0000
0130
0100
,
0001
1000
0010
1000
,
1002
0000
0000
1000
,
0203
0000
0000
0310
,
0100
0001
0100
0010
,
1000
0001
0010
0010
,
0020
0000
0130
0010
,
2000
0000
3010
1000
,
0002
0000
1003
0100
,
2000
0000
3010
0100
,
1001
0001
0100
0010
,
1010
1000
0010
1000
,
2002
3003
1000
0000
,
0020
0000
0030
0000
,
1001
0010
0100
0010
,
1001
0010
0100
0010
,
2002
0000
0000
0000
,
3003
0000
0000
0000
;

//--------------- dance-single - ----------------
#NOTES:
     dance-single:
     :
     Medium:
     8:
     0,0,0,0,0:
0000
1000
0001
0100
,
0010
1000
0100
0010
,
0002
0000
0003
0100
0000
0100
0000
0100
0000
0010
0000
0010
0000
1000
0000
0000
,
0001
0000
1000
0002
0000
1003
0010
0000
,
0100
0000
0001
0010
0000
0010
0002
0000
,
1003
0000
0010
0100
0000
0100
0002
0000
,
1003
0000
0010
0100
0001
0010
0001
1000
,
0020
0000
0000
0030
,
1001
0000
0000
1000
0100
2000
0000
3001
,
0100
0010
1000
0002
0000
1003
0000
0000
,
1002
0000
0003
0000
1000
0100
0010
0100
,
2000
0000
0000
3010
0000
0000
0100
0001
,
0100
0000
0000
0000
0010
1000
0010
2000
,
0000
3002
0000
2003
0000
3010
0000
0000
,
1001
0000
0000
0001
0000
0000
1000
0100
,
1000
0000
0001
0100
0001
0000
1000
0010
,
1000
0000
0000
2000
0000
0000
0200
0000
0000
0000
3300
0000
0000
0000
0000
0000
,
0011
0000
0001
0100
0010
0000
1000
0100
,
1000
0000
0000
0000
0001
1000
0010
1000
,
0002
0000
0003
0000
,
1000
0100
0010
0001
0010
0000
0100
1000
,
0100
1000
0001
0200
0000
0002
0303
0000
,
0101
0000
0000
0001
0000
0000
1000
0001
,
0200
0000
0000
0310
1000
0010
0100
0002
,
0000
1003
0000
0000
0000
0001
0010
0002
,
0000
0000
1003
0000
0001
0100
0010
1000
,
0002
0000
0000
1000
,
1003
0000
0010
0100
0001
1000
0000
0010
,
0100
0020
0000
0030
0000
1000
0100
1000
,
0001
0100
0002
0000
2000
0000
0000
0000
,
0000
0000
0003
3100
,
2200
0000
0000
0000
3000
0000
1300
0002
,
0000
0000
0000
0200
0000
0000
0303
0000
,
2001
0000
0000
0000
3001
0000
1000
0001
,
2001
0000
3001
0000
2000
3200
0320
0230
,
2300
0000
3010
0100
0001
1000
0100
1000
,
0000
0002
0000
0000
0000
0000
0003
0000
,
1001
0000
0000
1000
0100
0010
0001
0100
,
0000
0020
0000
0000
0000
0000
0030
0000
,
1001
0000
1000
0001
0000
0000
1000
0002
,
0000
0000
0000
0020
0000
0000
0033
0000
,
0002
0000
2003
0000
3200
0010
0000
1000
,
0000
0301
0000
0000
0002
0203
0320
0230
,
0302
0000
0003
1000
0100
1000
0001
0100
,
0010
0000
1000
0100
0000
0100
0010
0000
,
1100
0010
0001
0100
,
1010
1000
0100
0010
,
1001
0101
1010
1001
,
1010
0000
1001
0000
1000
0001
0000
1000
,
0020
0001
0230
0000
,
0320
0000
0000
0130
0000
0000
0010
0000
,
1001
1010
1001
1010
,
0101
0000
1010
0000
1000
0001
0000
0001
,
0020
0000
0000
0000
,
0030
0000
0000
0000
;

//--------------- dance-single - ----------------
#NOTES:
     dance-single:
     :
     Hard:
     11:
     0,0,0,0,0:
0000
0000
1000
0100
0001
0100
1000
0010
,
0100
0001
1000
0100
0001
0100
1000
0001
,
1002
0000
0000
0203
0000
0320
0000
2030
0000
3020
0000
0230
0000
0302
0000
1003
,
1002
0000
0103
0010
0010
0100
0001
1000
,
2001
0000
0001
3002
0000
0100
0103
0010
,
1020
0000
1030
0001
0000
0001
1000
0100
,
0020
0000
0031
1000
0100
0010
0001
1000
,
1002
0000
0103
0010
0000
0010
1000
0100
,
0020
0000
0031
1000
0100
1000
0000
0001
,
0100
0010
1000
0020
0000
0130
0001
0010
,
0001
1000
0010
0100
0001
1000
0100
0010
,
0002
0000
1003
0020
0000
0130
0001
1000
,
0100
0100
0010
0001
0100
0010
1000
0100
,
0010
0001
2000
0010
0000
3100
0010
0001
,
0020
0000
0031
0100
0000
0010
1000
0100
,
0010
0000
0001
1000
0010
0000
0100
0001
,
1000
0000
0000
0010
0000
0000
0100
0000
0001
0000
0010
0000
0001
0000
0100
0000
,
0010
0000
1000
0001
0200
0000
0310
1000
,
0100
0010
0000
0001
0100
0010
1000
0100
,
2000
0000
3001
0001
0000
0100
0010
1000
,
0001
0010
1000
0010
0002
0000
1003
0100
,
0010
0001
1000
0200
0000
1300
0100
0010
,
0001
1000
0100
1000
0000
0010
0100
0001
,
2001
0000
0001
3001
0100
0010
1000
0100
,
0010
0001
0100
0020
0000
1030
0100
0010
,
0001
0000
1001
0000
1000
0001
0100
0010
,
1000
0100
0010
0002
0000
0103
0010
1000
,
1001
0000
0001
0100
0010
1000
0000
0100
,
0010
0001
0100
0010
0000
1000
0100
1000
,
0001
0100
0010
0000
2000
0000
0001
0000
,
3001
0000
0100
0010
0000
0010
1000
0001
,
1000
0000
0001
0100
0010
1000
0100
0010
,
0020
0000
0130
2000
0000
3001
0010
0001
,
1000
0000
0001
0001
0100
0000
0010
2000
,
0001
3002
0013
0000
0004
0403
0340
4030
,
3004
0000
1003
0010
0001
0010
1000
0002
,
0000
0013
0001
2000
0000
3010
1000
0100
,
1000
0001
1000
0100
0010
0001
1000
0002
,
0000
0103
0001
0020
0000
0031
0100
0010
,
1000
0001
1001
1000
0000
0010
0200
0001
,
0002
0300
0000
0103
0000
0010
1000
0100
,
0010
0000
0021
0000
0130
0100
0000
0010
,
1000
0000
1000
0100
0040
0034
0043
0034
,
4003
0000
3010
0100
0001
1000
0100
0010
,
0002
0000
0103
0010
0000
0010
0100
0001
,
1000
0000
0100
0010
0001
0100
0010
1000
,
0100
0000
1000
0000
0001
0000
0010
0100
0010
0000
0001
0000
1000
0000
0001
0000
,
1001
0000
1000
0010
0100
0000
0001
0000
0101
0000
0100
0000
0010
0000
1000
0000
,
1010
1000
0100
0010
0001
0001
0100
0010
,
0110
0000
0100
0001
1000
0100
0010
0100
,
1000
0100
0010
0001
0100
0010
1000
0010
,
1010
0000
1000
0001
1000
0000
0010
0000
0110
0000
0100
0000
0001
0000
1000
0000
,
1001
0000
0001
0000
0100
0100
0010
1000
,
2002
0000
0000
0000
,
3003
0000
0000
0000
;
