#VERSION:0.83;
#TITLE:Snow Light;
#SUBTITLE:;
#ARTIST:AJURIKA;
#TITLETRANSLIT:;
#SUBTITLETRANSLIT:;
#ARTISTTRANSLIT:;
#GENRE:PSYCHEDELIC WINTER TRANCE;
#ORIGIN:;
#CREDIT:;
#BANNER:banner.png;
#BACKGROUND:Snow Light-background.png;
#PREVIEWVID:;
#JACKET:jacket.png;
#CDIMAGE:;
#DISCIMAGE:;
#LYRICSPATH:;
#CDTITLE:;
#MUSIC:Snow Light.ogg;
#OFFSET:-3.000000;
#SAMPLESTART:70.260826;
#SAMPLELENGTH:22.929932;
#SELECTABLE:YES;
#BPMS:0.000=157.000,
98.000=78.500,
99.000=157.000,
105.000=78.500,
106.000=157.000;
#STOPS:171.500=0.764;
#DELAYS:;
#WARPS:;
#TIMESIGNATURES:0.000=4=4;
#TICKCOUNTS:0.000=4;
#COMBOS:0.000=1;
#SPEEDS:0.000=1.000=0.000=0;
#SCROLLS:0.000=1.000;
#FAKES:;
#LABELS:0.000=Song Start;
#BGCHANGES:;
#KEYSOUNDS:;
#ATTACKS:
;

//---------------dance-single - ----------------
#NOTEDATA:;
#CHARTNAME:;
#STEPSTYPE:dance-single;
#DESCRIPTION:;
#CHARTSTYLE:;
#DIFFICULTY:Hard;
#METER:12;
#RADARVALUES:0.503889,0.660803,0.376772,0.160328,0.388796,440.000000,393.000000,47.000000,20.000000,0.000000,0.000000,0.000000,0.000000,0.000000,0.503889,0.660803,0.376772,0.160328,0.388796,440.000000,393.000000,47.000000,20.000000,0.000000,0.000000,0.000000,0.000000,0.000000;
#CREDIT:Pandemonium X;
#NOTES:
0000
0000
0000
0000
,
0000
0000
0000
0000
,
0000
0000
0000
0000
,
0101
0000
0000
0100
0000
0000
0100
0000
0000
0000
0000
0000
0000
0000
0000
0000
,
1001
0001
0010
0001
,
1000
0000
0100
0000
0110
0000
0100
1100
,
1000
0001
0010
0001
,
0100
0010
1000
0100
,
0110
0010
0001
1000
,
0001
0000
1000
0000
0011
0000
0001
0101
,
0100
0010
1000
0001
,
1000
0000
0100
0000
0010
0000
0021
0000
0000
0000
0130
0000
0000
0000
1000
0001
,
1000
0010
0100
0001
,
0010
0000
0100
0000
0110
0000
0010
0011
,
0001
1000
0010
1000
,
0110
0010
0100
1000
,
0101
0001
1000
0100
,
0010
0000
0100
1100
1000
0000
1001
0000
,
0101
0001
0010
0100
,
0210
0000
0000
0000
2000
0000
0000
3300
,
0012
0000
0000
0103
0101
0000
0000
0000
,
1020
0000
0000
0000
0130
0000
0010
1000
0001
0000
0000
0000
0000
0000
0000
0000
,
1200
0000
0000
0310
0110
0000
0000
0000
,
0021
0000
0000
0001
0000
0000
0130
0010
0100
0000
0000
0000
0000
0000
0000
0000
,
1002
0000
0000
0000
0000
0000
0000
0000
0200
0000
0000
0303
1010
0000
0000
0000
,
0100
0000
0010
1000
0001
0000
0000
0000
0000
0000
0000
0000
1200
0000
0000
0000
,
0000
0000
0000
0000
0020
0000
0000
0330
1001
0000
0000
0001
0000
0000
0001
0000
,
1000
0000
0000
0001
0020
0000
0000
0000
,
0032
0000
0203
0000
,
2300
0000
3200
0000
,
0320
0000
0000
0000
0000
0000
0000
0000
1030
0000
0000
1000
0000
0000
1000
0000
,
0001
0000
0000
0000
0000
0000
1000
0001
1000
0000
0000
0000
0100
0000
0010
0000
,
0002
0000
0000
0000
0013
0000
0100
1000
,
0001
0000
0000
0000
0110
0000
0010
1000
,
0200
0000
0000
0000
0310
0000
0100
1000
,
0002
0000
0000
0003
1010
0000
1000
0001
,
0100
0000
0001
0000
0101
0000
0100
0010
,
1000
0000
0100
0000
1100
0000
0100
1000
,
0001
0000
1000
0000
1001
0000
0001
0100
,
0010
0000
1000
0000
0011
0000
0001
0100
,
1000
0000
0100
0000
0110
0000
0010
1000
,
0001
0000
0010
0000
0110
0000
0100
1000
,
0001
0000
0000
0000
0100
0000
0000
0000
0010
0000
0000
0100
0000
0000
0001
0000
,
1001
0000
0000
1000
0000
0000
0001
0000
0000
1000
0000
0000
0010
0000
0100
0000
,
0001
0000
0000
0010
0000
0000
0100
0010
0000
0001
0000
1000
0010
0000
0100
0000
,
0001
0000
0000
0001
0000
0000
0010
0000
0000
0100
0000
0000
0010
0000
0001
0000
,
1000
0000
0000
0010
0000
0000
1000
0010
0000
0100
0000
0100
0010
0000
1000
0000
,
0001
0000
0000
0010
0000
0000
0001
0000
0000
1000
0000
0000
0100
0000
1000
0000
,
0010
0000
0000
0100
0000
0000
0010
1000
0000
0001
0000
0010
0001
0000
1000
0000
,
0001
0000
0000
1000
0000
0000
0010
0000
0000
1000
0000
0000
0100
0000
0010
0000
,
0001
0000
0000
0010
0000
0000
0001
0100
0000
0001
1000
0000
0100
0000
0010
0000
,
0001
0000
0000
1000
0000
0000
0100
0000
0000
1000
0000
0000
0010
0000
1000
0000
,
0001
0000
0000
0010
0000
0000
0100
0010
0000
0001
0000
1000
0010
0000
0100
0000
,
0001
0000
0000
1000
0000
0000
0010
0000
0000
0100
0000
0000
0010
0000
1000
0000
,
0001
0000
0000
0010
0000
0000
0100
0010
0000
0001
0000
1000
0010
0000
0100
0000
,
0010
0000
0000
1000
0000
0000
0001
0000
0000
0010
0000
0000
0100
0000
0010
0000
,
0001
0000
0000
0100
0000
0000
0010
1000
0000
0001
0000
0010
0100
0000
0010
0000
,
0001
0000
0000
1000
0000
0000
0010
0000
0000
1000
0000
0000
0100
0000
1000
0000
,
0001
0000
0010
0000
0100
0000
1000
0100
0000
0110
0000
0000
0010
0000
0001
0000
,
1000
0000
0000
0001
0000
0000
0010
0001
0000
0100
0000
0010
1000
0000
0001
0000
,
1000
0000
0000
0100
0000
0000
0010
0100
0000
0010
0000
0001
1000
0000
0010
0000
,
0100
0000
0000
0010
0000
0000
1000
0010
0000
0100
0000
0001
0010
0000
0001
0000
,
1000
0000
0000
0001
0000
0000
0010
0001
0000
0100
0000
0010
1000
0000
0001
0000
,
0010
0100
1000
0010
0000
0100
0001
1000
,
0000
0100
0010
0001
0000
0010
0100
1000
,
0000
0001
0100
1000
0000
1000
0100
0001
,
0000
0001
0010
1000
0000
1000
0010
0001
,
1001
0000
0000
1000
0000
0000
0001
0010
0000
0001
0000
0010
0100
0000
1000
0000
,
0001
0000
0000
1000
0000
0000
0010
1000
0000
0010
0000
0100
0001
0000
0010
0000
,
0100
0000
0000
0010
0000
0000
0001
1000
0000
0001
0000
0100
0001
0000
0010
0000
,
0100
0000
0000
0010
0000
0000
0100
1000
0000
0010
0000
0100
0010
0000
1000
0000
,
0001
0000
0000
0001
0000
0000
0001
0000
0000
1000
0000
0000
0010
0000
1000
0000
,
0100
0000
0000
0100
0000
0000
0100
0000
0000
0010
0000
0000
0100
0000
1000
0000
,
0101
0000
0000
0101
0000
0000
0101
0000
0000
0101
0000
0000
0101
0000
0000
1010
,
0000
0000
1010
0000
0000
1010
0000
0000
1010
0000
0000
1010
0000
0000
0001
1000
;

//---------------dance-single - ----------------
#NOTEDATA:;
#CHARTNAME:;
#STEPSTYPE:dance-single;
#DESCRIPTION:;
#CHARTSTYLE:;
#DIFFICULTY:Medium;
#METER:10;
#RADARVALUES:0.384788,0.420511,0.224460,0.248509,0.164337,336.000000,308.000000,28.000000,31.000000,0.000000,0.000000,0.000000,0.000000,0.000000,0.384788,0.420511,0.224460,0.248509,0.164337,336.000000,308.000000,28.000000,31.000000,0.000000,0.000000,0.000000,0.000000,0.000000;
#CREDIT:Pandemonium X;
#NOTES:
0000
0000
0000
0000
,
0000
0000
0000
0000
,
0000
0000
0000
0000
,
0010
0000
0000
0010
0000
0000
0010
0000
0000
0000
0000
0000
0000
0000
0000
0000
,
1001
0001
0000
0010
0000
0001
0000
0100
,
0000
0010
0000
1000
0000
0010
0000
0100
,
0000
0010
1000
0100
0000
0010
0000
0100
,
0000
1000
0000
0001
0000
0100
0000
0010
,
1000
0100
0010
0100
0000
0010
0000
0001
,
0000
1000
0000
0001
0000
0100
0000
0001
,
0000
0010
0100
1000
0000
0100
0000
1000
,
0000
0010
0000
0110
0000
1001
0000
0000
,
1001
0000
0001
1000
0000
0001
0000
0010
,
0000
0001
0000
0100
0000
0010
0000
1000
,
0000
0001
0100
1000
0000
0100
0000
0010
,
0000
1000
0000
0001
0000
0010
0000
0100
,
0010
0001
1000
0100
0000
1000
0000
0010
,
0000
0100
0000
0001
0000
0010
0000
1000
,
0000
0010
0100
1000
0000
0100
0000
1000
,
1010
0000
0011
0000
,
0102
0000
0013
0000
,
2100
0000
3010
0000
,
1002
0000
0103
0000
,
2001
0000
3010
0000
,
1020
0000
0130
0011
,
0010
0001
0100
0000
0000
0000
1020
0000
,
0000
0000
0000
0000
0130
0000
0000
0000
1001
0000
0000
1000
0000
0000
0001
0000
,
0010
0100
0120
0000
,
0032
0000
0203
0000
,
2300
0000
3200
0000
,
0320
0000
2030
0000
,
3002
0000
0000
0003
0011
0000
0010
0100
,
1000
0000
0000
0000
1100
0000
0100
1000
,
0010
0000
0000
0000
0110
0000
0100
0010
,
1000
0000
0000
0000
0101
0000
0001
1000
,
0020
0000
0030
0000
1010
0000
0001
0100
,
0010
0000
0000
0000
1100
0000
0100
0010
,
0001
0000
0000
0000
0110
0000
0100
1000
,
0001
0000
0000
0000
1010
0000
0010
1000
,
0100
0000
1100
0100
,
1000
0000
0110
0100
,
0001
0000
0110
0100
,
1000
0000
0000
0000
0000
0000
0000
0000
0001
0000
0000
0001
0000
0000
0001
0000
,
1001
0000
0000
0001
0000
0000
1000
0000
0000
0010
0000
0000
1000
0000
0000
0000
,
0100
0000
0000
1000
0000
0000
0010
0000
0000
0100
0000
0000
0001
0000
0000
0000
,
1000
0000
0000
0100
0000
0000
0010
0000
0000
0100
0000
0000
1000
0000
0000
0000
,
0100
0000
0000
1000
0000
0000
0010
0000
0000
0100
0000
0000
0001
0000
0000
0000
,
1000
0000
0000
0001
0000
0000
0010
0000
0000
0100
0000
0000
0010
0000
0000
0000
,
0100
0000
0000
1000
0000
0000
0010
0000
0000
0100
0000
0000
0001
0000
0000
0000
,
1000
0000
0000
0001
0000
0000
0010
0000
0000
0100
0000
0000
0010
0000
0000
0000
,
0100
0000
0000
1000
0000
0000
0100
0000
0000
1000
0000
0000
0010
0000
0100
0000
,
0001
0000
0000
1000
0000
0000
0001
0000
0000
0100
0000
0000
0010
0000
0000
0000
,
1000
0000
0000
0010
0000
0000
0100
0000
0000
0001
0000
0000
0010
0000
0000
0000
,
0100
0000
0000
0010
0000
0000
0001
0000
0000
0010
0000
0000
0100
0000
0000
0000
,
0100
0000
0000
1000
0000
0000
0010
0000
0000
0100
0000
0000
0001
0000
0000
0000
,
1000
0000
0000
0001
0000
0000
0100
0000
0000
0001
0000
0000
1000
0000
0000
0000
,
0100
0000
0000
1000
0000
0000
0010
0000
0000
0100
0000
0000
0001
0000
0000
0000
,
1000
0000
0000
0100
0000
0000
1000
0000
0000
0010
0000
0000
0100
0000
0000
0000
,
0010
0000
0000
0100
0000
0000
0110
0000
0000
0100
0010
0000
1000
0000
0001
0000
,
2000
0000
3100
0000
0100
1000
0010
0000
,
0200
0000
0310
0000
0100
0010
1000
0000
,
0002
0000
0013
0000
0100
0010
0001
0000
,
2000
0000
3001
0000
0100
0010
1000
0000
,
0002
0103
0002
1003
,
0002
0013
0002
1003
,
2000
3001
2000
3010
,
2000
3100
2000
3001
,
2000
0000
3010
0000
0100
0010
1000
0000
,
0002
0000
0013
0000
0100
0010
0001
0000
,
0020
0000
0130
0000
0010
0001
1000
0000
,
0200
0000
1300
0000
0100
1000
0010
0000
,
0100
0010
0100
0000
0010
0000
1000
0000
,
0001
1000
0001
0000
1000
0000
0001
0000
,
0100
0000
0000
0010
0000
0000
1000
0000
0000
0001
0000
0000
0010
0000
0000
1000
,
0000
0000
0010
0000
0000
0001
0000
0000
0100
0000
0000
0010
0000
0000
1000
0001
;

//---------------dance-single - ----------------
#NOTEDATA:;
#CHARTNAME:;
#STEPSTYPE:dance-single;
#DESCRIPTION:;
#CHARTSTYLE:;
#DIFFICULTY:Easy;
#METER:7;
#RADARVALUES:0.369900,0.390149,0.400821,0.160328,0.000000,323.000000,273.000000,50.000000,20.000000,0.000000,0.000000,0.000000,0.000000,0.000000,0.369900,0.390149,0.400821,0.160328,0.000000,323.000000,273.000000,50.000000,20.000000,0.000000,0.000000,0.000000,0.000000,0.000000;
#CREDIT:;
#NOTES:
// measure 0
0000
0000
0000
0000
,  // measure 1
0000
0000
0000
0000
,  // measure 2
0000
0000
0000
0000
,  // measure 3
0000
0000
0000
0000
,  // measure 4
1001
1000
0001
0010
,  // measure 5
0001
0000
0100
0000
0101
0000
0001
1000
,  // measure 6
0001
1000
0100
0001
,  // measure 7
0100
1000
0010
0100
,  // measure 8
0101
0001
1000
0010
,  // measure 9
1000
0000
0100
0000
0110
0000
0100
1000
,  // measure 10
0100
0100
1000
0010
,  // measure 11
0110
0000
0100
0010
0000
1001
0000
0000
,  // measure 12
0011
0001
0010
0001
,  // measure 13
1000
0000
0100
0000
0110
0000
0100
1000
,  // measure 14
0001
1000
0001
0100
,  // measure 15
1010
0100
0001
1000
,  // measure 16
0101
1000
0001
0010
,  // measure 17
0100
0000
1000
0100
1000
0000
1010
0000
,  // measure 18
1001
0001
0100
0010
,  // measure 19
0120
0000
2030
0000
,  // measure 20
3001
0000
0100
0001
0100
0000
0000
0000
,  // measure 21
0010
0000
1000
0010
1000
0000
0000
0000
,  // measure 22
0010
0000
0100
0010
0100
0000
0000
0000
,  // measure 23
0010
0000
1000
0001
1000
0000
0000
0000
,  // measure 24
0001
0000
1020
0130
,  // measure 25
0010
1000
0001
0000
0000
0000
0010
0000
,  // measure 26
0000
0000
1200
0000
0310
0000
0100
1000
,  // measure 27
0010
0000
0200
0000
,  // measure 28
0310
0000
0020
0000
,  // measure 29
1030
0000
2000
0000
,  // measure 30
3001
0000
0002
0000
,  // measure 31
0013
0000
1001
0001
,  // measure 32
0200
0300
1010
0010
,  // measure 33
0100
0000
1010
1000
,  // measure 34
0002
0003
0110
0010
,  // measure 35
0200
0300
1001
0001
,  // measure 36
0100
0000
1001
1000
,  // measure 37
0100
0000
0110
0100
,  // measure 38
1000
0000
1010
0010
,  // measure 39
0100
0000
0101
0001
,  // measure 40
1000
0000
1100
0100
,  // measure 41
1000
0000
1010
0010
,  // measure 42
0100
0000
0000
0000
0002
0000
0000
0003
,  // measure 43
1001
0001
1000
0010
,  // measure 44
1010
0100
1000
0001
,  // measure 45
0101
0001
1000
0100
,  // measure 46
0110
0001
0010
0001
,  // measure 47
0101
0010
1000
0001
,  // measure 48
0110
0001
0010
0100
,  // measure 49
1100
0100
1000
0010
,  // measure 50
0110
0000
0100
0000
0010
0000
1000
0001
,  // measure 51
1000
0001
0010
0100
,  // measure 52
1100
0100
1000
0010
,  // measure 53
0110
0100
0001
0010
,  // measure 54
0110
0100
1000
0001
,  // measure 55
1001
0001
1000
0010
,  // measure 56
1010
0010
1000
0001
,  // measure 57
0011
0010
0100
1000
,  // measure 58
1100
0000
0100
1000
0010
0000
0100
0000
,  // measure 59
1001
0000
0001
0000
0010
0100
0010
0000
,  // measure 60
0100
0000
1000
0000
0010
1000
0010
0000
,  // measure 61
0100
0000
0001
0000
0100
0001
0100
0000
,  // measure 62
0001
0000
1000
0000
0100
1000
0100
0000
,  // measure 63
2000
3010
0020
0130
,  // measure 64
0200
0301
0002
0013
,  // measure 65
0020
0130
0200
1300
,  // measure 66
2000
3001
0002
1003
,  // measure 67
1001
0000
0001
0000
0100
0010
0100
0000
,  // measure 68
0010
0000
1000
0000
0100
0010
0100
0000
,  // measure 69
0010
0000
0001
0000
1000
0010
1000
0000
,  // measure 70
0001
0000
1000
0000
0100
1000
0100
0000
,  // measure 71
1100
0100
0010
0001
,  // measure 72
0011
0010
0100
1000
,  // measure 73
1001
0000
0000
0110
0000
0000
1010
0000
,  // measure 74
0000
0101
0000
0000
1001
0000
0010
0100
;

//---------------dance-single - ----------------
#NOTEDATA:;
#CHARTNAME:;
#STEPSTYPE:dance-single;
#DESCRIPTION:;
#CHARTSTYLE:;
#DIFFICULTY:Beginner;
#METER:3;
#RADARVALUES:0.145441,0.299614,0.144296,0.000000,0.000000,127.000000,109.000000,18.000000,0.000000,0.000000,0.000000,0.000000,0.000000,0.000000,0.145441,0.299614,0.144296,0.000000,0.000000,127.000000,109.000000,18.000000,0.000000,0.000000,0.000000,0.000000,0.000000,0.000000;
#CREDIT:;
#NOTES:
0000
0000
0000
0000
,
0000
0000
0000
0000
,
0000
0000
0000
0000
,
0000
0000
0000
0000
,
1000
0000
0000
0000
,
0000
0000
0000
0000
0001
0000
0000
0100
,
0000
0000
0000
0000
,
0000
0000
0000
0000
,
0010
0000
0000
0000
,
0000
0000
0000
0000
1000
0000
0000
0001
,
0000
0000
0000
0000
,
0100
0000
0000
0000
,
0010
0000
0000
0000
,
0000
0000
0000
0000
1000
0000
0000
0100
,
0000
0000
0000
0000
,
1000
0000
0000
0000
,
0001
0000
0000
0000
,
0000
0000
0000
0100
0000
0000
0010
0000
,
1000
0000
0000
0000
,
0001
0000
1000
0000
,
0110
0000
0000
0000
,
1000
1000
1000
0000
,
1001
0000
0000
0000
,
0001
0001
0001
0000
,
1001
0000
0010
1001
,
1000
1000
0000
1001
,
0000
0100
1001
0010
,
0010
0000
1000
0000
,
1000
0000
0100
0000
,
0100
0000
0010
0000
,
0010
0000
0001
0000
,
0001
0000
1001
0000
,
0000
0000
0110
0000
,
0000
0000
1001
0000
,
0000
0000
0110
0000
,
0000
0000
0110
0000
,
0000
0000
1001
0000
,
0000
0000
0110
0000
,
0000
0000
1001
0000
,
0000
0000
1000
0000
,
0000
0000
0100
0000
,
0000
0000
0010
0000
,
0000
0000
0001
0000
,
1000
0000
0000
0000
,
0010
0000
0100
0000
,
0001
0000
0000
0000
,
1000
0000
1000
0000
,
0001
0000
0000
0000
,
0000
0000
0000
0000
,
0100
0000
0000
0000
,
0010
0000
0000
0000
,
1001
0000
0000
1000
,
1000
0000
0001
0000
,
0100
0000
0000
0000
,
0010
0000
1000
0000
,
0100
0000
0000
0000
,
1000
0000
0000
0000
,
0010
0000
0000
0000
,
0100
0000
0000
0000
,
1001
0000
0000
0001
,
0001
0000
1000
0000
,
0010
0000
0000
0000
,
0100
0000
0010
0000
,
1000
0000
1000
0000
,
0001
0000
0001
0000
,
0100
0000
0100
0000
,
0010
0000
0010
0000
,
1001
0000
0000
1000
,
1000
0000
0001
0000
,
0010
0000
0000
0000
,
0100
0000
0010
0000
,
0001
0001
0001
0000
,
1000
1000
1000
0000
,
1001
0000
0000
0010
0000
0000
0010
0000
,
0000
0010
0000
0000
0010
0000
0010
0000
;
