#VERSION:0.83;
#TITLE:Scotland the Rave;
#SUBTITLE:Radio Edit;
#ARTIST:CRUX;
#TITLETRANSLIT:;
#SUBTITLETRANSLIT:;
#ARTISTTRANSLIT:;
#GENRE:;
#ORIGIN:;
#CREDIT:;
#BANNER:scotlandtherave-bn.png;
#BACKGROUND:scotlandtherave-bg.png;
#PREVIEWVID:;
#JACKET:scotlandtherave-jacket.png;
#CDIMAGE:;
#DISCIMAGE:;
#LYRICSPATH:;
#CDTITLE:cdtitle.png;
#MUSIC:scotlandtherave.ogg;
#OFFSET:-2.975000;
#SAMPLESTART:62.226845;
#SAMPLELENGTH:11.850217;
#SELECTABLE:YES;
#BPMS:0.000=162.020,
96.000=81.010,
112.000=162.020;
#STOPS:;
#DELAYS:;
#WARPS:;
#TIMESIGNATURES:0.000=4=4;
#TICKCOUNTS:0.000=4;
#COMBOS:0.000=1;
#SPEEDS:0.000=1.000=0.000=0;
#SCROLLS:0.000=1.000;
#FAKES:;
#LABELS:0.000=Song Start;
#BGCHANGES:;
#KEYSOUNDS:;
#ATTACKS:
;

//---------------dance-single - ----------------
#NOTEDATA:;
#CHARTNAME:;
#STEPSTYPE:dance-single;
#DESCRIPTION:;
#CHARTSTYLE:;
#DIFFICULTY:Hard;
#METER:11;
#RADARVALUES:0.518322,0.684855,0.118681,0.118681,0.233124,428.000000,414.000000,14.000000,14.000000,0.000000,0.000000,0.000000,0.000000,0.000000,0.518322,0.684855,0.118681,0.118681,0.233124,428.000000,414.000000,14.000000,14.000000,0.000000,0.000000,0.000000,0.000000,0.000000;
#CREDIT:TonyAkita;
#NOTES:
// measure 0
0001
0000
0001
0000
,  // measure 1
1000
0000
0000
0000
0100
0000
0000
0000
0010
0000
0000
0000
0001
0000
0000
0001
,  // measure 2
0100
0000
0100
0000
,  // measure 3
0010
0000
0000
0000
0001
0000
0000
0000
0010
0000
0000
0000
1000
0000
0000
1000
,  // measure 4
0002
0000
0100
0000
,  // measure 5
2003
0000
0100
0000
,  // measure 6
3001
0000
0100
0001
,  // measure 7
0100
0000
0010
0000
1000
0100
0010
0001
,  // measure 8
2000
0000
0010
0000
,  // measure 9
3001
0000
0000
0001
0010
0000
0000
0010
0100
0000
0000
0100
1000
0000
0000
1000
,  // measure 10
0002
0000
1000
0000
,  // measure 11
0103
0000
0000
0100
1000
0000
0000
1000
0100
0000
0000
0100
0001
0000
0000
0001
,  // measure 12
1000
0100
0010
0000
0100
0000
1100
0000
,  // measure 13
0001
0100
0010
0000
0100
0000
0101
0000
,  // measure 14
0002
0000
0010
0000
,  // measure 15
0013
0000
0100
0000
1000
0010
0100
0001
,  // measure 16
0010
0001
0100
0001
0010
1000
0010
0001
,  // measure 17
1000
0010
0100
0001
1000
0010
1010
0000
,  // measure 18
0010
1000
0100
1000
0010
0001
0010
1000
,  // measure 19
0001
0010
0100
1000
0001
0010
0011
0000
,  // measure 20
1000
0100
0001
0100
1000
0100
0010
0000
,  // measure 21
0001
0100
1000
0100
0001
0100
0010
0000
,  // measure 22
1000
0100
0010
0001
0100
0010
1000
0010
,  // measure 23
0100
0001
0010
0001
1000
0010
0100
0001
,  // measure 24
1000
0100
0010
0000
0001
1000
0000
0001
0010
0000
0100
0010
0000
0100
1000
0000
,  // measure 25
0001
0100
0010
0000
1000
0001
0000
1000
0010
0000
0100
0010
0000
0100
0001
0000
,  // measure 26
1000
0100
0001
0000
0100
1000
0000
0010
1000
0000
0001
0100
0000
0001
0010
0000
,  // measure 27
0001
0100
1000
0000
0100
0001
0000
0100
0010
0000
1000
0010
0000
0010
0000
0010
,  // measure 28
0100
1000
0000
0000
0001
0100
0000
0000
1000
0000
1000
0000
1000
0000
0000
0000
,  // measure 29
0001
0010
0001
1000
0001
0010
0100
0000
,  // measure 30
0010
1000
0000
0000
0001
0010
0000
0000
1000
0000
1000
0000
1000
0000
0000
0000
,  // measure 31
0001
0100
0001
1000
0001
0010
0100
0000
,  // measure 32
1000
0010
0000
0000
1000
0100
0000
0000
0010
0000
0010
0000
0010
0000
0000
0000
,  // measure 33
0001
0010
0100
1000
0001
0100
1000
0000
,  // measure 34
0100
0001
0000
0000
0010
0001
0000
0000
0100
0000
0100
0000
0100
0000
0000
0000
,  // measure 35
0110
0000
1000
0001
0000
0000
0000
0000
,  // measure 36
2000
0000
0010
0010
,  // measure 37
3001
0000
0000
0001
0010
0000
0000
0010
0100
0000
0000
0100
1000
0000
0000
1000
,  // measure 38
0002
0000
1000
1000
,  // measure 39
0103
0000
0000
0100
1000
0000
0000
1000
0100
0000
0000
0100
0001
0000
0000
0001
,  // measure 40
1000
0100
0010
0000
0100
0000
1100
0000
,  // measure 41
0001
0100
0010
0000
0100
0000
0101
0000
,  // measure 42
1000
0100
0010
0100
1000
0100
0010
0000
,  // measure 43
0001
1000
0001
0010
0001
0100
0010
1000
,  // measure 44
0010
0100
0010
1000
0001
0010
1000
0010
,  // measure 45
0001
0100
0010
1000
0001
0010
0011
0000
,  // measure 46
0010
0001
0010
0100
1000
0100
0001
0100
,  // measure 47
1000
0010
0100
0001
1000
0010
1010
0000
,  // measure 48
0001
0010
1000
0010
0001
0010
0100
0000
,  // measure 49
1000
0010
0001
0010
1000
0010
0100
0000
,  // measure 50
0001
0010
0100
1000
0001
0010
0001
1000
,  // measure 51
0010
0100
0010
1000
0001
0010
0100
0000
,  // measure 52
1100
0000
0101
0000
1000
0100
1000
0000
,  // measure 53
0001
0100
0010
1000
0001
0000
0010
0000
,  // measure 54
0011
0000
1010
0000
0001
0010
0001
0000
,  // measure 55
1000
0010
0100
0001
1000
0000
0001
0000
,  // measure 56
0020
0000
0100
0001
,  // measure 57
0230
0000
1000
0001
,  // measure 58
2300
0000
0010
0000
,  // measure 59
3010
0000
0100
0000
0001
0010
0100
1000
,  // measure 60
2000
0000
0001
0000
,  // measure 61
3010
0000
0000
0010
0001
0000
0000
0001
0010
0000
0000
0010
1000
0000
0000
1000
,  // measure 62
0002
0000
0010
0000
,  // measure 63
1003
0000
0000
1000
0001
0000
0000
0001
0100
0000
0000
0100
0010
0000
0000
0010
,  // measure 64
1000
0010
1000
0001
0010
0100
1000
0000
,  // measure 65
0001
0010
0001
1000
0010
0100
0001
0000
,  // measure 66
0010
0001
0010
0100
1000
0010
1000
0100
,  // measure 67
0010
0001
1000
0010
0100
0001
1000
0100
,  // measure 68
0220
0000
0000
0000
,  // measure 69
0000
0000
0000
0000
,  // measure 70
0000
0330
0000
0000
;

//---------------dance-single - ----------------
#NOTEDATA:;
#CHARTNAME:;
#STEPSTYPE:dance-single;
#DESCRIPTION:;
#CHARTSTYLE:;
#DIFFICULTY:Medium;
#METER:8;
#RADARVALUES:0.379054,0.594466,0.178022,0.084772,0.016954,313.000000,292.000000,21.000000,10.000000,0.000000,0.000000,0.000000,0.000000,0.000000,0.379054,0.594466,0.178022,0.084772,0.016954,313.000000,292.000000,21.000000,10.000000,0.000000,0.000000,0.000000,0.000000,0.000000;
#CREDIT:TonyAkita;
#NOTES:
0001
0000
0001
0000
,
1000
0100
0010
0001
,
0100
0000
0100
0000
,
0010
0001
0010
1000
,
0002
0000
0013
0100
,
2000
0000
3010
0100
,
0001
0000
0010
0000
,
0010
0000
0000
0000
0001
0100
0010
1000
,
0001
0000
0001
1000
,
0100
0000
0010
0000
0001
0000
1000
1000
,
0010
0000
0010
1000
,
0010
0000
0001
0000
0010
0000
1000
1000
,
0100
0000
0010
0000
0011
0000
0001
0001
,
0100
0000
0010
0000
1010
0000
1000
1000
,
0100
0000
0010
0000
,
0001
0000
0010
0000
0001
0100
0010
1000
,
0001
0010
1000
0010
,
0001
0000
1000
0000
0100
0100
0100
0000
,
0010
1000
0010
0001
,
0100
0000
0010
0000
1000
1000
1000
0000
,
0001
0000
0001
0000
1000
0100
0001
0000
,
0100
0000
0100
0000
1000
0010
1000
0000
,
0001
0010
1000
0010
,
0001
0000
1000
0000
1000
0100
0010
0001
,
0010
0000
0010
0000
0010
0000
0001
0000
1000
0000
0100
0010
0000
0000
1001
0000
,
1000
0000
1000
0000
1000
0000
0001
0000
0100
0000
0010
1000
0000
0000
1001
0000
,
0001
0000
0001
0000
0001
0000
0010
0000
0100
0000
1000
0001
0000
0000
1010
0000
,
0010
0000
0010
0000
0010
0000
1000
0000
0001
0000
0100
0010
0000
0000
0000
0000
,
1010
0000
0011
0000
1000
0100
0001
0000
,
1100
0101
1100
0001
,
0101
0000
1100
0000
0001
0100
1000
0000
,
0011
1010
0011
1000
,
0001
0000
0010
0000
1000
0010
0001
0000
,
0100
1000
0100
0001
,
1000
0000
0010
0000
0001
0010
1000
0000
,
2002
0000
0000
3003
,
0001
0000
0001
1000
,
0100
0000
0010
0000
0001
0000
1000
1000
,
0010
0000
0010
0001
,
0010
0000
1000
0000
0001
0000
0010
0010
,
0200
0000
1300
0010
,
0200
0000
0301
0010
,
0100
1000
0100
0001
,
0100
0000
1000
0000
0001
0100
0010
1000
,
0010
0001
0010
1000
,
0001
0000
0010
0000
0100
0100
1000
0000
,
0100
0001
0100
1000
,
0001
0000
0100
0000
0010
0010
1000
0000
,
0001
0000
0001
0000
1000
0100
0001
0000
,
0100
0000
0100
0000
1000
0010
1000
0000
,
0010
0100
0010
1000
,
0001
0010
0100
1000
,
1010
0000
0002
0000
,
0013
0100
1000
0000
,
1001
0000
2000
0000
,
3010
0100
0001
0000
,
1000
0010
0001
0010
,
1000
0100
0001
0100
,
1000
0010
0001
0100
,
1000
0000
0010
0000
0100
0001
1000
0001
,
1000
0000
0001
0010
,
1000
0000
0010
0000
0001
0000
0100
0010
,
1000
0000
0001
0010
,
0100
0000
1000
0000
0001
0000
0100
0010
,
1000
0000
0001
0000
0011
0000
0001
0100
,
0010
0000
1000
0000
1010
0000
1000
0100
,
0010
0001
0010
0100
,
1000
0100
0001
0100
,
0220
0000
0000
0000
,
0000
0000
0000
0000
,
0000
0330
0000
0000
0000
0000
0000
0000
;

//---------------dance-single - ----------------
#NOTEDATA:;
#CHARTNAME:;
#STEPSTYPE:dance-single;
#DESCRIPTION:;
#CHARTSTYLE:;
#DIFFICULTY:Easy;
#METER:5;
#RADARVALUES:0.249473,0.317049,0.059341,0.008477,0.000000,206.000000,199.000000,7.000000,1.000000,0.000000,0.000000,0.000000,0.000000,0.000000,0.249473,0.317049,0.059341,0.008477,0.000000,206.000000,199.000000,7.000000,1.000000,0.000000,0.000000,0.000000,0.000000,0.000000;
#CREDIT:TonyAkita;
#NOTES:
0001
0000
0000
0000
,
1000
0000
1000
0000
,
0010
0000
0000
0000
,
1000
0000
0100
0000
,
0001
0000
0100
0000
,
1000
0000
0100
0000
,
0010
0000
0001
0000
,
0001
0000
1000
1000
,
0010
0000
1000
0000
,
0001
0010
1000
0000
,
0010
0000
0010
0000
,
0001
0100
1000
0000
,
0100
0000
0010
0010
,
1000
0000
0010
0010
,
0001
0000
0010
0000
,
0010
0000
1000
1000
,
0001
0010
0001
0010
,
0100
1000
0010
1000
,
0100
1000
0100
1000
,
0001
0010
0100
1000
,
1001
0000
0001
0001
,
0011
0000
1000
1000
,
0001
0010
1000
0010
,
0001
0010
0100
1000
,
0001
0001
0001
0000
1000
0000
1000
0000
,
0010
0010
0010
0000
0100
0000
0100
0000
,
0001
0100
1000
0000
0100
0000
0001
0000
,
1000
0100
0001
0000
0100
0000
1000
0000
,
0001
0100
1000
0100
,
0001
0000
0001
0000
,
1000
0010
0001
0010
,
1000
0000
1000
0000
,
0100
0010
0001
0010
,
0100
0000
1000
0000
,
0010
0100
0001
0100
,
0020
0000
0000
0030
,
1000
0000
1000
0000
,
0001
0010
1000
0000
,
0010
0000
0010
0000
,
0001
0100
1000
0000
,
0100
0000
0010
0010
,
1000
0000
0010
0010
,
0001
0000
0010
0000
,
1000
0100
0010
0001
,
0100
0001
0100
0001
,
1000
0010
1000
0100
,
1000
0010
1000
0010
,
1000
0100
0010
0001
,
1001
0000
1000
1000
,
1010
0000
0001
0001
,
0010
1000
0010
0001
,
1000
0100
0010
0001
,
0011
0000
1000
0000
,
0100
0000
0000
0000
,
1010
0000
0001
0000
,
0100
0000
0000
0000
,
0001
0000
0010
0000
,
1000
0000
0010
0000
,
0001
0000
0001
0000
,
0001
0000
1000
0100
,
0010
0000
0010
0000
,
0001
0010
1000
0000
,
0010
0000
0010
0000
,
0001
0100
1000
0000
,
0100
0000
0001
0001
,
0010
0000
0001
0001
,
0100
0000
0010
0000
,
1000
0100
0010
0001
,
0110
0000
0000
0000
;

//---------------dance-single - ----------------
#NOTEDATA:;
#CHARTNAME:;
#STEPSTYPE:dance-single;
#DESCRIPTION:;
#CHARTSTYLE:;
#DIFFICULTY:Beginner;
#METER:2;
#RADARVALUES:0.155012,0.172936,0.033909,0.000000,0.000000,128.000000,124.000000,4.000000,0.000000,0.000000,0.000000,0.000000,0.000000,0.000000,0.155012,0.172936,0.033909,0.000000,0.000000,128.000000,124.000000,4.000000,0.000000,0.000000,0.000000,0.000000,0.000000,0.000000;
#CREDIT:TonyAkita;
#NOTES:
0001
0000
0000
0000
,
0000
0000
1000
0000
,
0010
0000
0000
0000
,
0000
0000
1000
0000
,
0100
0000
0000
0000
,
0010
0000
0000
0000
,
0100
0000
0000
0000
,
0000
0000
1000
0000
,
0001
0000
0000
0000
,
1000
0000
1000
0000
,
0010
0000
0000
0000
,
1000
0000
1000
0000
,
0001
0000
0000
0000
,
0010
0000
0000
0000
,
0001
0000
0000
0000
,
1000
0000
1000
0000
,
1000
1000
1000
1000
,
0000
0000
0001
0000
,
0001
0001
0001
0001
,
0000
0000
1000
0000
,
0010
0000
1000
0000
,
0100
0000
1000
0000
,
0010
0000
0100
0000
,
0010
0000
0100
0100
,
0100
0000
0010
0000
,
0100
0000
0001
0000
,
1000
0000
0100
0000
,
0010
0000
0100
0000
,
1000
0000
0001
0000
,
1000
0000
0010
0000
,
1000
0000
0001
0000
,
1000
0000
0100
0000
,
0010
0000
0100
0000
,
0010
0000
0001
0000
,
0010
0000
0100
0000
,
1001
0000
0000
0000
,
1000
0000
1000
0000
,
0001
0001
0001
0000
,
0010
0000
0010
0000
,
0001
0001
0001
0000
,
0100
0000
0010
0000
,
0100
0000
0001
0000
,
1000
0000
0100
0000
,
0100
0000
0010
0000
,
0001
0001
0001
0001
,
0000
0000
1000
0000
,
1000
1000
1000
1000
,
0000
0000
0010
0000
,
0100
0000
0010
0000
,
1000
0000
0010
0000
,
0100
0000
0001
0000
,
0100
0000
0010
0000
,
0110
0000
0000
0000
,
0000
0000
0000
0000
,
1001
0000
0000
0000
,
0000
0000
0000
0000
,
1000
0000
0000
0000
,
1000
0000
0000
0000
,
0001
0000
0001
0000
,
0001
0000
0010
0000
,
0001
0000
0001
0000
,
1000
1000
1000
0000
,
0010
0000
0010
0000
,
1000
1000
1000
0000
,
0001
0000
0010
0000
,
0001
0000
0100
0000
,
0010
0000
0100
0000
,
0001
0000
1000
0000
,
0110
0000
0000
0000
;
