#TITLE:SOS;
#SUBTITLE:;
#ARTIST:Rihanna;
#TITLETRANSLIT:;
#SUBTITLETRANSLIT:;
#ARTISTTRANSLIT:;
#GENRE:;
#CREDIT:;
#BANNER:[Week 2] - SOS.png;
#BACKGROUND:[Week 2] - SOS-bg.png;
#LYRICSPATH:;
#CDTITLE:;
#MUSIC:[Week 2] - SOS.ogg;
#OFFSET:0.000000;
#SAMPLESTART:57.808998;
#SAMPLELENGTH:15.000000;
#SELECTABLE:YES;
#BPMS:0.000000=137.000000
;
#STOPS:
;
#BGCHANGES:0.000=[Week 2] - SOS.avi=1.000=0=0=0=StretchNoLoop==CrossFade_Fastest==,
99999=-nosongbg-=1.000=0=0=0 // don't automatically add -songbackground-
;
#KEYSOUNDS:;
#ATTACKS:;

//---------------dance-single - ----------------
#NOTES:
     dance-single:
     :
     Hard:
     12:
     0.546062,0.594686,0.148699,0.052482,0.870326,437.000000,420.000000,17.000000,6.000000,0.000000,0.000000,0.546062,0.594686,0.148699,0.052482,0.870326,437.000000,420.000000,17.000000,6.000000,0.000000,0.000000:
0000
0000
0000
0000
,
0000
0000
0000
0000
,
0000
0000
0000
0000
,
0000
0000
0010
0100
0000
0000
0000
0000
0000
0000
0000
0000
,
0000
0010
0000
0010
,
0010
0000
0000
1000
0000
1000
0100
0000
0000
0100
0000
0100
,
1000
0000
0000
1000
0000
1000
0001
0000
0001
1000
0000
0020
,
0000
0100
0000
0130
,
0100
0000
0000
0001
0000
0000
0001
0010
0001
1000
0000
0000
,
1000
0000
0001
0100
0000
0001
0010
0000
0001
0000
0000
0001
,
0100
0001
0100
0001
0100
0001
0000
0000
0001
1000
0000
0000
,
1100
0000
0000
1100
0000
0100
0010
0000
0010
0001
0000
0001
,
0100
0000
0100
0010
0000
0010
0000
0000
1000
0010
0000
0000
,
0110
0000
0000
0101
0000
0001
0100
0000
0100
0001
0000
0001
,
1000
0001
1000
0001
1000
0001
0000
0000
1000
0010
0000
0000
,
0100
0000
0000
0100
0000
0100
0001
0000
0001
0100
0000
0010
,
1000
0000
1000
0100
0000
0100
1000
0001
1000
0001
1000
0001
,
1000
0000
1000
0100
0000
0100
1000
0000
1000
0010
0000
0010
,
0100
0010
0100
0010
0100
0010
0000
0000
0100
0010
0000
0000
,
0100
0000
0000
0001
0000
0000
0010
0000
0010
0001
0000
0000
,
0001
0100
0001
0100
0000
0001
0000
0000
0001
1000
0000
0000
,
0001
0000
0000
0100
0000
0000
0010
0000
0010
0100
0000
0000
,
0100
0010
0100
0010
0100
0010
0000
0000
0010
1000
0000
0000
,
1000
0000
1000
0100
0000
0000
0100
0000
0100
0001
0000
0000
,
0001
0000
0001
0010
0000
0010
1000
0000
1000
0001
0000
0000
,
0101
0000
0000
0010
0000
0001
0100
0000
0000
0010
0000
0000
,
1000
0000
0100
1000
0000
0000
0100
0000
1000
0010
0000
0000
,
1000
0000
1000
0001
0000
0000
0001
0000
0001
0100
0000
0000
,
0100
0000
0001
0010
0001
0100
0000
0000
0001
0100
0000
0000
,
0101
0001
0011
0010
,
0001
1000
0001
0010
0001
1000
0000
0000
0001
1000
0000
0000
,
0011
0000
0000
0011
0000
0000
0100
0000
0001
1000
0000
1000
,
0100
0000
1000
0010
0000
0100
0001
0100
0001
0010
0001
0100
,
0001
0000
0000
0001
0000
0001
0100
0000
0100
0010
0000
0010
,
1000
0000
1000
0100
0000
0100
0010
0000
0100
1000
0000
0000
,
0020
1030
2000
3100
,
1000
0000
0001
0100
0001
0100
0000
0000
0001
1000
0000
0000
,
0001
0000
0000
0100
0000
0100
0010
0000
0010
1000
0000
1000
,
0100
1000
0010
1000
0100
1000
0000
0000
1000
0001
0000
0000
,
1000
0000
1000
0001
0000
0001
0100
0000
0100
0001
0000
0001
,
0010
0000
0001
1000
0000
0001
0010
0001
0100
0001
1000
0001
,
0100
0000
0100
0010
0000
0010
1000
0000
1000
0001
0000
0001
,
0100
0001
0010
0001
0100
0001
0010
0000
0001
0100
0000
0000
,
0001
0000
0001
0010
0000
0010
0001
0000
0001
0100
0000
0100
,
0010
0000
0010
1000
0000
1000
0010
1000
0010
1000
0000
0000
,
1100
0000
0000
0011
0000
0001
0100
0000
0100
0001
0000
0001
,
0010
0001
0010
0001
0010
0001
0000
0000
0001
1000
0000
0010
,
1000
0000
1000
0010
0000
0010
0100
0000
0100
0001
0000
0001
,
0010
0000
0001
0100
0000
0100
0001
0100
0001
0100
0001
0100
,
0001
0000
0001
1000
0000
0000
1000
0000
1000
0010
0000
0000
,
0010
0100
0010
0100
0010
0100
0000
0000
0100
0001
0000
0000
,
0011
0000
0000
1001
0000
0000
1000
0000
1000
0010
0000
0020
,
0000
0000
0030
1000
0000
0000
0001
0000
1000
0001
0000
0200
,
0000
0000
0300
0001
0000
0000
0010
0000
0100
1000
0000
0000
,
0001
1000
0001
1000
0001
1000
0000
0000
1000
0001
0000
0000
,
0100
0000
0100
0001
0000
0010
0001
0000
0010
0001
0000
0001
,
0000
0000
0100
0001
0000
0100
0010
0100
0010
0100
0010
0100
,
0010
0000
0000
0010
0000
0010
1000
0000
0000
1000
0000
1000
,
0100
1000
0010
1000
0001
1000
0000
0000
1000
0001
0000
0001
,
0100
0000
0000
0100
0000
0000
0010
0000
1000
0001
0000
0000
,
0100
0000
0100
0001
0000
0000
0100
0000
0100
0001
0000
0000
,
1100
0000
0000
1000
0000
1000
0001
0000
0000
0001
0000
0001
,
0010
0001
1000
0001
0100
0001
0000
0000
0001
0100
0000
0100
,
0101
0011
0000
1001
,
0002
0000
0000
1003
0000
0000
0001
0100
0010
1000
0000
0000
;

//---------------dance-single - ----------------
#NOTES:
     dance-single:
     :
     Medium:
     9:
     0.327387,0.396457,0.183687,0.017494,0.083096,262.000000,241.000000,21.000000,2.000000,0.000000,0.000000,0.327387,0.396457,0.183687,0.017494,0.083096,262.000000,241.000000,21.000000,2.000000,0.000000,0.000000:
0000
0000
0000
0000
,
0000
0000
0000
0000
,
0000
0000
0000
0000
,
0000
0010
0000
0000
,
0000
1000
0000
0001
,
1000
1000
1000
0001
,
0001
0000
0000
0100
0000
0000
0001
0000
0000
0100
0000
0100
,
0000
0010
0000
0100
,
0000
0001
0000
0001
,
1000
1000
0100
0100
,
1000
0000
0000
0001
0000
1000
0000
0000
0001
1000
0000
0000
,
0010
0010
0100
0100
,
0001
0000
0000
0010
0000
0001
0000
0000
0010
0001
0000
0000
,
0101
0110
0010
1000
,
0100
0000
0000
1000
0000
0100
0000
0000
1000
0100
0000
0000
,
1000
1010
0100
0101
,
0001
0010
0002
0100
,
0103
0010
0100
0010
,
1000
0000
0000
0100
0000
1000
0000
0000
0100
1000
0000
0000
,
1000
1001
0001
0101
,
0100
0000
0000
0100
0000
0001
0000
0000
0100
0001
0000
0000
,
0001
0010
0100
0100
,
0010
0000
0000
0001
0000
1000
0000
0000
0001
1000
0000
0000
,
0010
0100
0001
1000
,
0100
0100
0010
0010
,
0001
0001
1000
0001
,
0100
0010
1000
1000
,
0100
1000
0001
0001
,
0100
0000
0000
0001
0000
0100
0000
0000
0001
0100
0000
0000
,
0100
0100
0001
0001
,
0100
0010
0100
0001
,
0010
0010
0001
0001
,
1000
0001
0200
0000
,
0310
0010
0100
0001
,
1000
0100
1000
0010
,
1000
1000
0001
0101
,
0000
0100
0010
0010
,
1000
0100
1000
1000
,
0010
1000
0100
0100
,
1000
0001
0010
0001
,
0100
0000
0000
0100
0000
0000
0001
0000
0001
1000
0000
0000
,
1000
0010
1000
0010
,
0100
0001
0010
0001
,
0100
0001
0010
0001
,
0100
1000
0100
0001
,
0010
0010
0001
0001
,
0100
0001
0010
0100
,
1000
1000
0001
0001
,
0100
0000
0000
0001
0000
0000
0001
0000
0001
1000
0000
0000
,
1000
1100
0010
0011
,
0001
0101
0100
0110
,
0010
1010
1000
1100
,
0001
1001
0100
0101
,
0100
0110
0010
1010
,
1000
1100
0001
0101
,
0100
0110
0010
1010
,
1000
0001
0010
0001
,
0100
0100
0100
0001
,
0001
0000
0000
1000
0000
0000
0010
0000
0000
1000
0000
0100
,
0000
1000
0000
1000
,
0000
0001
0000
1000
,
0001
0100
0100
0001
,
0001
0000
0000
0010
0000
0000
0100
0000
0000
1000
0000
0001
,
0000
0001
0000
0010
,
0000
1000
0000
0010
;

//---------------dance-single - ----------------
#NOTES:
     dance-single:
     :
     Easy:
     5:
     0.256162,0.366718,0.122458,0.069976,0.000000,205.000000,191.000000,14.000000,8.000000,0.000000,0.000000,0.256162,0.366718,0.122458,0.069976,0.000000,205.000000,191.000000,14.000000,8.000000,0.000000,0.000000:
0000
0000
0000
0000
,
0000
0000
0000
0000
,
0000
0000
0000
0000
,
0000
0010
0000
0000
,
0000
1000
0000
0001
,
1000
1000
1000
0000
,
0001
0001
0001
0000
,
0200
0000
0310
0000
,
0020
0000
0130
0000
,
0010
1000
0100
0000
,
1000
1000
0001
0000
,
0001
0100
0010
0000
,
0010
1000
0100
0000
,
1000
0100
0001
0000
,
0001
0100
1000
0000
,
1000
0001
1000
0000
,
0010
0100
0001
0001
,
1000
0001
0010
0000
,
0010
0001
0100
0000
,
0100
0010
1000
0000
,
0100
1000
0001
0000
,
0010
0100
1000
0000
,
0001
0100
0010
0000
,
0100
0100
0010
0010
,
0100
0010
0100
0010
,
1000
0100
0001
0000
,
0001
0010
1000
0000
,
1000
0010
1000
0000
,
0001
0100
0001
0010
,
0001
0001
1000
0000
,
1000
1000
0001
0000
,
0001
0100
0010
0000
,
0010
1000
0100
0100
,
1000
0001
1000
0000
,
0001
1000
0001
0000
,
0010
0100
0010
0000
,
0100
0100
0001
0000
,
0001
1000
0100
0000
,
0100
1000
0010
0000
,
0100
0100
0101
0000
,
1010
0000
1100
0000
,
0011
0000
0001
0000
,
0100
0000
0001
0000
,
1000
1000
1000
0000
,
0001
0100
0010
0000
,
0100
0100
0110
0000
,
0010
0010
1010
0000
,
1000
1000
0001
0000
,
0001
0100
0010
0000
,
1000
1000
1000
1000
,
0010
0010
0010
0010
,
0001
0001
0001
0001
,
0100
0100
0100
0100
,
0010
0110
0010
1010
,
1000
1001
0001
0101
,
0002
0100
0100
0103
,
0020
1030
2000
3100
,
0010
0110
0001
0101
,
1000
1010
1000
0100
,
2000
0000
3001
0000
,
0002
0000
0103
0000
,
0100
0010
1000
0100
,
1000
1000
0001
0001
,
0101
0000
0100
0000
,
0020
0000
0130
0000
;

//---------------dance-single - ----------------
#NOTES:
     dance-single:
     :
     Beginner:
     3:
     0.159945,0.169254,0.034988,0.000000,0.000000,128.000000,124.000000,4.000000,0.000000,0.000000,0.000000,0.159945,0.169254,0.034988,0.000000,0.000000,128.000000,124.000000,4.000000,0.000000,0.000000,0.000000:
0000
0000
0000
0000
,
0000
0000
0000
0000
,
0000
0000
0000
0000
,
0000
0001
0000
0000
,
0000
1000
0000
1000
,
1000
0000
0001
0000
,
1000
0000
0001
0000
,
1000
0000
0000
0000
,
0010
0000
0100
0000
,
0001
0000
0001
0000
,
1000
1000
1000
0000
,
0010
0000
0100
0000
,
0010
0010
0010
0000
,
0100
0000
0001
0000
,
0010
0000
0001
0000
,
0100
0000
0010
0000
,
1000
0000
0001
0000
,
1000
1000
1000
0000
,
0001
0000
0100
0000
,
0001
0001
0001
0000
,
0010
0000
0100
0000
,
1000
0000
0001
0000
,
1000
0000
1000
0000
,
0010
0000
0100
0000
,
0001
0000
0100
0000
,
0010
0010
0010
0000
,
0100
0000
0010
0000
,
0100
0100
0100
0000
,
0100
0000
0001
0000
,
1000
1000
1000
0000
,
0001
0000
1000
0000
,
0001
0001
0001
0000
,
0100
0000
0010
0000
,
1000
1000
1000
0000
,
0100
0000
1000
0000
,
0001
0001
0001
0000
,
0100
0000
0001
0000
,
0010
0010
0010
0000
,
0001
0000
0100
0000
,
0001
0001
0001
0000
,
1000
0000
0100
0000
,
1000
0000
0001
0000
,
1000
0000
0001
0000
,
1001
0000
0000
0000
,
0110
0000
0000
0000
,
0010
0000
0100
0000
,
0010
0000
1000
0000
,
0001
0000
0001
0000
,
0100
0000
0001
0000
,
0011
0000
0000
0000
,
1000
0000
0000
0000
,
0001
0000
0000
0000
,
0100
0000
0000
0000
,
0010
0000
0000
0000
,
1000
0000
0000
0000
,
0001
0000
0100
0000
,
0001
0000
1001
0000
,
0001
0000
1000
0000
,
0010
0000
0100
0000
,
0001
0000
0000
0000
,
1000
0000
0001
0000
,
1000
0000
0010
0000
,
0100
0000
0010
0000
,
1000
0000
0000
0000
,
0001
0000
1000
0000
;

//---------------dance-double - ----------------
#NOTES:
     dance-double:
     :
     Hard:
     11:
     0.521071,0.566368,0.542314,0.017494,0.594796,417.000000,355.000000,62.000000,2.000000,0.000000,0.000000,0.521071,0.566368,0.542314,0.017494,0.594796,417.000000,355.000000,62.000000,2.000000,0.000000,0.000000:
00000000
00000000
00000000
00000000
,
00000000
00000000
00000000
00000000
,
00000000
00000000
00000000
00000000
,
00000000
00000000
10000000
00010000
00000000
00000000
00000000
00000000
00000000
00000000
00000000
00000000
,
00000000
00000010
00000000
00000010
,
00000001
00000000
00000000
00001000
00000000
00000001
00000010
00000000
00000000
00000010
00000000
00000010
,
00000100
00000000
00000000
00000100
00000000
00000100
00001000
00000000
00001000
00010000
00000000
00100000
,
00000000
01000000
00000000
01000000
,
00000000
20000000
00000000
30010000
,
00010000
01010000
00100000
11000000
,
00010000
00000000
10000000
00100000
00000000
00100000
00000000
00000000
10000000
00100000
00000000
00000000
,
01010000
00110000
00010000
00011000
,
00010000
00000000
00000010
00000100
00000000
00000000
00000100
00000000
00000001
00000010
00000000
00000000
,
00000011
00000000
00000000
00001100
00000000
00000000
00001000
00000000
00001000
00000001
00000000
00000000
,
00000001
00000000
00000100
00000001
00000000
00000001
00000000
00000000
00000100
00000001
00000000
00000000
,
00001010
00000011
00000100
00000100
,
00000000
00000000
00000000
00000010
00000000
00000000
00001000
00001000
00000010
00001000
00000001
00001000
,
00000010
00011000
00001000
00001100
,
00000100
00001000
00000100
00010000
00000100
00001000
00000000
00000000
00000100
00010000
00000000
00000000
,
00011000
00000000
00000000
00011000
00000000
00000000
01000000
00000000
01000000
00001000
00000000
00000000
,
00010000
00000000
00010000
00100000
00000000
00100000
00010000
00000000
00100000
10000000
00000000
00000000
,
01000000
00000000
00000000
01100000
00000000
00000000
00100000
00000000
00100000
00010000
00000000
00000000
,
00010000
01000000
00010000
00100000
00001000
00010000
00000000
00000000
00001000
00010000
00000000
00000000
,
00001000
00000000
00001000
00010000
00000000
00000000
00010000
00000000
00010000
00001000
00000000
00000000
,
00010000
00000000
00010000
00001000
00000000
00010000
00001000
00000000
00010000
00001000
00000000
00010000
,
00001000
00000100
00000001
00000010
,
00001000
00010000
00100000
01000000
,
00010000
10000000
00110000
00001100
,
00000000
00000000
00010000
00001000
00010000
00001000
00000000
00000000
00010000
00000010
00000000
00000000
,
00000010
00001010
00001000
00001100
,
00010000
00011000
00010000
00010010
,
00000110
00000000
00000010
00001000
00000000
00001000
00000001
00000000
00000010
00000001
00000000
00000001
,
00000100
00000000
00000010
00001000
00000000
00000100
00010000
00001000
00010000
00001000
00010000
00001000
,
00100000
00000000
00000000
00010000
00000000
00000000
01000000
00000000
00010000
00100000
00000000
00000000
,
00010000
10000000
00100000
10000000
00010000
00100000
00000000
00000000
00100000
00010000
00000000
00000000
,
00011000
00000000
00001000
00010000
00000000
00000000
00010100
00000000
00000100
00000010
00000000
00000000
,
00000000
00000000
00000010
00000001
00000000
00000001
00000010
00000000
00000100
00001000
00000000
00000000
,
00001001
00001001
00001010
00010100
,
00001000
00100000
00010000
00100000
00001000
00000100
00000010
00000000
00000100
00000001
00000000
00000000
,
00000011
00000000
00000001
00000100
00000000
00000000
00000110
00000000
00000010
00001000
00000000
00000000
,
00001000
00000000
00000000
00000100
00000000
00000000
00000000
00000100
00001000
00010000
00001000
00000100
,
00010100
00011000
01001000
00011000
,
00010000
01000000
00100000
00010000
01000000
00100000
10000000
00000000
01000000
10000000
00000000
00000000
,
01100000
00000000
01000000
00010000
00000000
00000000
00110000
00000000
00100000
00001000
00000000
00000000
,
00010100
00000000
00001000
00000010
00000000
00000000
00000101
00000000
00000001
00000010
00000000
00000000
,
00001100
00011000
01010000
00011000
,
00001000
00000010
00000100
00001000
00000010
00000100
00000001
00000000
00000010
00000001
00000000
00000000
,
00000110
00000000
00000010
00001000
00000000
00000000
00001100
00000000
00000100
00010000
00000000
00000000
,
00101000
00000000
00010000
01000000
00000000
00000000
00100000
10000000
01000000
10000000
00100000
10000000
,
11000000
11000000
00000000
01010000
,
00001000
00010000
00001000
00100000
00010000
00100000
00000000
00000000
01000000
00100000
00000000
00000000
,
00110000
00000000
00000000
00011000
00000000
00000000
00001000
00000000
00001000
00000010
00000000
00000020
,
00000000
00000000
00000000
00001030
00000000
00000000
00001000
00000000
00001000
00000100
00000000
00000001
,
00000011
00000011
00000000
00001010
,
00010000
00001000
00010000
00000100
00001000
00000100
00000000
00000000
00000010
00000100
00000000
00000000
,
00001100
00000000
00000000
00011000
00000000
00000000
00010000
00000000
00010000
01000000
00000000
01000000
,
00000000
00000000
01000000
00010000
00000000
00100000
00010000
00000000
00100000
10000000
00000000
00000000
,
10100000
00000000
00000000
00110000
00000000
00010000
00100000
00000000
00000000
01100000
00000000
01000000
,
00010000
00001000
00000100
00001000
00010000
00010000
00000000
00000000
00001000
00000010
00000000
00000010
,
00000000
00000100
00000001
00000010
,
00000001
00000000
00001000
00010000
00000000
00000000
00010000
00000000
00001000
00000100
00000000
00000000
,
00000101
00000000
00000000
00001100
00000000
00001000
00000100
00000000
00000000
00000110
00000000
00000010
,
00001000
00010000
00100000
00010000
00001000
00001000
00000000
00000000
00010000
00100000
00000000
00100000
,
00000000
10000000
00100000
01000000
,
11000000
00000000
00000000
00011000
00000000
00000000
00001000
00010000
00100000
00010000
00000000
00000000
;

//---------------dance-double - ----------------
#NOTES:
     dance-double:
     :
     Medium:
     10:
     0.442348,0.509731,0.629784,0.034988,0.244916,354.000000,282.000000,72.000000,4.000000,0.000000,0.000000,0.442348,0.509731,0.629784,0.034988,0.244916,354.000000,282.000000,72.000000,4.000000,0.000000,0.000000:
00000000
00000000
00000000
00000000
,
00000000
00000000
00000000
00000000
,
00000000
00000000
00000000
00000000
,
00000000
00000000
00001000
00010000
00000000
00000000
00000000
00000000
00000000
00000000
00000000
00000000
,
00000000
00011000
00000000
00011000
,
00001000
00010000
00100000
00010000
,
00001000
00000000
00000000
00000100
00000000
00000000
00000010
00000000
00000000
00000001
00000000
00000010
,
00001000
00001000
00000000
00000100
,
00002000
00003010
00002000
00003010
,
00000100
00000110
00000010
00000110
,
00000010
00000000
00000000
00001000
00000000
00000100
00000000
00000000
00000100
00010000
00000000
00000000
,
00011000
01010000
00100000
10100000
,
10000000
00000000
00000000
01000000
00000000
10000000
00000000
00000000
01000000
10000000
00000000
00000000
,
01000000
00000000
01000000
00100000
00000000
00000000
00010000
00000000
00000000
00010000
00000000
00000000
,
00100000
00000000
00010000
00000100
00000000
00000000
00000001
00000000
00000000
00000001
00000000
00000000
,
00000110
00000000
00000000
00000011
00000000
00000000
00000001
00000000
00000001
00001000
00000000
00000000
,
00000100
00000000
00000100
00010000
00000000
00000000
00001000
00000000
00000000
00011000
00000000
00000000
,
00100000
01100000
01000000
01100000
,
00100000
00000000
00000000
00010000
00000000
00100000
00000000
00000000
00100000
00001000
00000000
00000000
,
00011000
00001010
00000100
00000101
,
00000001
00000000
00000000
00000010
00000000
00000001
00000000
00000000
00000010
00000001
00000000
00000000
,
00000010
00000000
00000010
00000100
00000000
00000000
00001000
00000000
00000000
00001000
00000000
00000000
,
00000100
00000000
00001000
00100000
00000000
00000000
10000000
00000000
00000000
10000000
00000000
00000000
,
01100000
11000000
10100000
11000000
,
00100000
00000000
00001000
00010000
00000000
00000000
00010000
00000000
00000000
00010010
00000000
00000000
,
00001100
00000101
00001100
00001100
,
00010010
00110000
01010000
11000000
,
00110000
01010000
00011000
01001000
,
00000000
00000000
00000000
00000000
00000000
00001000
00000000
00000000
00010000
00001000
00000000
00000000
,
00011000
00000110
00011000
00011000
,
00001010
00011000
00001100
00000011
,
00000001
00000000
00000000
00001000
00000000
00000000
00000100
00000000
00001000
00000001
00000000
00000000
,
00000100
00000000
00000100
00000001
00000000
00000000
00000001
00000000
00000001
00000010
00000000
00000000
,
00001100
01010000
10100000
00110000
,
01001000
00001100
00001010
00000011
,
00001100
00001010
00011000
00010010
,
00001000
00000000
00000000
00010000
00000000
00010000
00000000
00000000
00001000
00010000
00000000
00000000
,
00011000
01100000
00011000
00011000
,
01010000
00000000
00000000
00001000
00000000
00100000
00000000
00000000
00001000
01000000
00000000
00000000
,
00010000
00000000
00000000
00010000
00000000
00000000
00100000
00000000
00010000
10000000
00000000
00000000
,
00100000
00000000
00100000
10000000
00000000
00000000
10000000
00000000
10000000
01000000
00000000
00000000
,
10000000
10000000
01000000
01000000
,
00100000
00000000
00000000
00100000
00000000
00010000
00000000
00000000
00010000
00100000
00000000
00000000
,
00001000
00000000
00001000
00010000
00000000
00000000
00010000
00000000
00010000
00000100
00000000
00000000
,
00000100
00000000
00000100
00000010
00000000
00000000
00000010
00000000
00000010
00000001
00000000
00000000
,
00000001
00000001
00000010
00000010
,
00000100
00000000
00000000
00000100
00000000
00001000
00000000
00000000
00001000
00000100
00000000
00000000
,
00010000
00000000
00010000
00001000
00000000
00000000
00001000
00000000
00001000
00100000
00000000
00000000
,
00100000
00000000
00100000
01000000
00000000
00000000
01000000
00000000
01000000
10000000
00000000
00010000
,
10000000
10010000
00010000
01010000
,
01000000
00101000
00001000
00010010
,
00000110
00000000
00000000
00000110
00000000
00000000
00000100
00000000
00000100
00000001
00000000
00000000
,
00000011
00000000
00000000
00000001
00000000
00000000
00000010
00000000
00000100
00001000
00000000
00001000
,
00000001
00001001
00001000
00001010
,
00000010
00000000
00000000
00010100
00000000
00000000
00010000
00000000
00001000
01000000
00000000
00000000
,
01100000
00000000
00000000
01100000
00000000
00000000
00100000
00000000
00100000
10000000
00000000
00000000
,
11000000
00000000
00000000
10000000
00000000
00000000
01000000
00000000
00100000
00010000
00000000
00010000
,
00001000
00010000
00100000
00001000
,
00010000
00000000
00000000
00000100
00000000
00000000
00000010
00000000
00000000
00000001
00000000
00000100
,
00000001
00000101
00000000
00000100
,
00000020
00001030
00000020
00001030
,
00011000
00000000
00000000
00010000
00000000
00001000
00010000
00000000
00000000
00010000
00000000
00010000
,
00000010
00000000
00000000
00000100
00000000
00000010
00001000
00000000
00001000
00010000
00000000
00100000
,
00000000
00001000
00000000
00001000
,
00000000
00000000
00000000
00100000
00000000
00000000
00000000
00000000
00010000
00000010
00000000
00000000
;

//---------------dance-double - ----------------
#NOTES:
     dance-double:
     :
     Easy:
     5:
     0.274906,0.339821,0.122458,0.017494,0.000000,220.000000,206.000000,14.000000,2.000000,0.000000,0.000000,0.274906,0.339821,0.122458,0.017494,0.000000,220.000000,206.000000,14.000000,2.000000,0.000000,0.000000:
// measure 0
00000000
00000000
00000000
00000000
,  // measure 1
00000000
00000000
00000000
00000000
,  // measure 2
00000000
00000000
00000000
00000000
,  // measure 3
00000000
00010000
00000000
00000000
,  // measure 4
00000000
00001000
00000000
00010000
,  // measure 5
00000000
00000100
00000100
01000000
,  // measure 6
01000000
00010000
00100000
00010000
,  // measure 7
00001000
00001000
00000000
00000100
,  // measure 8
00000000
00000010
00000000
00000001
,  // measure 9
00001000
00010000
00001000
00000000
,  // measure 10
00000100
00000100
00000100
00000000
,  // measure 11
00000010
00000001
00000010
00000000
,  // measure 12
00000001
00001000
00000010
00000000
,  // measure 13
00010000
00000100
00010000
00010000
,  // measure 14
00001000
01000000
00001000
00001000
,  // measure 15
00100000
01000000
10000000
00000000
,  // measure 16
00010000
01000000
00100000
00000000
,  // measure 17
01000000
00001000
01000000
00000000
,  // measure 18
00100000
00100000
00100000
00000000
,  // measure 19
01000000
10000000
01000000
00000000
,  // measure 20
00010000
00100000
01000000
00000000
,  // measure 21
00100000
00001000
00010000
00010000
,  // measure 22
00001000
00000010
00001000
00001000
,  // measure 23
00000100
00000010
00000001
00000010
,  // measure 24
00001000
00000010
00000100
00000100
,  // measure 25
00000011
00000100
00000100
00000110
,  // measure 26
00010000
00001000
00010000
00011000
,  // measure 27
00010000
00100000
01000000
11000000
,  // measure 28
00100000
01000000
00100000
00100000
,  // measure 29
01000000
01000000
01010000
00000000
,  // measure 30
00010000
00010000
00110000
00000000
,  // measure 31
00001000
00001000
00000010
00000010
,  // measure 32
00001000
00001000
00010000
00010000
,  // measure 33
00100000
01000000
00100000
01100000
,  // measure 34
00001000
00010000
00001000
00011000
,  // measure 35
00001000
00000100
00000010
00000011
,  // measure 36
00000100
00000010
00000100
00000100
,  // measure 37
00000010
00000010
00001010
00000000
,  // measure 38
00001000
00001000
00001100
00000000
,  // measure 39
00010000
00010000
01000000
01000000
,  // measure 40
10000000
10000000
00100000
00100000
,  // measure 41
01000000
01000000
00010000
00010000
,  // measure 42
00100000
00100000
00001000
00001000
,  // measure 43
00010000
00010000
00000100
00000100
,  // measure 44
00000010
00000010
00000001
00000001
,  // measure 45
00000100
00000100
00000010
00000010
,  // measure 46
00001000
00001000
00010000
00010000
,  // measure 47
00100000
00100000
01000000
01000000
,  // measure 48
10000000
10000000
00010000
00010000
,  // measure 49
01000000
00010000
00000000
00010000
,  // measure 50
00000000
10000000
00000000
01000000
,  // measure 51
00100000
00100000
00000000
00001000
,  // measure 52
00000000
00000100
00000000
00000001
,  // measure 53
00000011
00001010
00000000
00001000
,  // measure 54
00000000
00000001
00000000
00000010
,  // measure 55
00000100
00000100
00000000
00010000
,  // measure 56
00000000
00100000
00000000
10000000
,  // measure 57
00000000
00010000
00100000
00000010
,  // measure 58
00000010
00001000
00000100
00001000
,  // measure 59
00010000
00010000
00000000
00100000
,  // measure 60
00000000
02000000
00000000
13000000
,  // measure 61
11000000
01000000
01000000
00100000
,  // measure 62
00100000
00010000
00001000
00000100
,  // measure 63
00000010
00000010
00000000
00000001
,  // measure 64
00000000
00002000
00000000
00013000
;
