#TITLE:Pop It;
#SUBTITLE:;
#ARTIST:Anamanaguchi feat. meesh彡☆;
#TITLETRANSLIT:;
#SUBTITLETRANSLIT:;
#ARTISTTRANSLIT:;
#GENRE:Chip Pop;
#CREDIT:;
#BANNER:[Week 2] - Pop It.png;
#BACKGROUND:[Week 2] - Pop It-bg.png;
#LYRICSPATH:;
#CDTITLE:cdtitle.png;
#MUSIC:[Week 2] - Pop It.ogg;
#OFFSET:2.065020;
#SAMPLESTART:25.065416;
#SAMPLELENGTH:16.695650;
#LASTBEATHINT:2.037451;
#SELECTABLE:YES;
#BPMS:0.000000=115.000000
,116.000000=118.000000
;
#STOPS:
;
#BGCHANGES:3.958=[Week 2] - Pop It.avi=1.000=1=0=0=StretchNoLoop==CrossFade==,
194.000=Pop It-bg.png=1.000=1=0=1===CrossFade==,
99999=-nosongbg-=1.000=0=0=0 // don't automatically add -songbackground-
;
#KEYSOUNDS:;
#ATTACKS:;

//---------------dance-single - ----------------
#NOTES:
     dance-single:
     :
     Challenge:
     14:
     0.641987,0.611469,0.450392,0.470409,0.870758,449.000000,404.000000,45.000000,47.000000,8.000000,0.000000,0.641987,0.611469,0.450392,0.470409,0.870758,449.000000,404.000000,45.000000,47.000000,8.000000,0.000000:
// measure 0
0000
0000
0000
0000
,  // measure 1
0000
0000
0000
0000
,  // measure 2
0000
0000
0000
0000
,  // measure 3
0000
0000
0000
0000
,  // measure 4
0000
0000
0000
0000
,  // measure 5
0011
0000
1100
0000
0000
0000
0001
0100
0010
1000
0000
1000
0000
0000
0100
0010
,  // measure 6
0000
0010
0000
0001
0100
0000
0001
1000
0100
0010
0000
0110
0000
0000
1000
0000
,  // measure 7
1010
0000
0101
0000
0000
0000
1000
0100
0010
0001
0000
0001
0000
0000
0000
1000
,  // measure 8
0000
0010
0000
1000
0100
0000
2100
0000
3001
0000
0102
0000
1003
0000
0000
0000
,  // measure 9
1001
0000
0000
0000
1100
0000
1000
0002
0000
0000
0023
0000
0000
0130
0010
0001
,  // measure 10
0000
0001
0000
0000
0101
0000
0001
2000
0000
0000
3020
0000
0000
1030
0000
0000
,  // measure 11
1001
0000
0000
0000
0011
0000
0010
2000
0000
0000
3020
0000
0000
0130
0010
0001
,  // measure 12
0000
0100
0000
0000
1010
0000
0010
0002
0000
0000
0023
0000
0000
1030
0000
0000
,  // measure 13
1010
0000
1100
0000
1000
0000
0001
0010
0001
0100
0000
0100
0010
0000
1000
0100
,  // measure 14
0000
0100
0000
0001
0100
0000
0010
0001
0100
0010
0000
1000
0100
0000
0010
0000
,  // measure 15
0011
0000
0101
0000
0001
0000
1000
0010
1000
0100
0000
0100
0010
0000
0001
0100
,  // measure 16
0000
0100
0000
0010
1000
0000
2100
0000
3010
0000
0102
0000
0013
0000
0100
0000
,  // measure 17
1100
0000
1010
0000
1000
0000
0001
0010
0100
1000
0000
0010
0100
0000
0001
0010
,  // measure 18
0000
0010
0000
1000
0010
0000
0100
0010
0001
0100
0000
0010
1000
0000
0001
0000
,  // measure 19
0101
0000
0011
0000
0001
0000
1000
0010
0100
0001
0000
0010
0100
0000
1000
0010
,  // measure 20
0000
0001
0000
0010
1000
0000
0100
0001
0100
1000
0000
1000
0010
0000
0000
0000
,  // measure 21
2001
0000
0000
0000
3010
M00M
0010
0000
0001
0100
0000
0100
0001
0000
0010
0001
,  // measure 22
0000
1000
0000
0000
2010
0000
0000
0000
3001
0010
0000
0100
1000
0010
1000
0000
,  // measure 23
0001
0100
0001
0000
0100
M00M
0100
0000
1000
0100
0000
0100
1000
0000
0010
1000
,  // measure 24
0000
0001
0000
0000
0011
0000
0000
0010
0100
1000
0000
1000
0010
0100
0001
0000
,  // measure 25
0102
0000
0000
0000
0013
M00M
0010
0000
1000
0100
0000
0100
0010
0000
1000
0010
,  // measure 26
0000
0001
0000
0000
0012
0000
0000
0000
0103
1000
0000
1000
0100
0000
0001
0000
,  // measure 27
1000
0100
1000
0000
0100
M00M
0100
0000
0001
0100
0000
0100
0010
0000
0001
0010
,  // measure 28
0000
1000
0000
0000
1010
0000
0000
0010
1000
0001
0000
0001
0010
0000
0000
0010
,  // measure 29
0001
0100
0000
0001
0100
0000
0010
0002
0000
0013
0200
0000
0310
0000
1000
0010
,  // measure 30
1000
0100
0000
1000
0100
0000
0010
2000
0000
3010
0200
0000
0310
0000
0001
0000
,  // measure 31
1000
0010
0000
1000
0010
0000
0100
2000
0000
3100
0002
0000
0013
0000
0100
0010
,  // measure 32
0001
0000
0010
0001
0010
0000
0100
2000
0000
3000
0220
0000
0330
2002
0000
3003
,  // measure 33
0001
0100
0000
0100
0010
0000
0100
2000
0000
3100
0020
0000
0130
0001
0100
0010
,  // measure 34
1000
0100
0000
0100
0010
0000
0100
0002
0000
0103
0020
0000
0130
1000
0100
0010
,  // measure 35
0001
1000
0000
0010
0100
0000
0001
0020
0000
0130
2000
0000
3010
0000
0100
0000
,  // measure 36
0001
0000
1000
0100
0010
0000
0001
2000
0000
0000
3100
0000
1000
0000
0001
0000
,  // measure 37
0202
0000
0303
0000
0001
0100
0010
0000
0100
1000
0000
1100
0000
0100
0001
0000
,  // measure 38
0020
0000
0130
0000
1000
0010
0000
0100
0000
0100
0000
0110
0000
0001
1000
0000
,  // measure 39
2200
0000
3300
0000
1000
0100
0010
0000
0100
0001
0000
0101
0000
0100
0010
0000
,  // measure 40
0002
0000
1003
0000
0010
0100
0010
0001
0010
0100
0000
0110
0000
0010
1000
0000
,  // measure 41
2002
0000
3003
0000
1000
0100
0001
0000
1000
0010
0000
0110
0000
0010
0001
0000
,  // measure 42
2002
0000
3003
0000
0001
0100
1000
0000
0001
0010
0000
0110
0000
0010
1000
0001
,  // measure 43
0020
0000
0000
0000
1030
0010
0001
0000
0100
1000
0000
1100
0000
0100
0001
0000
,  // measure 44
0020
0000
0130
0000
0010
1000
0010
0100
0010
0001
0000
1001
0000
0001
0100
0000
,  // measure 45
1002
0000
0103
0000
0001
0100
0010
1000
,  // measure 46
0001
0000
0000
0000
0010
0000
0000
0000
0001
0000
0010
0100
0010
0001
0000
0000
,  // measure 47
1000
0000
0000
0000
0010
0000
0000
0000
1000
0000
0000
0000
0110
0000
0000
0001
,  // measure 48
1000
0001
0010
0001
0010
0000
0100
0000
0010
0001
0000
1000
0010
1000
0010
0000
;

//---------------dance-single - ----------------
#NOTES:
     dance-single:
     :
     Hard:
     10:
     0.443243,0.485422,0.330287,0.440383,0.425370,310.000000,277.000000,33.000000,44.000000,0.000000,0.000000,0.443243,0.485422,0.330287,0.440383,0.425370,310.000000,277.000000,33.000000,44.000000,0.000000,0.000000:
// measure 0
0000
0000
0000
0000
,  // measure 1
0000
0000
0000
0000
,  // measure 2
0000
0000
0000
0000
,  // measure 3
0000
0000
0000
0000
,  // measure 4
0000
0000
0000
0000
,  // measure 5
0001
0000
0000
0000
0011
0000
0000
0000
0010
0000
0001
0000
0100
0000
0000
0010
,  // measure 6
0000
0010
0000
0000
0100
0000
0000
0000
0001
0000
0010
0000
0001
0000
0000
0000
,  // measure 7
1000
0000
0000
0000
1010
0000
0000
0000
0010
0000
1000
0000
0100
0000
0000
0010
,  // measure 8
0000
0010
0000
0000
0100
0000
0000
0000
1000
0000
0010
0000
1000
0000
0000
0000
,  // measure 9
1001
0000
0000
0000
0001
0000
0000
0200
0000
0000
0320
0000
0000
1030
0000
0010
,  // measure 10
0000
1000
0000
0000
1000
0000
0000
0200
0000
0000
0320
0000
0000
0031
0000
0000
,  // measure 11
1001
0000
0000
0000
1000
0000
0000
0200
0000
0000
0302
0000
0000
0103
0000
0010
,  // measure 12
0000
0100
0000
0000
1000
0000
0000
0020
0000
0000
0032
0000
0000
0013
0000
0000
,  // measure 13
1000
0000
0100
0000
0001
0000
0000
0000
0001
0100
0000
1000
0000
0000
0000
0010
,  // measure 14
0000
0010
0000
0000
1000
0000
0001
0000
0011
0000
0000
0000
1100
0000
0000
0000
,  // measure 15
0001
0000
0100
0000
1000
0000
0000
0000
1000
0100
0000
0001
0000
0000
0000
0010
,  // measure 16
0000
0010
0000
0000
0001
0000
0010
0000
1000
0000
0010
0000
0001
0000
0000
0000
,  // measure 17
1000
0000
0010
0000
0001
0000
0000
0000
1000
0100
0000
0001
0000
0000
0000
0010
,  // measure 18
0000
0010
0000
0000
0001
0000
1000
0000
1010
0000
0000
0000
0101
0000
0000
0000
,  // measure 19
0001
0000
0010
0000
1000
0000
0000
0000
0001
0100
0000
1000
0000
0000
0000
0010
,  // measure 20
0000
0010
0000
0000
1000
0000
0100
0000
0120
0000
0000
0000
0031
0000
0000
0000
,  // measure 21
2000
0000
0000
0000
3010
0000
1000
0000
0100
0000
0000
0000
0100
0000
0010
0001
,  // measure 22
0000
0100
0000
0000
0002
0000
0000
0000
0103
0000
0010
0000
1000
0000
0000
0000
,  // measure 23
0001
0000
0000
0000
0010
0000
0001
0000
0100
0000
0000
0000
0100
0000
0010
1000
,  // measure 24
0000
0100
0000
0000
0110
0000
0000
0000
0001
1000
0000
0000
1001
0000
0000
1000
,  // measure 25
0002
0000
0000
0000
0013
0000
0001
0000
0100
0000
0000
0000
0100
0000
1000
0100
,  // measure 26
0000
0001
0000
0000
0200
0000
0000
0000
0310
0000
1000
0000
0001
0000
0000
0000
,  // measure 27
1000
0000
0000
0000
0010
0000
1000
0000
0100
0000
0000
0000
0100
0000
0001
0100
,  // measure 28
0000
1000
0000
0000
0010
0000
0000
0000
1000
0010
0000
0000
1001
0000
0000
0001
,  // measure 29
0010
0000
0000
0000
0011
0000
0001
0020
0000
0000
2030
0000
0000
3020
0000
0000
,  // measure 30
0031
0000
0000
0000
0101
0000
0000
0200
0000
0000
2300
0000
0000
3200
0000
0000
,  // measure 31
0301
0000
0000
0000
1010
0000
1000
0020
0000
0000
0032
0000
0000
0023
0000
0000
,  // measure 32
1030
0000
0100
1000
0100
0000
0000
0110
0000
0000
0011
0000
0000
0110
0000
0000
,  // measure 33
1000
0000
0000
0000
1001
0000
0001
0200
0000
0000
0320
0000
0000
0230
0000
0000
,  // measure 34
0301
0000
0000
0000
1001
0000
0001
0020
0000
0000
0230
0000
0000
2300
0000
0000
,  // measure 35
3001
0000
0000
0000
0011
0000
0010
2000
0000
0000
3020
0000
0000
0032
0000
0000
,  // measure 36
0103
0000
0010
0100
0010
0000
0000
1000
0000
0000
1000
0000
0100
0000
0010
0000
,  // measure 37
0220
0000
0330
0000
0011
0000
0000
0000
0001
0010
0000
0100
0000
0010
0001
0000
,  // measure 38
0100
0000
1000
0000
0100
0000
0001
0000
0010
0001
0000
1000
0000
0000
0010
0000
,  // measure 39
0220
0000
0330
0000
1010
0000
0000
0000
1000
0010
0000
0100
0000
0010
1000
0000
,  // measure 40
0100
0000
0001
0000
0100
0000
1000
0001
1000
0000
0000
0010
0000
0100
0010
0000
,  // measure 41
2020
0000
3030
0000
1000
0000
0010
0000
0100
0001
0000
0010
0000
0100
0010
0000
,  // measure 42
0022
0000
0033
0000
0001
0000
0010
0000
0100
1000
0000
0010
0000
0100
0010
0000
,  // measure 43
2002
0000
3003
0000
1000
0000
0010
0000
0001
0010
0000
1000
0000
0010
1000
0000
,  // measure 44
2002
0000
3003
0000
1000
0000
0100
0010
0100
0000
0000
0010
0000
0001
1000
0000
,  // measure 45
1002
0000
0103
0000
0001
0100
0010
0100
,  // measure 46
0001
0000
0100
0000
0001
1001
1001
0000
,  // measure 47
1000
0000
0000
0000
0100
0000
0000
0000
1000
0000
0000
0000
0110
0000
0000
1000
,  // measure 48
0100
0010
0001
0100
0100
0000
0000
0000
;

//---------------dance-single - ----------------
#NOTES:
     dance-single:
     :
     Medium:
     6:
     0.330287,0.388338,0.160139,0.160139,0.000000,231.000000,215.000000,16.000000,16.000000,0.000000,0.000000,0.330287,0.388338,0.160139,0.160139,0.000000,231.000000,215.000000,16.000000,16.000000,0.000000,0.000000:
// measure 0
0000
0000
0000
0000
,  // measure 1
0000
0000
0000
0000
,  // measure 2
0000
0000
0000
0000
,  // measure 3
0000
0000
0000
0000
,  // measure 4
0000
0000
0000
0000
,  // measure 5
1001
0000
0000
0000
0001
0010
0001
0000
,  // measure 6
1000
0000
1000
0000
0010
1000
0010
0000
,  // measure 7
1001
0000
0000
0000
1000
0100
1000
0000
,  // measure 8
0001
0000
0001
0000
0100
0001
0100
0000
,  // measure 9
0001
0000
0010
0100
2000
0000
3000
0000
,  // measure 10
1000
0000
0010
0100
0002
0000
0003
0000
,  // measure 11
1000
0000
0010
1000
0200
0000
0300
0000
,  // measure 12
0001
0000
0010
0001
0200
0000
0300
0000
,  // measure 13
1000
0010
1000
0000
0001
0010
0001
0000
,  // measure 14
1000
0000
1000
0000
0010
1000
0100
0000
,  // measure 15
0010
0001
0010
0000
0100
1000
0100
0000
,  // measure 16
0010
0000
0010
0000
0001
0100
0010
0000
,  // measure 17
0100
0001
0100
0000
0010
1000
0010
0000
,  // measure 18
0100
0000
0100
0000
0001
0010
0100
0000
,  // measure 19
1000
0010
1000
0000
0001
0010
0001
0000
,  // measure 20
0100
0100
1001
0110
,  // measure 21
1000
0010
0001
0010
,  // measure 22
1000
0000
0001
0000
0010
0100
0010
0000
,  // measure 23
0001
0010
1000
0010
,  // measure 24
0001
0000
0100
0000
0010
1000
0100
0000
,  // measure 25
1000
0010
0001
1000
,  // measure 26
0100
0000
0001
0000
1000
0001
1000
0000
,  // measure 27
0001
0010
1000
0001
,  // measure 28
0100
0000
0010
0000
0100
1000
0010
0000
,  // measure 29
1010
0000
1010
0000
0010
1000
0100
0000
,  // measure 30
0011
0000
0011
0000
0010
0001
0100
0000
,  // measure 31
1001
0000
1001
0000
1000
0001
0100
0000
,  // measure 32
0001
1000
0100
0000
0010
0100
0010
0100
,  // measure 33
0010
0000
1100
0000
0010
0001
0100
0000
,  // measure 34
0010
0000
0101
0000
0010
1000
0100
0000
,  // measure 35
0110
0000
0110
0000
0001
1000
0001
0000
,  // measure 36
0100
0010
0100
0000
0010
0000
1001
0000
,  // measure 37
2000
0000
3020
0000
1030
0010
1000
0000
,  // measure 38
0100
0010
0001
0000
1000
0100
0010
0000
,  // measure 39
0002
0000
0023
0000
0031
0010
0001
0000
,  // measure 40
0100
0010
1000
0000
0001
0100
0010
0000
,  // measure 41
0200
0000
0302
0000
0013
0100
1000
0000
,  // measure 42
0200
0000
2300
0000
3010
0100
0001
0000
,  // measure 43
2001
0000
3020
0000
0031
0010
1000
0000
,  // measure 44
0200
0000
0320
0000
0130
0010
0001
0000
,  // measure 45
1000
0010
1000
0001
,  // measure 46
0010
0000
0001
0000
1000
0010
0010
0000
,  // measure 47
1000
0100
1000
0001
,  // measure 48
0100
0001
1000
0100
0100
0000
0000
0000
;

//---------------dance-single - ----------------
#NOTES:
     dance-single:
     :
     Easy:
     3:
     0.187306,0.242711,0.160139,0.120104,0.000000,131.000000,115.000000,16.000000,12.000000,0.000000,0.000000,0.187306,0.242711,0.160139,0.120104,0.000000,131.000000,115.000000,16.000000,12.000000,0.000000,0.000000:
// measure 0
0000
0000
0000
0000
,  // measure 1
0000
0000
0000
0000
,  // measure 2
0000
0000
0000
0000
,  // measure 3
0000
0000
0000
0000
,  // measure 4
0000
0000
0000
0000
,  // measure 5
1001
0000
0001
0000
,  // measure 6
0010
0001
0010
0000
,  // measure 7
1001
0000
1000
0000
,  // measure 8
0010
1000
0010
0000
,  // measure 9
1000
1000
0200
0300
,  // measure 10
0010
0010
0002
0003
,  // measure 11
1000
1000
0020
0030
,  // measure 12
0001
0001
0020
0030
,  // measure 13
1010
0000
0110
0000
,  // measure 14
1000
0010
1000
0000
,  // measure 15
0011
0000
0110
0000
,  // measure 16
0001
0010
0001
0000
,  // measure 17
0101
0000
1010
0000
,  // measure 18
0100
0001
0010
0000
,  // measure 19
1100
0000
0011
0000
,  // measure 20
0100
1000
0010
0000
,  // measure 21
1000
0000
1000
0000
,  // measure 22
0100
0000
0010
0000
,  // measure 23
0001
0000
0001
0000
,  // measure 24
0100
0000
0010
0000
,  // measure 25
1000
0000
0100
0000
,  // measure 26
0001
0000
0100
0000
,  // measure 27
1000
0000
0010
0000
,  // measure 28
0001
0000
0010
0000
,  // measure 29
1000
1000
0100
0000
,  // measure 30
1000
1000
0010
0000
,  // measure 31
0001
0001
0100
0000
,  // measure 32
0001
0001
0010
0000
,  // measure 33
1000
0100
0010
0000
,  // measure 34
0001
0100
0010
0000
,  // measure 35
1000
1000
0010
0000
,  // measure 36
0001
0001
0010
0000
,  // measure 37
2020
3030
0001
0000
,  // measure 38
1000
0100
0010
0001
,  // measure 39
0022
0033
1000
0000
,  // measure 40
0001
0100
0010
1000
,  // measure 41
2002
3003
0110
0000
,  // measure 42
1000
0001
0100
0010
,  // measure 43
0220
0330
1001
0000
,  // measure 44
1000
0100
0001
0100
,  // measure 45
1000
0000
1000
0000
,  // measure 46
0001
0000
0001
0000
,  // measure 47
1000
0000
1000
0000
,  // measure 48
0001
0001
0100
0000
;

//---------------dance-single - ----------------
#NOTES:
     dance-single:
     :
     Beginner:
     1:
     0.094368,0.120104,0.000000,0.040035,0.000000,66.000000,66.000000,0.000000,4.000000,0.000000,0.000000,0.094368,0.120104,0.000000,0.040035,0.000000,66.000000,66.000000,0.000000,4.000000,0.000000,0.000000:
// measure 0
0000
0000
0000
0000
,  // measure 1
0000
0000
0000
0000
,  // measure 2
0000
0000
0000
0000
,  // measure 3
0000
0000
0000
0000
,  // measure 4
0000
0000
0000
0000
,  // measure 5
0001
0000
0000
0000
,  // measure 6
1000
0000
0001
0000
,  // measure 7
1000
0000
0000
0000
,  // measure 8
0001
0000
1000
0000
,  // measure 9
0001
0000
0000
0000
,  // measure 10
0010
0000
0000
0000
,  // measure 11
0100
0000
0000
0000
,  // measure 12
1000
0000
0000
0000
,  // measure 13
0001
0000
0001
0000
,  // measure 14
0100
0000
0100
0000
,  // measure 15
0010
0000
0010
0000
,  // measure 16
1000
0000
1000
0000
,  // measure 17
0100
0000
0100
0000
,  // measure 18
0010
0000
0010
0000
,  // measure 19
0001
0000
0001
0000
,  // measure 20
1000
0000
1000
0000
,  // measure 21
0010
0000
0000
0000
,  // measure 22
0100
0000
0000
0000
,  // measure 23
0010
0000
0000
0000
,  // measure 24
0100
0000
0000
0000
,  // measure 25
0001
0000
0000
0000
,  // measure 26
1000
0000
0000
0000
,  // measure 27
0001
0000
0000
0000
,  // measure 28
1000
0000
0000
0000
,  // measure 29
0100
0000
0100
0000
,  // measure 30
0010
0000
0010
0000
,  // measure 31
0100
0000
0100
0000
,  // measure 32
0010
0000
0010
0000
,  // measure 33
0001
0000
0001
0000
,  // measure 34
1000
0000
1000
0000
,  // measure 35
0010
0000
0010
0000
,  // measure 36
0100
0000
0100
0000
,  // measure 37
0020
0000
0030
0000
,  // measure 38
1000
0000
0001
0000
,  // measure 39
0020
0000
0030
0000
,  // measure 40
0001
0000
1000
0000
,  // measure 41
0020
0000
0030
0000
,  // measure 42
0100
0000
0010
0000
,  // measure 43
0200
0000
0300
0000
,  // measure 44
0010
0000
1000
0000
,  // measure 45
0001
0000
0000
0000
,  // measure 46
1000
0000
0000
0000
,  // measure 47
0001
0000
0000
0000
,  // measure 48
1000
0000
0000
0000
;
