#TITLE:Panic! Pop'n! Picnic!;
#SUBTITLE:;
#ARTIST:Umeboshi Chazuke;
#TITLETRANSLIT:;
#SUBTITLETRANSLIT:;
#ARTISTTRANSLIT:;
#GENRE:;
#CREDIT:;
#BANNER:banner.png;
#BACKGROUND:bacjground.png;
#LYRICSPATH:;
#CDTITLE:;
#MUSIC:Panic Popn Picnic.ogg;
#OFFSET:1.120049;
#SAMPLESTART:77.846825;
#SAMPLELENGTH:10.105263;
#LASTBEATHINT:0.281047;
#SELECTABLE:YES;
#BPMS:0.000000=190.000000
,240.500000=185.000000
,241.000000=180.000000
,241.500000=175.000000
,242.000000=170.000000
,242.500000=165.000000
,243.000000=160.000000
,243.500000=155.000000
,244.000000=150.000000
,245.000000=140.000000
,246.000000=130.000000
,247.000000=121.000000
,248.000000=190.000000
;
#STOPS:
;
#BGCHANGES:3.500= Panic! Pop'n! Picnic!.avi=1.000=0=0=0=StretchNoLoop====,
99999=-nosongbg-=1.000=0=0=0 // don't automatically add -songbackground-
;
#KEYSOUNDS:;
#ATTACKS:;

//---------------dance-single - ----------------
#NOTES:
     dance-single:
     :
     Challenge:
     16:
     0.913953,1.161771,0.119443,0.276212,0.597215,857.000000,841.000000,16.000000,37.000000,0.000000,0.000000,0.913953,1.161771,0.119443,0.276212,0.597215,857.000000,841.000000,16.000000,37.000000,0.000000,0.000000:
0000
0000
0000
0000
,
0000
0000
0000
0000
,
0000
0000
0000
0000
,
0000
0000
0000
0000
,
0000
0000
0000
0000
,
0000
0000
0000
0000
,
1000
0010
0100
0010
1000
0100
0010
0001
,
1000
0000
0010
0000
0100
0000
0001
0000
0010
0000
0001
1000
0100
0000
0010
0000
,
0001
0000
0001
0000
0001
0000
0001
0000
0001
0000
0000
0000
2000
3000
0000
0000
,
0010
0000
0010
0000
0010
0000
0010
0000
0010
0000
0200
0300
0200
0300
0000
0000
,
0010
0000
1000
0001
0100
0000
0001
0000
0010
0100
0000
0010
0100
0000
1000
0000
,
0001
0000
0100
0010
1000
0000
0001
0000
0000
0000
1001
0000
1001
0000
1000
0000
,
0100
0000
0000
0010
0100
0000
1000
0000
0001
0000
0000
0000
1000
0000
0001
0000
,
0100
0000
0000
0010
0100
0000
0010
0000
1000
0000
0000
0000
0010
0000
1000
0000
,
0001
0000
0000
0100
0010
0000
0100
0000
0001
0000
0000
0000
0010
0000
0100
0000
,
1000
0000
0001
1000
0001
0000
0100
0000
0001
0000
0000
0000
1000
0000
0010
0000
,
0100
0000
0000
0010
0100
0000
0001
0000
1000
0000
0000
0000
0001
0000
0010
0000
,
0100
0000
0000
0010
0100
0000
1000
0000
0001
0000
0010
0000
0001
0000
1000
0000
,
0100
0000
1000
0100
1000
0000
0010
0000
1000
0001
1000
0001
0010
0000
0100
0000
,
1000
0000
0010
0000
0100
0000
0001
0000
1000
0000
0000
1000
0001
0000
0010
0000
,
0001
0000
1000
0001
1000
0000
0010
0000
1000
0000
0001
0100
0001
0000
0010
0000
,
0100
0000
0010
0001
0010
0000
0001
0000
1000
0000
0010
1000
0010
0000
0100
0000
,
0001
0000
1000
0001
1000
0000
0100
0000
0010
0000
0001
0100
0001
0000
1000
0000
,
0010
0000
0100
0010
0100
0000
0010
0000
1000
0000
0100
0000
0010
0000
0001
0000
,
1000
0000
0010
1000
0001
0000
0100
0000
0001
0000
0010
0100
1000
0000
0001
0000
,
0010
0000
0100
1000
0001
0000
1000
0000
0010
0000
0000
0000
1000
0000
0001
0000
,
0010
0001
0010
0001
1000
0000
0001
0000
1000
0010
1000
0010
0100
0000
0001
0000
,
1000
0100
0010
0001
1000
0000
1001
0000
,
0001
1000
0010
1000
0001
0100
1000
0100
,
0001
0000
0010
0000
0100
0000
0010
0000
0001
0000
1000
0010
1000
0000
0001
0000
,
1000
0010
1000
0001
1000
0100
0001
0100
,
1000
0000
0010
0000
0100
0000
0010
1000
0010
0000
0100
0001
0100
0000
0010
0000
,
0010
0000
1000
0000
0001
0000
0010
0001
0010
0000
0100
1000
0001
0000
0100
0000
,
0010
0100
0010
0000
1000
0000
0001
0100
0010
0000
1000
0100
0010
0000
0001
0000
,
0010
0000
0001
0000
1000
0000
0010
1000
0010
0000
0100
0001
1000
0000
0100
0000
,
0010
0000
0010
0000
0010
0000
0001
0010
0100
0000
1000
0010
0100
0000
0001
0000
,
1000
0000
1000
0000
1000
0000
0010
0000
1000
0000
0001
0100
0000
0001
1000
0000
,
0001
0010
0001
0000
1000
0000
0001
0000
0100
0000
0001
0100
0000
0010
1000
0000
,
0010
0000
0100
0000
0010
0000
1000
0000
0001
0000
1000
0100
0000
1000
0001
0000
,
1000
0100
1000
0000
0010
0000
0100
0000
0001
0000
1000
0010
0000
0100
0001
0000
,
0100
0000
0010
0000
1000
0000
0001
0000
0010
0000
0100
0010
0000
0001
0010
0000
,
0001
1000
0010
0000
0100
0000
0001
0000
0100
0000
0010
1000
0000
0010
0100
0000
,
0001
1000
0010
1000
0001
0100
0001
0010
,
0100
1000
0100
0010
0001
0100
0010
1000
0002
0000
0103
0010
2000
0000
3100
0010
,
0002
0003
2002
0000
0000
0000
0000
0000
,
3003
0000
0000
0000
0000
0000
0000
0000
0000
0000
0000
0000
0000
0000
0010
0100
,
0010
0000
0000
0000
,
1000
0000
0000
0000
1000
0000
0000
0000
1000
0000
0001
0100
0002
0000
0000
0000
,
0013
0100
1000
0100
0010
0001
1000
0001
,
0100
0010
1000
0010
0100
0001
1000
0001
,
0000
0000
1000
0000
0001
0010
0100
0000
0010
0000
0001
0100
0000
0010
0100
0000
,
1000
0100
0000
0001
0010
0000
0100
0010
0000
1000
0010
0000
0001
0000
0100
0000
,
0110
0010
0000
0010
0010
0000
0010
0000
,
1000
0000
0001
1000
0001
0000
0010
0100
0010
0000
0000
0000
0001
0000
1000
0100
,
0010
0000
0100
1000
0010
0000
1000
0000
0001
0000
0100
0000
0000
0000
0010
0100
,
0010
0000
0100
0001
0100
0000
0010
0000
1000
0000
0000
0000
0000
0000
0001
0010
,
0100
0000
1000
0001
0010
0000
0001
0000
0100
0000
0010
0000
1000
0000
0010
0000
,
0100
0010
0100
0010
1000
0000
0001
0000
,
0010
0000
0100
0000
0100
0000
1000
0100
0010
0000
0001
0000
1000
0000
0010
0000
,
0100
0000
0100
0001
0100
0000
0010
0000
0100
0000
0001
0000
0010
0000
0100
0000
,
1000
0010
1000
0010
1000
0010
1000
0010
0100
0010
0100
0010
0100
0010
0100
0010
,
0100
0001
0100
0001
0100
0001
0100
0001
2000
3000
0200
0300
0020
0030
0002
0003
,
1001
0000
1000
0001
0100
0000
0010
0000
1000
0000
0001
0000
0010
0000
0100
1000
,
0100
0000
0010
0001
0010
0000
0001
0000
0100
0000
0000
0000
0010
0000
1000
0001
,
0010
0000
0100
1000
0001
0000
0010
0000
0001
0000
1000
0000
0010
0000
1000
0000
,
0001
0000
0100
0000
0001
0000
0100
0000
0020
0000
0000
0000
1030
0001
1000
0001
,
1000
0000
0100
0000
0100
0000
0010
0100
1000
0000
0001
0000
0010
0000
0001
0000
,
0100
0000
0100
0010
0100
0000
0001
0000
0010
0000
0100
0000
1000
0000
0010
0000
,
0200
0000
0000
0000
0301
0000
1000
0010
0100
0000
0001
0000
1000
0000
0100
0000
,
0010
0001
0100
0010
1000
0010
0100
0001
1000
0100
0010
0001
0100
0010
1000
0001
,
0010
0000
0100
0010
0100
0000
0010
0000
0001
0000
1000
0000
0100
0000
0010
0001
,
0010
0000
0100
1000
0100
0000
1000
0000
0010
0000
0000
0000
0100
0000
0001
1000
,
0100
0000
0010
0001
1000
0000
0100
0000
1000
0000
0001
0000
0100
0000
0001
0000
,
1000
0000
0010
0000
1000
0000
0010
0000
0200
0000
0000
0000
0310
1000
0010
1000
,
0010
0000
0100
0000
0100
0000
0010
0100
0001
0000
0010
0000
0100
0000
1000
0000
,
0010
0000
0010
0100
0010
0000
1000
0000
0100
0000
0010
0000
0001
0000
0100
0000
,
0020
0000
0000
0000
1030
0000
0010
0100
0001
0000
1000
0000
0001
0000
0010
0000
,
0200
0000
0000
0000
2300
0000
0000
0000
3010
0100
0010
0100
0001
0000
1000
0001
,
0200
0000
0000
0000
0300
0000
0001
0100
0001
0000
1000
0000
0000
0000
0010
0000
,
0000
1000
0000
1000
0010
0100
0000
0001
,
2000
0000
0000
0000
3000
0000
0010
1000
0010
0000
0000
0100
0000
0000
0001
0000
,
2000
0001
0001
0000
3001
0100
0001
0100
,
1010
0000
1010
0000
1001
0000
0000
0000
0000
0000
0000
0000
0000
0000
0010
0001
,
0100
0000
0010
1000
0100
0000
0010
0000
0001
0000
1000
0000
0010
0000
0100
0000
,
0002
0000
0103
0000
2000
0000
3100
0000
0002
0000
0103
0000
0020
0000
1030
0001
,
1000
0000
0100
0010
0100
0000
0010
0001
0100
0000
0010
1000
0001
0000
0100
0010
,
1000
0000
0000
0000
0001
0000
1000
0000
0001
0000
0010
0001
2000
0000
3000
0000
,
0100
0010
0001
1000
0100
0000
1100
0000
1000
0000
0010
1000
0200
0000
0300
0000
,
0011
0000
0000
0000
0010
0000
0001
0000
1000
0000
0001
0010
0200
0000
0300
0000
,
1000
0000
1000
0000
1000
0000
1000
0000
0002
0003
0000
0000
0002
0003
0000
0000
,
0110
0000
0000
0000
0010
0000
0100
0000
0001
0000
0010
0001
2000
0000
0000
0000
,
3100
0010
0001
0100
0010
0000
1010
0000
1000
0000
0001
0100
0002
0000
0003
0000
,
1001
0000
0000
0000
1000
0000
0001
0000
1000
0000
0010
1000
0002
0000
0003
0000
,
0100
0000
0100
0000
0100
0000
0100
0000
0010
0000
0000
0010
0100
0001
0100
0010
,
1000
0000
0001
0000
0100
0000
0001
0000
1000
0000
0010
1000
0001
0000
0010
0000
,
0100
0010
0100
0010
0001
0000
1000
0000
0010
0000
0100
0001
1000
0000
0001
0000
,
0010
0000
0100
0000
1000
0000
0100
0000
0010
0000
0001
0100
0001
0000
1000
0000
,
0010
0010
0010
0100
0001
1000
0001
1000
,
0001
0000
1000
0000
0100
0000
1000
0000
0001
0000
0010
0001
1000
0000
0010
0000
,
0100
0010
0100
0010
1000
0000
0010
0000
0100
0000
0001
1000
0001
0000
0100
0000
,
0010
0000
0010
0000
0010
0000
0010
0000
0010
0000
0000
0000
0200
0300
0000
0000
,
0001
0000
0001
0000
0001
0000
0001
0000
0001
0000
2000
3000
2000
3000
0000
0000
,
0010
0000
1000
0001
0100
0000
0001
0000
0010
0100
0000
0010
0100
0000
1000
0000
,
0001
0000
1000
0100
0010
0000
0001
0000
0000
0000
0110
0000
1001
0000
0000
0000
;

//---------------dance-single - ----------------
#NOTES:
     dance-single:
     :
     Hard:
     15:
     0.832902,0.929417,0.074652,0.283677,0.425516,781.000000,771.000000,10.000000,38.000000,0.000000,0.000000,0.832902,0.929417,0.074652,0.283677,0.425516,781.000000,771.000000,10.000000,38.000000,0.000000,0.000000:
0000
0000
0000
0000
,
0000
0000
0000
0000
,
0000
0000
0000
0000
,
0000
0000
0000
0000
,
0000
0000
0000
0000
,
0000
0000
0000
0000
,
0010
1000
0001
1000
0100
0010
0001
1000
,
0001
0010
0001
0100
0010
1000
0001
0100
,
0001
0000
1000
0000
0001
0000
1000
0000
0001
0000
0000
0000
0020
0030
0000
0000
,
0001
0000
1000
0000
0001
0000
1000
0000
0001
0000
0200
0300
0200
0300
0000
0000
,
0001
0000
1000
0000
0100
0000
0010
0000
0001
0100
0000
0100
0001
0000
1000
0000
,
0010
0000
1000
0100
0010
0000
0001
0000
0000
0000
0001
0000
1000
0000
0010
0000
,
1000
0000
0000
1000
0001
0000
0100
0000
0001
0000
0000
0000
0010
0000
0001
0000
,
0100
0000
0000
0001
0100
0000
0010
0000
1000
0000
0000
0000
0001
0000
0010
0000
,
0001
0000
0000
0001
0100
0000
0010
0000
1000
0000
0000
0000
0001
0000
1000
0000
,
0100
0000
0010
0100
0010
0000
0001
0000
1000
0000
0000
0000
0010
0000
0100
0000
,
0001
0000
0000
0001
0010
0000
0100
0000
1000
0000
0000
0000
0010
0000
1000
0000
,
0100
0000
0000
0010
0100
0000
1000
0000
0001
0000
0010
0000
0100
0000
1000
0000
,
0010
0000
1000
0010
1000
0000
0001
0000
0100
0000
0010
0100
0010
0000
0100
0000
,
0001
0010
0100
1000
0001
0000
0001
1000
,
0001
0000
0000
0001
1000
0000
0100
0000
0010
0000
0000
0010
0001
0000
0100
0000
,
0010
0000
0000
0010
1000
0000
0001
0000
0100
0000
0000
0100
0001
0000
0010
0000
,
0100
0000
0000
0100
1000
0000
0010
0000
1000
0000
0000
1000
0001
0000
0100
0000
,
0010
0000
1000
0001
1000
0000
0100
0000
0010
0000
0000
0000
0001
0000
1000
0000
,
0100
0000
0000
0010
0100
0000
1000
0000
0010
0000
0000
0100
0010
0000
1000
0000
,
0001
0000
0101
0000
1010
0000
0010
1000
,
0001
0100
0001
0100
0001
0000
1000
0000
0010
1000
0010
1000
0010
0000
1000
0000
,
0100
0010
0001
1000
0100
0000
1001
0000
,
0100
0001
0100
0010
0100
0001
0100
0010
,
1000
0000
0001
0000
0100
0000
0001
0000
0010
0000
0001
1000
0001
0000
0010
0000
,
0100
1000
0100
0010
0100
1000
0100
0010
,
0001
0000
0100
0000
0001
0000
1000
0000
0010
0000
1000
0001
1000
0000
0001
0000
,
0100
0000
0020
0000
0000
0000
1030
0001
1000
0000
0001
1000
0010
0000
0100
0000
,
0000
0000
0002
0000
0000
0000
0013
0100
0010
0000
0100
1000
0001
0000
1000
0000
,
0010
0000
0200
0000
0000
0000
0301
1000
0001
0000
1000
0001
0010
0000
0100
0000
,
1000
0000
0100
0000
1000
0000
0010
0100
0010
0000
0100
0001
1000
0000
0001
0000
,
0010
0000
0001
0000
1000
0000
0001
0000
0010
0000
0100
1000
0000
0100
1000
0000
,
0001
0000
1000
0000
0010
0000
1000
0000
0001
0000
0100
0001
0000
0100
0001
0000
,
0100
0000
0010
0000
1000
0000
0010
0000
0100
0000
0001
1000
0000
0001
0010
0000
,
0100
0000
0010
0000
0001
0000
0010
0000
0100
0000
1000
0001
0000
1000
0010
0000
,
0100
0000
0001
0000
1000
0000
0001
0000
0100
0000
0010
0100
0000
0001
0100
0000
,
0010
0000
1000
0000
0001
0000
1000
0000
0100
0000
1000
0010
0000
0100
0010
0000
,
1000
0000
0001
0000
0100
0000
0010
0000
0100
0000
0001
1000
0000
0010
1000
0000
,
0100
0010
0100
0010
0001
1000
0001
1000
0020
0000
0130
0001
0200
0000
0310
1000
,
0001
2002
0000
0000
,
3003
0000
0000
0000
0000
0000
0000
0000
0000
0000
0000
0000
0000
0000
1000
0001
,
1000
0000
0000
0000
,
0001
0000
0000
0000
0001
0000
0000
0000
0001
0000
0100
0010
1000
0000
0000
0000
,
0001
0010
1000
0010
0001
0100
0010
1000
,
0100
0010
0001
0010
0100
1000
0001
0100
,
0000
0000
0010
0000
1000
0010
0000
1000
0001
0000
0100
0001
0000
0010
0001
0000
,
0010
0100
0000
0010
0001
0000
1000
0100
0000
0010
0100
0000
1000
0000
0010
0000
,
0100
0001
0000
0001
0001
0000
0001
0000
,
1000
0000
0010
1000
0010
0000
1000
0010
1000
0000
0000
0000
0001
0000
0100
0001
,
1000
0000
0001
1000
0001
0000
1000
0000
0100
0000
0010
0000
0000
0000
0001
0010
,
0001
0000
0100
0001
0100
0000
0010
0000
1000
0000
0000
0000
0000
0000
0010
1000
,
0001
0000
0100
0001
0100
0000
0010
0000
1000
0000
0001
0000
0010
0000
0100
0000
,
0010
0001
0010
0001
1000
0000
0001
0000
,
0100
0000
0010
0000
0010
0000
1000
0010
0100
0000
0001
0000
1000
0000
0100
0000
,
0010
0000
0010
0001
0010
0000
0001
0000
0100
0000
0010
0000
1000
0000
0001
0000
,
2000
0000
3200
0000
,
0320
0000
0000
0000
0031
0100
0010
1000
,
0001
0000
1000
0100
0010
0000
0001
0000
0100
0000
0001
0000
1000
0000
0001
0100
,
0001
0000
0100
0001
0100
0000
0010
0000
1000
0000
0001
0000
1000
0000
0010
0000
,
0100
0000
0001
0100
0010
0000
1000
0000
0001
0000
0010
0000
0100
0000
0010
0000
,
0100
1000
0100
1000
0010
0000
0210
0000
,
0301
0000
1000
0000
1000
0000
0001
0100
0010
0000
1000
0000
0100
0000
0010
0000
,
0001
0000
0001
1000
0001
0000
1000
0000
0100
0000
0010
0000
0001
0000
0100
0000
,
0020
0000
0000
0000
1030
0000
0001
1000
0100
0000
0010
0000
0001
0000
0100
0000
,
0010
0000
1000
0001
0100
0000
0001
0010
0100
0000
1000
0001
0010
0000
0100
1000
,
0010
0000
0100
0001
1000
0000
0100
0000
0010
0000
0001
0000
1000
0000
0010
1000
,
0010
0000
1000
0010
1000
0000
0100
0000
0010
0000
0001
0000
0100
0000
0001
0000
,
1000
0000
0100
1000
0001
0000
0010
0000
0100
0000
1000
0000
0001
0000
1000
0000
,
0001
0010
0001
0010
0100
0000
1020
0000
,
0130
0000
0001
0000
0001
0000
0100
0010
1000
0000
0001
0000
0010
0000
0001
0000
,
1000
0000
1000
0010
1000
0000
0100
0000
0010
0000
0001
0000
0100
0000
0010
0000
,
2000
0000
0000
0000
3001
0000
0010
0100
1000
0000
0001
0000
1000
0000
0100
0000
,
0020
0000
0000
0000
0032
0000
0000
0000
0203
0000
0000
0000
0310
0000
1000
0001
,
0100
0000
0000
0010
0100
0000
0002
0000
,
0023
0230
2300
3002
,
0023
0000
0000
0000
0030
0000
0100
0010
0100
0000
0000
0010
0000
0000
0001
0000
,
2000
3000
0202
0303
,
0010
0000
0010
0000
0110
0000
0000
0000
0000
0000
0000
0000
0000
0000
0100
0001
,
0100
0000
0010
1000
0010
0000
1000
0000
0100
0000
0010
0000
0100
0000
0010
0000
,
0002
1003
0200
1300
0020
1030
0002
1003
,
0010
0000
0100
0010
1000
0000
0010
0100
0001
0000
1000
0001
1000
0000
0100
0010
,
0001
1000
0100
0010
0100
0010
0001
0100
,
0010
0100
0010
1000
0001
0100
0010
1000
,
0001
0010
0001
0100
1000
0100
0001
1000
,
0010
1000
0100
0001
0100
1000
0010
0100
,
0001
1000
0001
0010
0100
1000
0100
0010
,
0100
1000
0001
0100
0010
1000
0010
0100
,
0010
1000
0001
0100
0001
1000
0100
0010
,
0001
0000
1000
0000
0001
0000
1000
0000
0010
0000
0000
0010
1000
0000
0001
0000
,
0100
0000
0001
0000
1000
0000
0010
0000
1000
0000
0001
1000
0001
0000
0100
0000
,
0010
1000
0010
1000
0010
0000
1000
0000
0100
0000
0010
0001
0010
0000
0001
0000
,
1000
0000
0001
0000
0100
0000
0010
0000
1000
0000
0100
1000
0100
0000
1000
0000
,
0010
0000
0010
0000
0010
0000
0010
0000
0200
0300
0000
0000
0200
0300
0000
0000
,
0010
0000
1000
0000
0001
0000
0100
0000
0001
0000
0010
0100
0010
0000
0001
0000
,
1000
0010
1000
0010
1000
0000
0010
0000
0100
0000
0001
1000
0001
0000
0010
0000
,
0100
0000
1000
0000
0100
0000
1000
0000
0100
0000
0000
0000
0020
0030
0000
0000
,
0001
0000
0100
0000
0001
0000
0100
0000
0001
0000
2000
3000
2000
3000
0000
0000
,
0001
0000
0100
0000
0010
0000
1000
0000
0100
0010
0000
0010
0001
0000
1000
0000
,
0001
0000
0010
0100
1000
0000
0001
0000
0000
0000
1001
0000
1001
0000
0000
0000
;

//---------------dance-single - ----------------
#NOTES:
     dance-single:
     :
     Beginner:
     4:
     0.261282,0.387257,0.067187,0.000000,0.000000,245.000000,236.000000,9.000000,0.000000,0.000000,0.000000,0.261282,0.387257,0.067187,0.000000,0.000000,245.000000,236.000000,9.000000,0.000000,0.000000,0.000000:
0000
0000
0000
0000
,
0000
0000
0000
0000
,
0000
0000
0000
0000
,
0000
0000
0000
0000
,
0000
0000
0000
0000
,
0000
0000
0000
0000
,
0010
0000
1000
0000
,
0010
0000
0100
0000
,
0001
0001
0001
0000
,
1000
1000
1000
0000
,
0001
0000
0010
0000
,
0100
0100
0000
0010
,
0010
0000
0001
0000
,
1000
0000
0001
0000
,
0100
0000
0010
0000
,
1000
1000
1000
0000
,
0001
0000
0100
0000
,
0001
0000
0010
0000
,
0100
0000
0010
0000
,
0001
1000
0001
0000
,
1000
1000
1000
0000
,
0010
1000
0010
0000
,
0100
0100
0100
0000
,
0001
0100
0001
0000
,
0010
0010
0010
0000
,
1001
1001
1001
0000
,
0010
0000
0001
0000
,
0100
0100
0100
0000
,
0010
0000
1000
0000
,
0001
0000
0010
0010
,
0010
0000
0001
0000
,
0100
0000
0010
0010
,
0010
0000
1000
0000
,
0001
0000
0100
0100
,
0100
0000
0001
0000
,
0010
0010
0010
0000
,
1001
0000
1000
0000
,
0010
0000
0000
0000
,
1000
1000
1000
0000
,
0001
0000
0100
0000
,
0001
0001
0001
0000
,
0010
0000
0001
0000
,
1000
1000
1000
0000
,
0100
0000
0010
0000
,
0000
1001
0000
0000
,
0000
0000
0000
0000
,
0000
0000
0000
0000
,
0001
0001
0001
0000
,
1000
1000
0001
0000
,
0001
0001
1000
0000
,
0010
0000
1000
0000
,
0100
0000
0010
0000
,
0001
0000
1000
0000
,
0010
0010
0010
0000
,
1000
0000
0100
0000
,
0010
0100
0010
0000
,
0001
0000
1000
0000
,
0001
0001
0001
0000
,
0100
0000
0010
0000
,
1000
0000
0001
1000
,
0001
0000
1000
0000
,
0010
0000
0100
0000
,
0010
0010
0010
0000
,
0100
0010
0100
0000
,
0001
0000
1000
0000
,
0100
0100
0100
0000
,
0010
0000
0001
0000
,
1000
0000
0001
1000
,
0001
0000
0100
0000
,
0010
0000
0100
0000
,
0010
0010
0010
0000
,
0100
0010
0100
0000
,
0001
0000
1000
0000
,
0001
1000
0001
0000
,
0010
0000
0100
0000
,
0010
0000
0001
0000
,
1000
0000
0010
0000
,
1000
0000
0001
0001
,
0001
0000
1000
0000
,
0010
0000
1000
0000
,
0100
0000
0010
0000
,
0001
0000
1000
0000
,
1001
1001
0000
0000
,
0100
0000
0100
0000
,
0010
0100
0010
0000
,
0100
0010
0100
0000
,
0001
0000
1000
0000
,
0100
0100
0100
0000
,
0010
0000
0001
0000
,
1000
1000
1000
0000
,
0010
0000
0100
0000
,
0001
0001
0001
0000
,
1000
0000
0001
0000
,
0010
0010
0010
0000
,
1001
0000
0100
0000
,
0001
0001
0001
0000
,
1000
0000
0010
0000
,
1000
1000
1000
0000
,
0001
0000
0010
0000
,
0100
0100
0100
0000
,
0010
0010
0010
0000
,
0100
0100
0100
0000
,
1000
0000
0001
0000
,
0010
0010
0000
1001
;

//---------------dance-single - ----------------
#NOTES:
     dance-single:
     :
     Easy:
     7:
     0.334867,0.425983,0.074652,0.186630,0.000000,314.000000,304.000000,10.000000,25.000000,0.000000,0.000000,0.334867,0.425983,0.074652,0.186630,0.000000,314.000000,304.000000,10.000000,25.000000,0.000000,0.000000:
0000
0000
0000
0000
,
0000
0000
0000
0000
,
0000
0000
0000
0000
,
0000
0000
0000
0000
,
0000
0000
0000
0000
,
0000
0000
0000
0000
,
0010
0000
1000
0000
,
0001
0000
0010
0000
,
0001
0001
0001
0000
,
1000
1000
1000
0000
,
0010
0000
1000
0100
,
0010
0000
0010
0001
,
1000
0001
1000
0000
,
0010
1000
0001
0000
,
0100
0001
1000
0000
,
0100
0100
0100
0000
,
0010
0001
1000
0000
,
0001
0100
0010
0000
,
1000
0000
0001
0000
,
0010
0010
0100
0000
,
0110
0000
0100
0000
,
1000
0010
1000
0000
,
0001
0100
0001
0000
,
0010
0010
0010
0000
,
0001
0000
1000
0000
,
0010
0010
0110
0000
,
0100
0001
0100
0010
,
1000
0001
1000
0000
,
0100
0100
0010
0000
,
0010
0010
0001
0010
,
0001
0001
0100
0000
,
0010
0010
1000
0010
,
1000
0001
1000
0000
,
0100
0010
0001
0000
,
1000
0001
1000
0000
,
0010
0100
0001
0000
,
1000
0010
1000
0010
,
1000
0001
0100
0000
,
0001
0010
0001
0010
,
0001
0100
0001
0000
,
1000
0010
0100
0000
,
0001
1000
0001
0000
,
0010
0001
0010
0000
,
0100
1000
0100
0010
,
0001
1001
0000
0000
,
0000
0000
0000
0000
,
0001
0000
0000
0000
,
1000
1000
1000
0000
,
0100
1000
0100
1000
,
0001
1000
0001
0100
,
0000
0010
0000
0000
1000
0000
0000
0001
,
0000
0000
0010
0000
0000
0100
0000
0000
,
1000
0000
0001
0001
,
0110
0110
0110
0000
,
0010
1000
0001
0000
,
0100
0100
0010
0000
,
0000
0100
0001
0010
,
0100
0010
0100
1000
,
0001
0001
1000
0010
,
1000
1000
0100
0010
,
0002
0000
0203
0000
,
0320
0000
1030
0000
,
1001
1000
0100
0000
,
0010
0100
0010
0001
,
1000
0001
0100
0010
,
1000
1000
0001
0200
,
0310
1000
0001
1000
,
0100
0010
0100
0010
,
0002
1003
1000
0100
,
0020
0230
2300
3002
,
0013
0110
0100
0000
,
1000
0100
0010
0000
,
0001
0100
0001
1000
,
0010
1000
0001
0200
,
0310
0100
0100
0001
,
0010
0010
0001
1000
,
0200
0310
0100
1000
,
0002
0023
0032
2003
,
3100
0000
0010
0100
,
1000
0100
0010
0001
,
1000
0000
0010
0000
,
0200
0000
0302
0000
,
1003
1001
0000
0000
,
1000
1000
0001
0001
,
0200
0320
0230
0302
,
0203
0320
2030
3002
,
1003
0000
0001
0000
,
1000
0001
0010
0000
,
0100
0000
0010
0000
,
0001
0100
0001
0000
,
1000
0000
0010
0000
,
1000
0010
1000
0000
,
0001
0000
1000
0000
,
0100
0010
0100
0000
,
0010
0001
0010
0000
,
0001
1000
0001
0000
,
0100
0001
0100
0000
,
0010
1000
0010
0000
,
1000
0100
0010
0001
,
1000
0001
0100
0010
,
1000
1000
1000
0000
,
0001
0001
0001
0000
,
0010
0100
0010
0001
,
1000
0010
0000
1001
;

//---------------dance-single - ----------------
#NOTES:
     dance-single:
     :
     Medium:
     12:
     0.600415,0.697062,0.141839,0.089582,0.048524,563.000000,544.000000,19.000000,12.000000,0.000000,0.000000,0.600415,0.697062,0.141839,0.089582,0.048524,563.000000,544.000000,19.000000,12.000000,0.000000,0.000000:
0000
0000
0000
0000
,
0000
0000
0000
0000
,
0000
0000
0000
0000
,
0000
0000
0000
0000
,
0000
0000
0000
0000
,
0000
0000
0000
0000
,
0010
1000
0010
0000
1000
0100
0010
0000
,
0001
0010
0001
0000
0100
0010
1000
0000
,
0001
1000
0001
1000
0001
0000
0000
0000
,
0010
0100
0010
0100
0010
0000
0000
0000
,
0001
0010
0001
0100
0010
0000
1000
0010
,
0100
0000
0100
0001
0000
0001
1000
0100
,
0010
0000
0001
1000
0001
0000
0001
0100
,
0010
0000
1000
0001
1000
0000
1000
0010
,
0100
0000
0001
1000
0001
0000
0010
0100
,
0010
0001
0010
0001
1000
0000
1000
0010
,
0100
0000
0010
0100
0001
0000
1000
0001
,
1000
0000
0001
0010
0100
0010
0001
1000
,
0100
1000
0100
1000
0010
0100
0001
1000
,
0001
0000
1000
0010
0100
0000
1001
0000
,
0001
0000
1000
0010
1000
0000
0001
0100
,
0001
0000
0010
0100
0010
0000
0001
1000
,
0001
0000
0010
0100
0010
0000
0001
1000
,
0100
1000
0100
0010
0001
0000
1000
0010
,
1000
0000
0001
0100
0001
0000
0100
0010
,
1000
0000
1001
0000
0110
0000
0010
0100
,
0001
0100
0001
0000
0010
0100
0010
0000
,
0001
0010
0100
1000
0001
0000
1001
0000
,
1000
0010
1000
0001
,
0100
0000
0010
0000
0100
0001
0100
0000
,
0001
0010
0001
0100
,
0010
0000
1000
0000
0001
0010
0001
0000
,
1000
0000
0100
0000
0010
0100
0010
0001
,
0000
0010
0000
0010
0001
0000
1001
0000
,
0001
0000
1000
0000
0010
0100
0010
1000
,
0000
0001
0000
0001
1000
0000
1010
0000
,
1000
0000
0000
0000
0001
0000
0000
0000
0100
0000
0000
0010
0000
0000
0100
0000
,
0001
0000
0000
0000
0010
0000
0000
0000
0001
0000
0000
1000
0000
0000
0001
0000
,
1000
0000
0000
0000
0010
0000
0000
0000
0100
0000
0000
0001
0000
0000
0100
0000
,
0010
0000
0000
0000
1000
0000
0000
0000
0001
0000
0000
0010
0000
0000
0001
0000
,
1000
0000
0100
0000
1000
0000
0000
0000
0010
0000
0000
1000
0000
0000
0010
0000
,
0100
0000
0001
0000
0100
0000
0000
0000
0001
0000
0000
0010
0000
0000
0001
0000
,
1000
0001
1000
0010
0100
0001
0100
0010
,
1000
0100
0010
0001
2000
0000
3002
0000
,
0013
2002
0000
0000
,
3003
0000
0000
0000
0000
0000
0000
0000
0000
0000
0000
0000
0000
0000
1000
0001
,
1000
0000
0000
0000
,
0010
0010
0010
0010
,
1000
0100
0010
0001
1000
0001
0010
0100
,
0010
0001
1000
0001
0100
0010
1000
0001
,
0000
0000
1000
0000
0000
0001
0000
0000
0010
0000
0000
0100
0000
0000
1000
0000
,
0000
0010
0000
0000
0100
0000
0000
0001
0000
0000
1000
0000
0001
0000
1000
0000
,
0010
0100
0000
0100
0100
0000
0100
0000
,
1001
0110
1001
1001
,
0000
1000
0100
0010
0001
1000
0000
1000
,
0010
0100
0001
1000
,
0100
0010
0001
0010
0001
0000
1000
0000
,
0010
1000
0010
1000
0001
0000
0100
0000
,
0001
1000
1000
0000
0100
0010
0001
0000
,
0100
0100
0100
0000
0001
0010
0001
0100
,
0010
1000
0010
1000
0001
1000
0001
1000
,
0001
0100
0001
0100
0001
0010
0100
1000
,
1001
0000
1000
0100
0010
0001
0000
0001
,
1000
0000
0001
0100
0010
0000
1000
0000
,
0001
0010
0001
0000
1000
0100
1000
0000
,
0010
1000
0010
1000
0100
0000
0011
0000
,
0010
0001
0001
0000
0100
0001
0100
0000
,
0010
0010
0010
0000
1000
0010
1000
0001
,
0100
0000
1001
0000
0001
0010
0100
1000
,
0010
1000
0001
1000
0100
1000
0001
0100
,
0010
1000
0010
0100
0001
1000
0000
1000
,
0001
0000
0100
0001
1000
0000
0010
0000
,
1000
0100
0010
0000
0001
0100
0010
0000
,
0100
0001
0100
0001
1000
0000
1010
0000
,
1000
0001
1000
0000
0010
0010
1000
0000
,
0100
0100
0100
0000
0010
0001
1000
0001
,
0200
0000
0000
0310
1000
0000
0001
0000
,
0010
0011
0101
1010
,
1100
0000
0000
1000
0001
0000
0020
0000
,
0032
2003
3200
0320
,
0031
0000
0000
0000
0000
0000
1000
0001
1000
0000
0000
0001
0000
0000
0010
0000
,
0002
0000
0203
0000
,
0310
0010
0010
0000
0000
0000
0000
0100
,
0010
0100
0010
0001
0100
0010
1000
0001
,
0010
0001
0100
0010
,
1000
0001
0010
0100
,
1000
0000
0010
0000
1000
0100
0010
0000
,
0001
0000
0010
0000
0001
0100
0010
0000
,
1000
0000
0001
0000
0100
0010
0100
0000
,
0001
0000
1000
0000
0100
0010
0001
1000
,
0010
0000
1000
0000
0001
0100
0001
0000
,
0010
0000
0001
0000
1000
0100
1000
0000
,
0010
0000
1000
0000
0001
1000
0001
0000
,
0010
0000
0100
0000
0010
0000
0001
0010
,
0100
1000
0100
0000
1000
0010
1000
0000
,
0010
0100
0001
0000
0010
0001
1000
0000
,
0001
0010
0001
0000
0100
0001
0100
0000
,
0010
1000
0001
0000
0100
0010
1000
0000
,
0001
1000
0001
0000
1000
0100
0010
0000
,
0001
0100
0010
0000
1000
0001
0100
0000
,
0010
1000
0010
1000
0010
0000
0000
0000
,
0100
0001
0100
0001
0100
0000
0000
0000
,
0001
0010
0001
0010
0100
0000
0100
1000
,
0010
0000
1000
0001
0000
0001
1000
0000
;
