#VERSION:0.83;
#TITLE:Overdoze;
#SUBTITLE:;
#ARTIST:Bad Surfer;
#TITLETRANSLIT:;
#SUBTITLETRANSLIT:;
#ARTISTTRANSLIT:;
#GENRE:;
#ORIGIN:;
#CREDIT:;
#BANNER:;
#BACKGROUND:;
#PREVIEWVID:;
#JACKET:;
#CDIMAGE:;
#DISCIMAGE:;
#LYRICSPATH:;
#CDTITLE:cdtitle.png;
#MUSIC:overdoze.ogg;
#OFFSET:0.000000;
#SAMPLESTART:17.454546;
#SAMPLELENGTH:17.454546;
#SELECTABLE:YES;
#BPMS:0.000=110.000;
#STOPS:;
#DELAYS:;
#WARPS:;
#TIMESIGNATURES:0.000=4=4;
#TICKCOUNTS:0.000=4;
#COMBOS:0.000=1;
#SPEEDS:0.000=1.000=0.000=0;
#SCROLLS:0.000=1.000;
#FAKES:;
#LABELS:0.000=Song Start;
#BGCHANGES:;
#KEYSOUNDS:;
#ATTACKS:
;

//---------------dance-single - ----------------
#NOTEDATA:;
#CHARTNAME:;
#STEPSTYPE:dance-single;
#DESCRIPTION:;
#CHARTSTYLE:;
#DIFFICULTY:Hard;
#METER:14;
#RADARVALUES:0.730580,0.795052,0.064328,0.192983,1.005122,636.000000,628.000000,8.000000,24.000000,0.000000,0.000000,0.000000,0.000000,0.000000,0.730580,0.795052,0.064328,0.192983,1.005122,636.000000,628.000000,8.000000,24.000000,0.000000,0.000000,0.000000,0.000000,0.000000;
#CREDIT:;
#OFFSET:0.000000;
#BPMS:0.000000=110.000000
;
#STOPS:;
#DELAYS:;
#WARPS:;
#TIMESIGNATURES:0.000000=4=4
;
#TICKCOUNTS:0.000000=4
;
#COMBOS:0.000000=1
;
#SPEEDS:0.000000=1.000000=0.000000=0
,66.000000=0.900000=0.500000=0
,66.500000=1.000000=0.500000=0
,67.000000=0.900000=0.500000=0
,67.500000=1.000000=0.500000=0
,70.000000=0.900000=0.500000=0
,70.500000=1.000000=0.500000=0
,71.000000=0.900000=0.500000=0
,71.500000=1.000000=0.500000=0
,72.000000=100.000000=0.000000=0
,72.083336=1.000000=0.000000=0
,72.500000=100.000000=0.000000=0
,72.583336=1.000000=0.000000=0
,74.000000=0.900000=0.500000=0
,74.500000=1.000000=0.500000=0
,75.000000=0.900000=0.500000=0
,75.500000=1.000000=0.500000=0
,82.000000=0.900000=0.500000=0
,82.500000=1.000000=0.500000=0
,83.000000=0.900000=0.500000=0
,83.500000=1.000000=0.500000=0
,86.000000=0.900000=0.500000=0
,86.500000=1.000000=0.500000=0
,87.000000=0.900000=0.500000=0
,87.500000=1.000000=0.500000=0
,88.000000=100.000000=0.000000=0
,88.083336=1.000000=0.000000=0
,88.500000=100.000000=0.000000=0
,88.583336=1.000000=0.000000=0
,90.000000=0.900000=0.500000=0
,90.500000=1.000000=0.500000=0
,91.000000=0.900000=0.500000=0
,91.500000=1.000000=0.500000=0
,223.000000=0.010000=3.000000=0
;
#SCROLLS:0.000000=1.000000
,31.000000=0.900000
,31.250000=0.700000
,31.500000=0.500000
,31.750000=0.300000
,32.000000=1.000000
,159.000000=0.900000
,159.250000=0.700000
,159.500000=0.500000
,159.750000=0.300000
,160.000000=1.000000
;
#FAKES:;
#LABELS:0.000000=Song Start
;
#NOTES:
// measure 0
0000
0000
0000
0000
,  // measure 1
0000
0000
0000
0000
,  // measure 2
0000
0000
0000
0000
,  // measure 3
0000
0000
0000
0000
,  // measure 4
1000
0000
0001
0100
0000
0001
1000
0000
0001
0100
0000
0001
1000
0000
0001
0100
0000
0001
1000
0000
0001
0100
0000
0001
,  // measure 5
1000
0000
1000
0100
0000
1000
0001
0000
1000
0100
0000
1000
0001
0000
1000
0100
0000
1000
0001
0000
1000
0100
0000
1000
,  // measure 6
0001
0000
0001
0010
0000
0001
1000
0000
0001
0010
0000
0001
1000
0000
0001
0010
0000
0001
1000
0000
0001
0010
0000
0001
,  // measure 7
1000
0000
0000
0000
1000
0000
0010
0000
0000
0000
1000
0000
0001
0000
0000
0000
1000
0000
0010
0000
0000
0000
0000
0000
1000
0000
0000
0100
0000
0000
1000
0000
0000
0100
0000
0000
0020
0000
0000
0000
0000
0000
0000
0000
0000
0000
0000
0000
,  // measure 8
0130
1000
0100
0010
0001
0001
1000
1000
,  // measure 9
0010
0000
0000
0100
0000
0000
0010
0000
0000
1000
0000
0000
0002
0000
0000
0000
0000
0000
2003
0000
0000
3000
0000
0001
,  // measure 10
1000
0100
0010
0100
1000
1000
0010
0000
,  // measure 11
0100
0000
0000
0010
0000
0000
0000
0000
0000
0100
0000
0000
0020
0000
0000
0000
0030
0100
0020
0000
0000
0000
0030
0100
,  // measure 12
0010
1000
0001
0010
1000
0000
0010
0010
,  // measure 13
0001
0000
0000
0100
0000
0000
0010
0000
0000
0010
0000
0000
0200
0000
0000
0000
0000
0000
0310
0000
0000
0000
0000
0100
,  // measure 14
0001
0100
0010
0010
1000
0000
1000
0000
,  // measure 15
0100
0000
0000
0100
0000
0000
0100
0000
0000
0001
0000
0000
0100
0000
0000
0010
0000
0010
0001
0000
0000
0001
0000
0000
,  // measure 16
0100
0001
0100
0001
0100
0000
0010
0000
0100
0000
0001
0000
0100
0000
0010
0000
,  // measure 17
1000
0000
0000
0100
0000
0000
1000
0000
0000
0000
0000
0000
0010
0000
0000
0000
0000
0000
0200
0000
0000
0000
0000
0000
0310
0000
0000
0000
0000
0000
0100
0000
0000
0000
0010
0000
0100
0000
0000
0000
0000
0000
0001
0000
0000
0000
0000
0000
,  // measure 18
2000
3000
0000
2000
3000
0000
0100
0000
0000
1000
0000
0000
0001
0000
0000
0100
0000
0000
0001
0000
0000
0010
0000
0000
,  // measure 19
0100
0000
0000
0010
0000
0000
0100
0000
0000
0010
0000
0000
0100
0000
0000
0000
0000
0000
0010
0000
0000
0000
0000
0000
0001
0000
0000
0000
0000
0000
0001
0000
0010
0000
0100
0000
1000
0000
0000
0000
0000
0000
1000
0000
0010
0000
0100
0000
,  // measure 20
0001
0100
0001
0000
1000
0000
0010
0000
0100
0000
0010
0000
0100
0000
0001
0000
,  // measure 21
1000
0000
0000
0100
0000
0000
0010
0000
0000
0100
0000
0000
1000
0000
0000
0000
0000
0000
0001
0000
0000
0000
0000
0000
0010
0000
0000
0000
0000
0000
0100
0000
0000
0000
0010
0000
0100
0000
0000
0000
0000
0000
1000
0000
0000
0000
1000
0000
,  // measure 22
0002
0003
0000
0002
0003
0000
0100
0000
0000
0010
0000
0000
1000
0000
0000
0001
0000
0000
1000
0000
0000
0010
0000
0000
,  // measure 23
1000
0000
0000
0001
0000
0000
0100
0000
0000
0001
0000
0000
2000
0000
0000
0000
0000
0000
0000
0000
0000
0000
0000
0000
3200
0000
0000
0000
0000
0000
0000
0000
0000
0000
1300
0000
0100
0000
0000
0000
0000
0000
1000
0000
0000
0000
0000
0000
,  // measure 24
0001
0000
1000
0100
0000
1000
0001
0000
1000
0100
0000
1000
0001
0000
1000
0100
0000
1000
0001
0000
1000
0100
0000
1000
,  // measure 25
0010
0000
1000
0100
0000
1000
0010
0000
1000
0100
0000
1000
0010
0000
1000
0100
0000
1000
0010
0000
1000
0100
0000
1000
,  // measure 26
0001
0000
0001
0100
0000
0001
1000
0000
0001
0100
0000
0001
1000
0000
0001
0100
0000
0001
1000
0000
0001
0100
0000
0001
,  // measure 27
0010
0000
0001
0100
0000
0001
0010
0000
0001
0100
0000
0001
0010
0000
0001
0100
0000
0001
0010
0000
0001
0100
0000
0001
,  // measure 28
0100
0000
0010
0100
0000
0001
0100
0000
0010
0100
0000
0001
0100
0000
0010
0100
0000
0001
0100
0000
0010
0100
0000
0001
,  // measure 29
1000
0000
0001
0010
0000
0001
1000
0000
0001
0010
0000
0001
1000
0000
0001
0010
0000
0001
1000
0000
0001
0010
0000
0001
,  // measure 30
0010
0000
0100
0010
0000
0001
0010
0000
0100
0010
0000
0001
0010
0000
0100
0010
0000
0001
0010
0000
0100
0010
0000
0001
,  // measure 31
1000
0000
0010
1000
0000
0001
1000
0000
0010
1000
0000
0001
1000
0000
0010
1000
0000
0001
1000
0000
0010
1000
0000
0001
,  // measure 32
0010
0000
0010
0100
0000
0100
0010
0000
0010
0001
0000
0001
0010
0000
0010
0100
0000
0100
0010
0000
0010
0001
0000
0001
,  // measure 33
1000
0000
1000
0001
0000
0001
0010
0000
0010
0001
0000
0001
1000
0000
1000
0001
0000
0001
1000
0000
1000
0001
0000
0001
,  // measure 34
0100
0000
0100
1000
0000
1000
0100
0000
0100
1000
0000
1000
0100
0000
0100
0010
0000
0010
0100
0000
0100
0010
0000
0010
,  // measure 35
1000
0000
1000
0001
0000
0001
0010
0000
0010
0001
0000
0001
0010
0000
0010
0100
0000
0100
1000
0000
1000
0100
0000
0100
,  // measure 36
1000
0000
0000
1000
0000
0000
0001
0000
1000
0001
0000
0001
0100
0000
0000
0100
0000
0000
0010
0000
0100
0010
0000
0100
,  // measure 37
0001
0000
0000
0001
0000
0000
0100
0000
0010
0100
0000
0010
1000
0000
0000
1000
0000
0000
0001
0000
1000
0001
0000
0001
,  // measure 38
0010
0000
0000
0010
0000
0000
0100
0000
0010
0100
0000
1000
0100
0000
0010
0100
0000
0010
0001
0000
0001
0100
0000
0100
,  // measure 39
0001
0000
0100
0000
0010
0000
0100
0000
0001
0000
0100
0000
0010
0000
1000
0000
0100
0000
0010
0000
0100
0000
1000
0000
0100
0000
0000
0010
0000
0000
0100
0000
0000
0010
0000
0000
0200
0000
0000
0000
0000
0000
0000
0000
0000
0300
0000
0000
,  // measure 40
0120
0000
0000
0000
0130
0000
0100
0010
0000
0100
0010
0000
0001
0000
0000
0000
,  // measure 41
0102
0000
0000
0000
0103
0000
0010
0100
0000
0010
0100
0000
0010
0000
0000
0000
,  // measure 42
1020
0000
0000
0000
1030
0000
0001
0010
0000
0001
0010
0000
0100
0000
0000
0000
,  // measure 43
0120
0000
0000
0000
0031
0000
0001
0100
0000
0001
0100
0000
0020
0000
1030
0000
,  // measure 44
2010
0000
0000
0000
3100
0000
0001
0100
0000
1000
0100
0000
0010
0000
0000
0000
,  // measure 45
0012
0000
0000
0000
0103
0000
1000
0100
0000
0001
0100
0000
0010
0000
0000
0000
,  // measure 46
1020
0000
0000
0000
0130
0000
0010
1000
0000
0010
0001
0000
1000
0000
0000
0000
,  // measure 47
0201
0000
0000
0000
0310
0000
1000
0100
0000
0001
0100
0000
0010
0000
0100
0000
,  // measure 48
1000
0100
1000
0100
0010
0001
0010
0001
0100
0001
0100
0001
1000
0001
1000
0001
,  // measure 49
0100
0010
0100
0010
1000
0001
1000
0001
0010
0100
0010
0100
1000
0001
1000
0001
,  // measure 50
0100
0010
0100
0001
0100
0010
1000
0010
0100
0001
0010
0100
0010
0001
1000
0100
,  // measure 51
1000
0100
0010
0001
0010
0100
1000
0010
0100
0001
0100
0010
1000
0100
1000
0010
,  // measure 52
0100
0001
0100
0010
0001
0010
0100
0001
0010
0100
1000
0010
0100
1000
0100
0010
,  // measure 53
1000
0100
0010
1000
0010
0100
1000
0001
0010
0100
0001
0100
0010
0001
1000
0010
,  // measure 54
0100
1000
0100
0010
1000
0001
0100
0010
0001
0010
0100
0001
0010
0100
0001
0100
,  // measure 55
1000
0001
0010
1000
0010
0100
1000
0010
0001
0010
0100
0001
2000
0000
0000
0000
,  // measure 56
0000
0000
3000
0000
;
