#TITLE:OVERBLAST!! -Studio Bongo Mango 'Whisper Love' Mix-;
#SUBTITLE:;
#ARTIST:L.E.D. LIGHT Remixed by Togo-chef feat. Mayuki;
#TITLETRANSLIT:;
#SUBTITLETRANSLIT:;
#ARTISTTRANSLIT:;
#GENRE:;
#CREDIT:Graphics made by TonyAkita;
#MUSIC:[Week 2] - OVERBLAST!! -Studio Bongo Mango 'Whisper Love' Mix-.ogg;
#BANNER:[Week 2] - OVERBLAST!! -Studio Bongo Mango 'Whisper Love' Mix-.png;
#BACKGROUND:[Week 2] - OVERBLAST!! -Studio Bongo Mango 'Whisper Love' Mix--bg.png;
#CDTITLE:;
#SAMPLESTART:75.322;
#SAMPLELENGTH:15.000;
#SELECTABLE:YES;
#OFFSET:1.085;
#BPMS:0.000=135.000;
#STOPS:;
#JACKET:[Week 2] - OVERBLAST!! -Studio Bongo Mango 'Whisper Love' Mix--jacket.png;
#BGCHANGES:;
#FGCHANGES:;

//--------------- dance-single - forcednature ----------------
#NOTES:
     dance-single:
     forcednature:
     Beginner:
     2:
     0,0,0,0,0:
0000
0000
0000
0000
,
0000
0000
0000
0000
,
0000
0000
0000
0000
,
0000
0000
0000
0000
,
0000
0000
0000
0000
,
0010
0000
0000
0000
,
0100
0000
0000
0000
,
0100
0000
0000
0000
,
0010
0000
0000
0000
,
0100
0000
0000
0000
,
0020
0000
0030
0000
,
0100
0000
0000
0000
,
0020
0000
0030
0000
,
0100
0000
0000
0000
,
0020
0000
0030
0000
,
0100
0000
0000
0000
,
0100
0000
0000
0000
,
0001
0000
0000
0000
,
1001
0000
0000
0000
,
1000
0000
0000
0000
,
1001
0000
0000
0000
,
0001
0000
0000
0000
,
1001
0000
0000
0000
,
1000
0000
0000
0000
,
0010
0000
0000
0000
,
0100
0000
0100
0000
,
0100
0000
0100
0000
,
0010
0000
0000
0000
,
1000
0000
0000
0000
,
0001
0000
0000
0000
,
0100
0000
0000
0000
,
0001
0000
0000
0000
,
0010
0000
0000
0000
,
0100
0000
0000
0000
,
1000
0000
0000
0000
,
0010
0000
0000
0000
,
1000
0000
0000
0000
,
0001
0000
0000
0000
,
0100
0000
0000
0000
,
0001
0000
0000
0000
,
0010
0000
0000
0000
,
0100
0000
0000
0000
,
1000
0000
0000
0000
,
0010
0000
0000
0000
,
0100
0000
0000
0000
,
0010
0000
0000
0000
,
0100
0000
0000
0000
,
0001
0000
0000
0000
,
1000
0000
0000
0000
,
0001
0000
0000
0000
,
1000
0000
0000
0000
,
0100
0000
0000
0000
,
0010
0000
0000
0000
,
0100
0000
0000
0000
,
0010
0000
0000
0000
,
0100
0000
0000
0000
,
0010
0000
0000
0000
,
0100
0000
0000
0000
,
0010
0000
0000
0000
,
0001
0000
0000
0000
,
1000
0000
0000
0000
,
0001
0000
0000
0000
,
1000
0000
0000
0000
,
0010
0000
0000
0000
,
0100
0000
0000
0000
,
0010
0000
0000
0000
,
0100
0000
0000
0000
,
0010
0000
0000
0000
;

//--------------- dance-single - forcednature ----------------
#NOTES:
     dance-single:
     forcednature:
     Easy:
     5:
     0,0,0,0,0:
0000
0000
0000
0000
,
0000
0000
0000
0000
,
0000
0000
0000
0000
,
0000
0000
0000
0000
,
0000
0000
0000
0000
,
1001
1000
0000
0001
,
0000
0100
0000
0010
,
0000
1000
0000
0100
,
0000
0010
0000
0000
,
0110
0100
0000
1000
,
1001
0000
0000
0000
,
0110
0010
0000
0001
,
1001
0000
0000
0000
,
1100
0100
0000
0100
,
0101
0100
0000
0100
,
0110
0010
0000
0010
,
1010
0010
0000
0010
,
0011
0001
0000
0100
,
0110
0000
0000
0000
,
1100
1000
0000
0010
,
0110
0000
0000
0000
,
0011
0001
0000
1000
,
1010
0000
0000
0000
,
0110
0100
0100
0000
,
0110
0010
0010
0000
,
1000
0001
1000
0001
,
1000
0001
1000
0000
,
2100
0100
3100
0000
,
0102
0100
0103
0000
,
0210
0010
0310
0000
,
1002
1000
1003
0000
,
2010
0010
3100
0000
,
0102
0100
0013
0000
,
2100
0100
3001
0000
,
0102
0100
1003
0000
,
0120
1000
0031
0000
,
0210
1000
0301
0000
,
2001
0010
3100
0000
,
1002
0010
0103
0000
,
0210
1000
0301
0000
,
0120
1000
0031
0000
,
2001
0010
3100
0000
,
0100
0100
0100
0100
,
0001
0010
0100
1000
,
0010
0000
0000
0010
0000
0000
0000
0000
,
1000
0010
0100
0001
,
0010
0000
0000
0010
0000
0000
0000
0000
,
0100
1000
0001
0100
,
0010
0000
0000
0010
0000
0000
0000
0000
,
0100
0001
1000
0100
,
0010
0010
0010
0010
,
0001
1000
0010
0100
,
0001
0000
0000
0001
0000
0000
0000
0000
,
1000
0010
1000
0100
,
1000
0000
0000
1000
0000
0000
0000
0000
,
0100
1000
0001
0100
,
0010
0000
0000
0010
0000
0000
0000
0000
,
0100
0001
1000
0010
,
0100
0001
1000
0010
,
0000
1000
0100
1000
,
0000
0001
0100
0001
,
0000
1000
0010
1000
,
0010
0100
0010
0000
,
0000
1000
0100
1000
,
0000
0001
0100
0001
,
0000
1000
0100
1000
,
0001
0100
0010
1000
,
1001
0000
0000
0000
;

//--------------- dance-single - forcednature ----------------
#NOTES:
     dance-single:
     forcednature:
     Medium:
     7:
     0,0,0,0,0:
0000
0000
0000
0000
,
0000
0000
0000
0000
,
0000
0000
0000
0000
,
0000
0000
0000
0000
,
0000
0000
0000
0000
,
1000
0100
1000
0010
,
1000
0100
0001
0100
,
1000
0001
0100
1000
,
0100
0001
1000
0000
,
0001
0010
0100
1000
,
1010
0000
0000
0000
,
1000
0001
0100
0010
,
0110
0000
0000
0000
,
0001
0010
0001
0100
,
0101
0001
1000
0100
,
0110
0010
0001
1000
,
1001
1000
0010
0100
,
0110
0100
0001
0010
,
0001
0000
0000
1001
0000
0000
0000
0000
,
1000
0010
1000
0100
,
1000
0000
0000
1001
0000
0000
0000
0000
,
0100
0001
1000
0010
,
0100
0000
0000
0110
0000
0000
0000
0000
,
0110
0010
1000
0001
,
1001
1000
0100
0001
,
0110
0001
0110
1000
,
1001
1001
1001
0100
,
0002
0100
1000
0013
,
0200
1000
0010
0301
,
2000
0010
0001
3100
,
0020
0000
1000
0000
0001
0001
0031
0000
,
0200
1000
0001
0310
,
2000
0100
0001
3100
,
0002
0010
1000
0103
,
0200
0000
1000
0000
0010
0010
0310
0000
,
1002
0100
1000
0013
,
0010
0000
0000
0110
0000
0000
0000
0000
,
2100
0001
0010
3001
,
1000
0000
0000
1001
0000
0000
0000
0000
,
0120
1000
0100
0031
,
0001
0000
0000
1001
0000
0000
0000
0000
,
1020
0100
0001
1030
,
0010
0000
0010
0000
0010
0100
0010
0000
,
1000
0100
1000
0000
0001
0000
1000
0000
,
0010
0000
0000
1001
0000
0000
0100
0000
,
0001
0010
0001
0000
1000
0000
0010
0000
,
1000
0000
0000
0110
0000
0000
0001
0000
,
1000
0100
1000
0000
0001
0000
1000
0000
,
0010
0000
0000
1001
0000
0000
0100
0000
,
0001
0010
0001
0000
1000
0000
0010
0000
,
0100
0110
0100
0110
,
0001
0100
1000
0000
0100
0000
0010
0000
,
1100
0000
0000
1001
0000
0000
0100
0000
,
0001
0010
0100
0000
1000
0000
0010
0000
,
0110
0000
0000
1001
0000
0000
0100
0000
,
0001
0010
1000
0000
0010
0000
0100
0000
,
1001
0000
0000
0110
0000
0000
1000
0000
,
0001
0100
0001
0000
1000
0000
0100
0000
,
1100
1000
0101
0001
,
0000
1000
0100
1000
0100
0000
0010
0000
,
0000
0001
0100
0001
0100
0000
0010
0000
,
0000
1000
0001
1000
0001
0000
0010
0000
,
0100
0000
0010
0100
0000
0010
0000
0000
,
0000
0100
1000
0001
0100
0000
0010
0000
,
0000
0100
0001
1000
0100
0000
0010
0000
,
0000
0100
1000
0001
0100
0000
0010
0000
,
0100
0001
0100
1000
,
0100
0000
0000
0000
;

//--------------- dance-single - forcednature ----------------
#NOTES:
     dance-single:
     forcednature:
     Hard:
     11:
     0,0,0,0,0:
0000
0000
0000
0000
,
0000
0000
0000
0000
,
0000
0000
0000
0000
,
0000
0000
0000
0000
,
0000
0000
0000
0000
0000
1000
0100
0001
,
0100
0000
0000
0010
0000
0000
0100
0000
0000
1000
0000
0000
0010
0000
0100
0000
,
0001
0000
0000
0100
0000
0000
1000
0000
0000
0100
0000
0000
0010
0000
1000
0000
,
0100
0000
0000
0100
0000
0000
0010
0000
0100
0000
0000
0100
0000
0000
0010
0000
,
0100
0000
0000
0100
0000
0000
0010
0000
0001
0000
1000
0000
0010
0000
0100
0000
,
0001
0000
0000
1000
0000
0000
0010
0000
0000
1000
0000
0000
0100
0000
0001
0000
,
0110
0000
0000
0000
0000
0010
0001
1000
,
0010
0000
0000
0100
0000
0000
1000
0000
0000
0001
0000
0000
0010
0000
0100
0000
,
1001
0000
0000
0000
0000
1000
0100
0001
,
0100
0000
0000
1000
0000
0000
0010
0000
0000
0100
0000
0000
1000
0000
0100
0000
,
0010
0000
0000
1000
0000
0000
0100
0000
0000
0001
0000
0000
0100
0000
0010
0000
,
1001
0000
0000
0001
0000
0000
0100
0000
0000
0010
0000
0000
0001
0000
0010
0000
,
0110
0000
0000
0001
0000
0000
0010
0000
0100
0000
1000
0000
0001
0000
0100
0000
,
0010
0000
0000
1000
0000
0000
0100
0000
0000
0001
0000
0000
0100
0000
0010
0000
,
0110
0000
0000
1001
0000
1000
0100
0001
,
0100
0000
0000
1000
0000
0000
0010
0000
0000
0100
0000
0000
0001
0000
0010
0000
,
1001
0000
0000
0110
0000
0001
0100
1000
,
0100
0000
0000
0010
0000
0000
1000
0000
0000
0010
0000
0000
0100
0000
1000
0000
,
1100
0000
0000
0010
0000
0000
0101
0000
0000
0010
0000
0000
0001
0000
0000
0000
,
1001
0000
0000
1000
0000
0000
0001
0000
0000
0100
0000
0000
0010
0000
1000
0000
,
0110
0000
0000
0001
0000
0000
1000
0000
0000
0010
0000
0000
1000
0000
0100
0000
,
0110
0000
0000
0010
0000
0000
0001
0000
1001
0000
0000
1000
0000
0000
0010
0000
,
0100
0001
0100
1000
0100
0010
1000
0100
,
0210
0001
0001
0000
1000
0300
0110
0000
,
2100
0001
0010
0000
0100
3000
1001
0000
,
0120
1000
0100
0000
0001
0030
0110
0000
,
0102
1000
0100
0000
0010
0003
1001
0000
,
1020
1000
0001
0000
0100
0030
0110
0000
,
2001
0100
0010
0000
0100
3000
1001
0000
,
0021
0001
1000
0000
0100
0030
0011
0000
,
0210
1000
0010
0000
0001
0300
1100
0000
,
1001
0001
0100
1000
0100
0001
0010
0000
,
0210
1300
0001
0120
0030
1000
0001
0000
,
1010
0100
0001
1000
0010
0100
1000
0000
,
0120
1030
0001
0210
0300
0001
1000
0000
,
0101
0100
0010
1000
0100
0001
0100
0000
,
0210
0301
1000
0120
0030
1000
0010
0000
,
1001
0100
1000
0010
0100
0001
0010
0001
,
1000
0000
0010
0000
0100
0000
1000
0000
0100
0000
0010
0000
0000
1000
0000
0000
,
0001
1000
0100
0010
1000
0010
0001
0000
,
2001
3100
0100
1002
0003
0010
1001
0000
,
1000
0010
0100
1000
0001
0010
0100
0000
,
0120
0031
0001
0210
0300
1000
0110
0000
,
1000
0010
1000
0100
0001
0100
0010
0000
,
2001
3100
0100
1002
0003
0010
1001
0000
,
0001
0100
0010
0001
0010
0100
0001
0000
,
0110
0101
0110
1100
,
0010
1000
0100
0010
0001
0100
0010
0000
,
1002
0103
0010
2001
3000
0100
0010
0000
,
1000
0100
0001
0100
1000
0010
0100
0000
,
0210
0301
1000
0120
0030
0001
1000
0000
,
0001
0010
1000
0010
0100
1000
0001
0000
,
2001
3100
1000
0201
0300
0010
1001
0000
,
1000
0100
0001
0100
0010
0001
1000
0010
,
0100
1000
0001
0010
0100
0001
1000
0100
,
0010
0001
1000
0010
0120
0030
1000
0001
,
1000
0100
0001
0100
0210
0300
0010
0001
,
1000
0010
0100
0001
1002
0003
1000
0100
,
0001
0100
1000
0001
0100
1000
0000
0000
,
0110
0100
0001
1000
2100
3000
0010
0001
,
1001
1000
0010
0100
1200
0300
0001
0010
,
0110
0010
1000
0001
2001
3000
0100
0010
,
1010
0110
0101
1001
,
0010
0000
0000
0000
;

//--------------- dance-single - forcednature ----------------
#NOTES:
     dance-single:
     forcednature:
     Challenge:
     13:
     0,0,0,0,0:
0000
0000
0000
0000
,
0000
0000
0000
0000
,
0000
0000
0000
0000
,
0000
0000
0000
0000
,
0000
0000
0000
0000
0000
0001
0100
0010
,
1000
0000
0000
1000
0100
0000
1000
0000
0001
0100
0000
0000
0010
0000
1000
0000
,
0001
0000
0000
0010
0001
0000
1000
0000
0010
0100
0000
0000
0001
0000
1000
0000
,
0100
0000
0000
0100
0010
0000
0001
0000
0100
0000
0000
0100
0010
0000
1000
0000
,
0100
0000
0000
0100
0010
0000
0001
0000
0100
0000
0010
0000
1000
0000
0001
0000
,
1000
0000
0000
1000
0100
0000
0010
0000
0001
0100
0000
0000
0010
0000
1000
0000
,
1001
0000
0000
0000
0000
1000
0010
0100
,
0001
0000
0000
0001
0010
0000
0100
0000
1000
0010
0000
0000
0100
0000
0001
0000
,
1001
0000
0000
0000
0000
1000
0100
1000
,
0010
0000
0000
0100
0001
0000
0010
0000
0100
1000
0000
0000
0010
0000
0100
0000
,
0101
0000
0000
0001
0010
0000
0100
0000
1000
0010
0000
0000
1000
0000
0100
0000
,
1001
0000
0000
1000
0010
0000
0100
0000
0001
0010
0000
0000
0001
0000
1000
0000
,
1010
0000
0000
1000
0010
0000
0100
0000
0001
0000
0010
0000
0100
1000
0000
0001
,
0010
0000
0100
1000
0000
0001
0100
0000
0010
1000
0000
0001
0010
0001
0000
1000
,
0200
0300
0000
2002
3003
1000
0010
0100
,
0001
0000
1000
0100
0000
1000
0001
0000
0100
0001
0000
1000
0010
0000
1000
0001
,
0020
0030
0000
2002
3003
1000
0001
0100
,
0010
0000
1000
0100
0000
0010
0100
0000
1000
0001
0000
0100
0010
0000
1000
0100
,
1000
0000
0001
0100
0000
0010
1000
0000
0001
0010
0000
0100
1000
0000
0000
0000
,
1001
0000
0001
0100
0000
0010
1000
0000
0100
0010
0000
0001
0100
0000
0010
1000
,
0010
0000
1000
0100
0000
1000
0001
0000
0100
0010
0000
1000
0001
0000
0010
0001
,
0010
0000
0100
1000
0000
0001
0100
0000
0010
0000
1000
0001
0000
0010
0001
0000
,
1000
0001
1000
0001
1000
0001
1000
0001
1000
0001
1000
0000
0100
0000
0010
0000
,
0011
0001
1000
0001
0100
0010
1100
0000
,
1001
1000
0010
0001
0010
1000
0110
0000
,
0101
0001
0010
1000
0010
0100
1100
0000
,
1100
0000
1000
0000
0000
0010
0000
0000
0100
0000
0000
0001
0000
0000
0010
0000
,
0110
0100
1000
0001
0100
0010
1001
0000
,
0011
0001
1000
0100
0001
0100
1100
0000
,
0110
0010
1000
0010
0001
0010
0110
0000
,
1001
1000
0100
0010
0001
0100
1000
0100
,
0110
0100
0001
0010
1000
0010
0110
0000
,
0220
0330
0000
2002
3003
1000
0010
0100
,
0101
1000
0100
0001
1000
0010
0001
0000
,
2002
3003
0000
0220
0330
0001
0100
0010
,
0110
0010
1000
0100
0001
0100
0010
0000
,
2002
3003
0000
0220
0330
0001
1000
0001
,
0110
1000
0100
0010
0100
1000
0010
0000
,
1000
0001
1000
0001
1000
0000
0000
0000
0010
0000
0101
0000
0000
1100
0000
0000
,
1001
0000
1000
0000
0000
0100
0000
0000
0210
0000
0000
0000
0301
0000
0000
0000
,
0220
0330
0000
2002
3003
0001
0101
0000
,
1001
0000
1000
0000
0000
0100
0000
0000
0201
0000
0000
0000
1300
0000
0000
0000
,
0220
0000
0330
0000
0000
0000
2002
0000
3003
0000
1100
0000
0000
0011
0000
0000
,
1010
0000
0010
0000
0000
0100
0000
0000
0201
0000
0000
0000
1300
0000
0000
0000
,
0220
0330
0000
2002
3003
1000
1100
0000
,
0110
0000
0001
0000
0000
0010
0000
0000
1020
0000
0000
0000
0031
0000
0000
0000
,
0101
1100
1010
0011
,
1001
0000
1000
0000
0000
0010
0000
0000
0201
0000
0000
0000
1300
0000
0000
0000
,
2002
3003
0000
0220
0330
1000
1001
0000
,
0110
0000
0001
0000
0000
0010
0000
0000
1200
0000
0000
0000
0301
0000
0000
0000
,
0220
0000
0330
0000
0000
0000
2002
0000
3003
0000
1100
0000
0000
0101
0000
0000
,
1010
0000
0100
0000
0000
0001
0000
0000
1020
0000
0000
0000
0031
0000
0000
0000
,
0220
0330
0000
2002
3003
1000
1010
0000
,
0001
0100
1000
0100
0001
1000
0010
0001
,
0010
0000
1000
0000
0001
0000
0010
0000
0100
0000
0110
0000
0000
1001
0000
0000
,
0101
0001
0010
1000
1010
0000
0100
1000
,
0110
1000
0010
0001
0110
0000
0001
1000
,
1100
1000
0001
0100
1001
0000
1000
0100
,
0010
0001
0000
0000
0100
0000
0010
1000
0000
0000
0100
0000
0000
0000
0000
0000
,
0011
1000
0001
0100
0110
0000
1000
0001
,
1100
0001
0100
0010
1001
0000
0001
0100
,
0110
0010
1000
0100
0110
0000
1001
0000
,
1010
0110
0101
1001
,
0110
0000
0000
0000
;

//--------------- dance-double - forcednature ----------------
#NOTES:
     dance-double:
     forcednature:
     Easy:
     5:
     0,0,0,0,0:
00000000
00000000
00000000
00000000
,
00000000
00000000
00000000
00000000
,
00000000
00000000
00000000
00000000
,
00000000
00000000
00000000
00000000
,
00000000
00000000
00000000
00000000
,
00010000
01000000
00000000
00010000
,
01000000
00010000
00000000
00010000
,
00001000
00000100
00000000
00001000
,
00000100
00001000
00000000
00000000
,
00010000
01000000
00010000
01000000
,
00200000
00000000
00300000
00000000
,
00001000
00000100
00001000
00000100
,
00000020
00000000
00000030
00000000
,
00000001
00000010
00000001
00000010
,
00000200
00000000
00000300
00000000
,
00001000
00010000
00001000
00010000
,
00200000
00000000
00300000
00000000
,
10000000
01000000
10000000
01000000
,
00020000
00000000
00030000
00000000
,
00010000
01000000
00010000
01000000
,
00002000
00000000
00003000
00000000
,
00000100
00001000
00000100
00001000
,
00000020
00000000
00000030
00000000
,
00001001
00000001
00000100
00000000
,
00001001
00001000
00000100
00000000
,
00010000
00001000
00010000
00001000
,
00010000
00001000
00010000
00000000
,
02200000
00000000
03300000
00000000
,
20020000
00000000
30030000
00000000
,
02200000
00000000
03300000
00000000
,
00022000
00000000
00033000
00000000
,
00000220
00000000
00000330
00000000
,
00002002
00000000
00003003
00000000
,
00000220
00000000
00000330
00000000
,
00022000
00000000
00033000
00000000
,
02100000
00100000
03100000
00000000
,
10020000
10000000
10030000
00000000
,
02100000
00100000
03100000
00000000
,
00012000
00010000
00013000
00000000
,
00000120
00000100
00000130
00000000
,
00002001
00000001
00003001
00000000
,
00000210
00000010
00000310
00000000
,
00012000
00010000
00013000
00000000
,
00010000
01000000
00010000
00000000
,
01000000
00000000
00000000
01000000
00000000
00000000
00000000
00000000
,
10000000
00100000
10000000
00000000
,
01000000
00000000
00000000
01000000
00000000
00000000
00000000
00000000
,
00100000
00010000
00100000
00000000
,
00001000
00000000
00000000
00001000
00000000
00000000
00000000
00000000
,
00010000
00000010
00010000
00000000
,
00000100
00000100
00000100
00000000
,
00000010
00000001
00000010
00000000
,
00000100
00000000
00000000
00000100
00000000
00000000
00000000
00000000
,
00010000
00001000
00010000
00000000
,
01000000
00000000
00000000
01000000
00000000
00000000
00000000
00000000
,
10000000
00100000
10000000
00000000
,
00010000
00000000
00000000
00010000
00000000
00000000
00000000
00000000
,
00100000
00001000
00100000
00001000
,
01000000
00010000
01000000
00010000
,
00000000
00100000
00010000
00001000
,
00000000
00000010
00001000
00010000
,
00000000
00100000
00010000
00001000
,
00000000
00000010
00001000
00010000
,
00000000
01000000
00010000
00001000
,
00000000
00000100
00001000
00010000
,
00000000
01000000
00010000
00001000
,
00000100
00001000
00010000
00001000
,
00000010
00000000
00000000
00000000
;

//--------------- dance-double - forcednature ----------------
#NOTES:
     dance-double:
     forcednature:
     Medium:
     7:
     0,0,0,0,0:
00000000
00000000
00000000
00000000
,
00000000
00000000
00000000
00000000
,
00000000
00000000
00000000
00000000
,
00000000
00000000
00000000
00000000
,
00000000
00000000
00000000
00000000
,
00001000
00010000
00001000
01000000
,
00010000
10000000
00100000
10000000
,
01000000
00100000
01000000
00010000
,
01000000
00100000
00001000
00000000
,
00010000
00000010
00001000
00000001
,
00000110
00000000
00000000
00000000
,
00000001
00000010
00000100
00001000
,
00011000
00000000
00000000
00000000
,
01000000
00010000
10000000
00100000
,
10000000
01000000
00100000
00010000
,
00110000
00001000
00010000
00000010
,
00000110
00001000
00000001
00000000
,
00001000
00000100
00000010
00000001
,
00000110
00000000
00000000
00000110
00000000
00000000
00000000
00000000
,
00000001
00000010
00001000
00010000
,
00011000
00000000
00000000
00011000
00000000
00000000
00000000
00000000
,
10000000
00100000
00010000
00100000
,
11000000
00000000
00000000
11000000
00000000
00000000
00000000
00000000
,
01100000
10000000
00010000
01000000
,
00011000
00000100
00001000
00000010
,
00001001
00000100
00011000
01000000
,
10010000
10010000
10010000
00000000
,
20000000
01000000
01000000
00000000
01000000
00000000
31000000
00000000
,
00020000
00100000
00100000
00000000
00100000
00000000
00130000
00000000
,
02000000
00001000
00001000
00000000
00001000
00000000
03001000
00000000
,
00000200
00001000
00001000
00000000
00001000
00000000
00001300
00000000
,
00000200
00000001
00000001
00000000
00000001
00000000
00000301
00000000
,
00000020
00001000
00001000
00000000
00001000
00000000
00001030
00000000
,
00020000
00001000
00001000
00000000
00001000
00000000
00031000
00000000
,
02000000
10000000
10000000
00000000
10000000
00000000
13000000
00000000
,
00200000
10000000
10000000
00000000
00010000
00000000
01300000
00000000
,
00002000
00010000
00010000
00000000
01000000
00000000
00103000
00000000
,
00020000
00000100
00000100
00000000
00001000
00000000
00030010
00000000
,
00000200
00001000
00001000
00000000
00000001
00000000
00000310
00000000
,
00000002
00000010
00001000
00000000
00000100
00000000
00001003
00000000
,
00002000
00000100
00000010
00000000
00000001
00000000
00003100
00000000
,
00020000
00001000
00000100
00000000
00000010
00000000
00031000
00000000
,
02000000
00010000
00100000
00000000
10000000
00000000
03010000
00000000
,
10000000
01000000
10000000
00010000
10000000
00000000
00100000
00000000
,
01100000
00000000
00000000
01100000
00000000
00000000
00000000
00000000
,
00010000
00100000
00001000
00100000
00010000
00000000
00100000
00000000
,
00011000
00000000
00000000
00011000
00000000
00000000
00000000
00000000
,
00000010
00001000
00000100
00000010
00000001
00000000
00000100
00000000
,
00000110
00000000
00000000
00000110
00000000
00000000
00000000
00000000
,
00000100
00000001
00001000
00000100
00010000
00000000
00001000
00000000
,
00011000
00010000
00011000
00010000
,
00001000
01000000
00010000
01000000
00100000
00000000
10000000
00000000
,
01100000
00000000
00000000
01100000
00000000
00000000
00000000
00000000
,
00100000
00010000
10000000
01000000
00100000
00000000
00010000
00000000
,
10010000
00000000
00000000
10010000
00000000
00000000
00000000
00000000
,
00010000
01000000
00001000
00010000
00000100
00000000
00010000
00000000
,
00011000
00000000
00000000
00011000
00000000
00000000
00000000
00000000
,
00000100
00001000
00000100
00000000
00010000
00000000
00001000
00000000
,
01010000
00001000
01010000
00001000
,
00000000
00100000
01000000
00100000
01000000
00000000
10000000
00010000
,
00000000
00100000
01000000
00100000
01000000
00000000
10000000
00010000
,
00000000
01000000
00100000
01000000
00100000
00000000
10000000
00010000
,
01000000
00000000
00010000
10000000
00000000
00010000
00000000
00000000
,
00000000
01000000
00001000
01000000
00001000
00000000
00010000
00000100
,
00000000
01000000
00001000
01000000
00001000
00000000
00010000
00000100
,
00000000
01000000
00001000
01000000
00001000
00000000
00010000
00000100
,
00010000
00011000
00010000
00011000
,
00000110
00000000
00000000
00000000
;

//--------------- dance-double - forcednature ----------------
#NOTES:
     dance-double:
     forcednature:
     Hard:
     11:
     0,0,0,0,0:
00000000
00000000
00000000
00000000
,
00000000
00000000
00000000
00000000
,
00000000
00000000
00000000
00000000
,
00000000
00000000
00000000
00000000
,
00000000
00000000
00000000
00000000
00000000
00010000
00001000
00001000
,
00011000
00000000
00000000
00010000
00000000
00000000
01000000
00000000
00000000
10000000
00000000
00000000
01000000
00000000
00100000
00000000
,
00010000
00000000
00000000
10000000
00000000
00000000
00100000
00000000
00000000
10000000
00000000
00000000
00010000
00000000
00100000
00000000
,
01000000
00000000
00000000
01000000
00000000
00000000
00100000
00000000
00010000
00000000
00000000
01000000
00000000
00000000
00010000
00000000
,
01000000
00000000
00000000
00001000
00000000
00000000
00010000
00000000
00000100
00000000
00001000
00000000
00000001
00000000
00000100
00000000
,
00000010
00000000
00000000
00001000
00000000
00000000
00000100
00000000
00000000
00010000
00000000
00000000
00001000
00000000
01000000
00000000
,
00010000
00000000
00000000
00000000
00000000
10000000
01000000
00010000
,
01000000
00000000
00000000
00100000
00000000
00000000
00010000
00000000
00000000
01000000
00000000
00000000
10000000
00000000
01000000
00000000
,
00010000
00000000
00000000
00000000
00000000
00100000
00001000
00010000
,
00000010
00000000
00000000
00001000
00000000
00000000
00000100
00000000
00000000
00000001
00000000
00000000
00000100
00000000
00001000
00000000
,
00000001
00000000
00000000
00000100
00000000
00000000
00001000
00000000
00000000
00010000
00000000
00000000
00100000
00000000
00010000
00000000
,
00011000
00000000
00000000
00001000
00000000
00000000
00010000
00000000
00000000
01000000
00000000
00000000
10000000
00000000
00010000
00000000
,
10010000
00000000
00000000
10000000
00000000
00000000
00100000
00000000
01000000
00000000
00010000
00000000
00100000
00000000
10000000
00000000
,
00100000
00000000
00000000
01000000
00000000
00000000
10000000
00000000
00000000
00010000
00000000
00000000
01000000
00000000
00001000
00000000
,
00011000
00000000
00000000
00011000
00000000
00010000
00000100
00001000
,
00000010
00000000
00000000
00001000
00000000
00000000
00000100
00000000
00000000
00010000
00000000
00000000
01000000
00000000
00010000
00000000
,
00011000
00000000
00000000
00011000
00000000
00001000
00010000
00100000
,
10000000
00000000
00000000
01000000
00000000
00000000
10000000
00000000
00000000
00100000
00000000
00000000
00010000
00000000
00100000
00000000
,
01000000
00000000
00000000
10000000
00000000
00000000
01000000
00000000
00000000
00010000
00000000
00000000
10000000
00000000
00000000
00000000
,
11000000
00000000
00000000
01000000
00000000
00000000
00010000
00000000
00000000
01000000
00000000
00000000
00100000
00000000
00001000
00000000
,
00011000
00000000
00000000
00010000
00000000
00000000
00000010
00000000
00000000
00000100
00000000
00000000
00001000
00000000
00000100
00000000
,
00000110
00000000
00000000
00001000
00000000
00000000
00000001
00000000
00000110
00000000
00000000
00000001
00000000
00000000
00001000
00000000
,
00000001
00000100
00001000
00010000
00001000
00010000
00100000
10000000
,
01000000
10000000
00000000
00000000
01000000
10000000
00000000
00000000
00010000
01000000
00000000
00000000
00010000
01000000
00000000
00000000
,
00100000
01000000
00010000
00100000
10000000
00100000
01000000
00000000
,
00100000
00010000
00000000
00000000
00100000
00010000
00000000
00000000
00100000
00001000
00000000
00000000
00100000
00001000
00000000
00000000
,
00010000
00000100
00001000
00000100
00000001
00000100
00001000
00000000
,
00000001
00000100
00000000
00000000
00000001
00000100
00000000
00000000
00000010
00000100
00000000
00000000
00000010
00000100
00000000
00000000
,
00000001
00000010
00001000
00000010
00000100
00010000
00001000
00000000
,
01000000
00010000
00000000
00000000
01000000
00010000
00000000
00000000
10000000
01000000
00000000
00000000
10000000
01000000
00000000
00000000
,
00100000
00010000
10000000
00100000
00010000
00100000
10000000
00000000
,
00010000
00100000
00000000
00000000
00010000
00100000
00000000
00000000
00010000
01000000
00000000
00000000
00010000
01000000
00000000
00000000
,
00110000
10000000
00010000
01100000
00000000
10000000
00100000
10000000
,
01000000
00100000
00000000
00000000
01000000
00100000
00000000
00000000
01000000
10000000
00000000
00000000
01000000
10000000
00000000
00000000
,
01100000
10000000
00010000
01001000
00000000
00010000
00000100
00001000
,
00000010
00000100
00000000
00000000
00000010
00000100
00000000
00000000
00000001
00000010
00000000
00000000
00000001
00000010
00000000
00000000
,
00000110
00001000
00000001
00001100
00000000
00000010
00001000
00000100
,
00000010
00000001
00000000
00000000
00000010
00000001
00000000
00000000
00001000
00000010
00000000
00000000
00001000
00000010
00000000
00000000
,
00001200
00000000
00001000
00000000
00010000
00000000
00000000
00000300
00000100
00000000
00010000
00000000
00000000
00011000
00000000
00000000
,
01000000
00010000
10000000
00100000
10000000
01000000
00010000
00000000
,
01200000
10300000
00010000
02100000
03000000
00010000
10000000
00000000
,
00100000
00010000
00001000
00001000
00000100
00010000
01000000
00000000
,
00021000
01030000
00001000
00210000
00300000
00001000
00010000
00000000
,
00000010
00001000
00000100
00000001
00001000
00000010
00000001
00000000
,
00002100
00003001
00001000
00000021
00000030
00000100
00000010
00000000
,
00000001
00000100
00001000
00010000
00001000
00000010
00000001
00000000
,
00001100
00001000
00011000
00000000
00100000
01100000
00010000
00000000
,
10000000
01000000
00100000
10000000
00100000
00010000
01000000
00000000
,
01200000
00310000
01000000
00012000
00003000
00000100
00001100
00000000
,
00000001
00000010
00001000
00000010
00000100
00010000
00000010
00000000
,
00000210
00001300
00000001
00000102
00000003
00001000
00011000
00000000
,
01000000
00010000
10000000
00100000
10000000
01000000
00010000
00000000
,
01200000
10300000
00100000
00102000
00003000
00010000
00001100
00000000
,
00000001
00000100
00001000
00000100
00000001
00000100
00001000
00010000
,
00011000
01010000
11000000
10100000
,
10000000
00100000
10000000
01000000
00010000
00000000
01000000
00100000
,
00011000
01000000
00100000
00001000
00010000
00000000
00000010
00001000
,
00000110
00000001
00001000
00000010
00000001
00000000
00000100
00000010
,
00001100
00000010
00020000
00031000
01000000
00002000
00003000
00000000
,
10000000
00100000
00010000
00100000
10000000
00000000
01000000
00100000
,
10010000
01000000
00100000
00010000
00001000
00000000
01000000
00010000
,
00001100
00001000
00000010
00001000
00000001
00000000
00000100
00000010
,
00000110
00001100
00011000
01010000
,
00100000
00000000
00000000
00000000
;

//--------------- dance-double - forcednature ----------------
#NOTES:
     dance-double:
     forcednature:
     Challenge:
     13:
     0,0,0,0,0:
00000000
00000000
00000000
00000000
,
00000000
00000000
00000000
00000000
,
00000000
00000000
00000000
00000000
,
00000000
00000000
00000000
00000000
,
00000000
00000000
00000000
00000000
00000000
00001000
00010000
00100000
,
10000000
00000000
00000000
10000000
00010000
00000000
01000000
00000000
00001000
00010000
00000000
00000000
00100000
00000000
10000000
00000000
,
00010000
00000000
00000000
00100000
00010000
00000000
00001000
00000000
00000100
00000001
00000000
00000000
00000100
00000000
00001000
00000000
,
00000001
00000000
00000000
00000001
00000100
00000000
00001000
00000000
00010000
00000000
00000000
00010000
01000000
00000000
10000000
00000000
,
00100000
00000000
00000000
00100000
00010000
00000000
00001000
00000000
00000100
00000000
00000001
00000000
00001000
00000000
00000100
00000000
,
00010000
00000000
00000000
00010000
00001000
00000000
00100000
00000000
01000000
10000000
00000000
00000000
00100000
00000000
01000000
00000000
,
01100000
00000000
00000000
00000000
00000000
10000000
01000000
00100000
,
00010000
00000000
00000000
00010000
01000000
00000000
00001000
00000000
00010000
00000100
00000000
00000000
00000010
00000000
00000001
00000000
,
00001001
00000000
00000000
00000000
00000000
00000001
00000100
00000010
,
00001000
00000000
00000000
00000100
00010000
00000000
00001000
00000000
00100000
00010000
00000000
00000000
10000000
00000000
01000000
00000000
,
11000000
00000000
00000000
00010000
00100000
00000000
01000000
00000000
10000000
00010000
00000000
00000000
01000000
00000000
00001000
00000000
,
00011000
00000000
00000000
00010000
00000010
00000000
00001000
00000000
00000100
00000010
00000000
00000000
00000001
00000000
00001000
00000000
,
00001001
00000000
00000000
00000001
00000100
00000000
00000010
00000000
00010000
00000000
00001000
00000000
00100000
01000000
00000000
10000000
,
00010000
00000000
01000000
00100000
00000000
10000000
00010000
00000000
01000000
00010000
00000000
00100000
00001000
00100000
00000000
00010000
,
02000000
03000000
00000000
00000000
00000000
00000000
20020000
00000000
30030000
00000000
10000000
00000000
01000000
00000000
00010000
00000000
,
00001000
00000000
00010000
00000100
00000000
00001000
00000001
00000000
00000100
00000001
00000000
00001000
00000010
00000000
00001000
00000100
,
00000020
00000030
00000000
00002002
00003003
00000001
00001000
00000100
,
00000010
00000000
00000100
00001000
00000000
00000001
00000010
00000000
00001000
00010000
00000000
00100000
10000000
00000000
01000000
10000000
,
01000000
00000000
00100000
00010000
00000000
01000000
00100000
00000000
10000000
01000000
00000000
10000000
00010000
00000000
00000000
00000000
,
01100000
00000000
10000000
01000000
00000000
00100000
00010000
00000000
01000000
00100000
00000000
00010000
00001000
00000000
00000100
00000001
,
00000010
00000000
00000100
00001000
00000000
00000001
00000010
00000000
00000100
00010000
00000000
00001000
01000000
00000000
00100000
10000000
,
00100000
00000000
01000000
00100000
00000000
10000000
00010000
00000000
00100000
00000000
00001000
00010000
00000000
00000100
00001000
00000000
,
00000001
00001000
00000001
00001000
00000001
00001000
00000001
00001000
00000001
00001000
00000001
00000000
00000010
00000000
00000100
00000000
,
00000110
00000001
00001000
00000010
00000100
00000001
00000110
00000000
,
00000101
00001000
00000010
00000100
00000001
00000010
00001100
00000000
,
01010000
10000000
00100000
00010000
10000000
01000000
01010000
00000000
,
11000000
00000000
10000000
00000000
00000000
00010000
00000000
00000000
00100000
00000000
00000000
00001000
00000000
00000000
00010000
00000000
,
00010100
00000001
00001000
00000010
00000100
00000001
00000110
00000000
,
00001001
00001000
00000010
00010000
00000100
00001000
00011000
00000000
,
11000000
00100000
00010000
10000000
01000000
00100000
11000000
00000000
,
10010000
10000000
01000000
00010000
00001000
00000100
00000001
00001000
,
00001001
00000001
00000100
00000010
00001000
00000100
00011000
00000000
,
02200000
03300000
00000000
20020000
30030000
10000000
01000000
00100000
,
00011000
01000000
00010000
00100000
00001000
00010000
00000010
00000000
,
00000220
00000330
00000000
00002002
00003003
00000001
00000010
00000100
,
00001001
00000001
00000010
00001000
00000001
00000100
00001000
00000000
,
00022000
00033000
00000000
02200000
03300000
10000000
00010000
10000000
,
01100000
00010000
01000000
00001000
00100000
00010000
01000000
00000000
,
00010000
01000000
00010000
01000000
00010000
00000000
00000000
00000000
00100000
00000000
00011000
00000000
00000000
00010100
00000000
00000000
,
00001001
00000000
00000001
00000000
00000000
00000010
00000000
00000000
00002100
00000000
00000000
00000000
00013000
00000000
00000000
00000000
,
02200000
03300000
00000000
20020000
30030000
10000000
11000000
00000000
,
10010000
00000000
00010000
00000000
00000000
00100000
00000000
00000000
01020000
00000000
00000000
00000000
00031000
00000000
00000000
00000000
,
00000220
00000000
00000330
00000000
00000000
00000000
00002002
00000000
00003003
00000000
00000101
00000000
00000000
00001010
00000000
00000000
,
00001001
00000000
00000001
00000000
00000000
00000010
00000000
00000000
00020100
00000000
00000000
00000000
01030000
00000000
00000000
00000000
,
02200000
03300000
00000000
20020000
30030000
10000000
10100000
00000000
,
10010000
00000000
01000000
00000000
00000000
00010000
00000000
00000000
00102000
00000000
00000000
00000000
00003010
00000000
00000000
00000000
,
00001001
00001100
00000011
00001001
,
00000110
00000000
00000001
00000000
00000000
00001000
00000000
00000000
00020100
00000000
00000000
00000000
00130000
00000000
00000000
00000000
,
20020000
30030000
00000000
02200000
03300000
00010000
10010000
00000000
,
11000000
00000000
00100000
00000000
00000000
00010000
00000000
00000000
01002000
00000000
00000000
00000000
00003010
00000000
00000000
00000000
,
00002002
00000000
00003003
00000000
00000000
00000000
00000220
00000000
00000330
00000000
00000101
00000000
00000000
00001100
00000000
00000000
,
00001001
00000000
00000010
00000000
00000000
00001000
00000000
00000000
00020010
00000000
00000000
00000000
01030000
00000000
00000000
00000000
,
02200000
03300000
00000000
20020000
30030000
10000000
11000000
00000000
,
10000000
01000000
00010000
01000000
00100000
10000000
00100000
00010000
,
00001000
00000000
00000100
00000000
00000001
00000000
00000100
00000000
00001000
00000000
00000101
00000000
00000000
00001100
00000000
00000000
,
00001001
00000100
00010000
00100000
10100000
00000000
01000000
10000000
,
01100000
01000000
00010000
00000010
00000110
00000000
00000001
00001000
,
00000110
00000100
00001000
00100000
01100000
00000000
10000000
00010000
,
01000000
00100000
00000000
00000000
10000000
00000000
01000000
00100000
00000000
00000000
00010000
00000000
00000000
00000000
00000000
00000000
,
10010000
01000000
00010000
00000010
00001001
00000000
00000001
00001000
,
00000110
00000100
00010000
00100000
10010000
00000000
10000000
01000000
,
00110000
00100000
00010000
00000100
00001001
00000000
00000110
00000000
,
00010100
01001000
00010100
01001000
,
00011000
00000000
00000000
00000000
;
