#TITLE:NISHIMURA -чен- CARNIVAL;
#SUBTITLE:;
#ARTIST:S-C-U x U1 feat. VENUS;
#TITLETRANSLIT:;
#SUBTITLETRANSLIT:;
#ARTISTTRANSLIT:;
#GENRE:;
#CREDIT:;
#MUSIC:[Week 2] - NISHIMURA -matsuri- CARNIVAL.mp3;
#BANNER:[Week 2] - NISHIMURA -matsuri- CARNIVAL-bn.png;
#BACKGROUND:[Week 2] - NISHIMURA -matsuri- CARNIVAL-bg.png;
#CDTITLE:;
#SAMPLESTART:81.173;
#SAMPLELENGTH:15.190;
#SELECTABLE:YES;
#OFFSET:0.852;
#BPMS:0.000=158.000;
#STOPS:;
#BGCHANGES:;
#FGCHANGES:;

//--------------- dance-single - ----------------
#NOTES:
     dance-single:
     :
     Easy:
     6:
     0.336008,0.376457,0.289746,0.485751,0,276,242,34,57,0,0,0.336008,0.376457,0.289746,0.485751,0,276,242,34,57,0,0:
0000
0000
0000
0000
,
0000
0000
0000
0000
,
0000
0000
0000
0000
,
0000
0000
0000
0000
,
0000
0000
0000
0000
,
0001
0000
0100
0000
,
0010
0000
0100
0000
,
0100
0010
0100
0010
,
0010
0100
0000
0001
1000
0001
0000
0000
,
1000
0000
0010
0000
0010
0000
0010
0100
,
0001
0000
0010
0000
0010
0000
0010
0100
,
1000
0000
0010
0000
0010
0000
0010
0100
,
0001
0000
0010
0000
0100
0000
1000
0010
,
0100
0000
0001
0000
0001
0000
0001
1000
,
0100
0000
1000
0000
1000
0000
1000
0100
,
0010
0000
0001
0000
0001
0000
0001
0100
,
0010
1000
1000
0000
,
1001
0000
0110
0000
,
0110
0000
1001
0000
,
1000
0000
0000
0100
1000
0000
0000
0000
,
0001
0100
0010
0010
,
1000
0001
0010
0100
,
1000
0001
0010
0100
,
1000
0001
0100
0010
,
1000
0001
0100
0010
,
1001
0000
1001
0000
,
0200
0000
0000
0300
0000
0000
1000
0000
0020
0000
0000
0030
0000
0000
0100
0000
,
0002
0000
0000
0003
0000
0000
0010
0000
0200
0000
0000
0000
0310
0000
0000
0000
,
0200
0000
0000
0300
0000
0000
1000
0000
0020
0000
0000
0030
0000
0000
0100
0000
,
0002
0103
0002
0013
,
0200
0000
0000
0300
0000
0000
1000
0000
0020
0000
0000
0030
0000
0000
0100
0000
,
0002
0000
0000
0003
0000
0000
0010
0000
0200
0000
0000
0000
0310
0000
0000
0000
,
0200
0000
0000
0300
0000
0000
1000
0000
0020
0000
0000
0030
0000
0000
0100
0000
,
0002
0103
0002
0013
,
0200
0000
0000
0300
0000
0000
0010
0000
0100
0000
0000
0000
0100
0000
0000
0000
,
0020
0000
0000
0030
0000
0000
0100
0000
0010
0000
0000
0000
0010
0000
0000
0000
,
0200
0000
0000
0300
0000
0000
1000
0000
0020
0000
0000
0000
0000
0000
0000
0000
,
1030
1010
1010
0000
,
1100
0000
0011
0000
,
0110
1001
0110
0000
,
0101
0000
1010
0000
,
0110
1001
0110
0000
,
0002
0000
0000
0003
0000
0000
0100
0000
0020
0000
0000
0000
0130
0000
0000
0000
,
0002
0000
0000
0003
0000
0000
1000
0000
0200
0000
0000
0000
0310
0000
0000
0000
,
0200
0000
0000
0300
0000
0000
1000
0000
0002
0000
0000
0000
1003
0000
0000
0000
,
0200
0000
0000
0300
0000
0000
0010
0000
0002
0000
0000
0000
1003
0000
0000
0000
,
0020
0030
0020
0030
,
0200
0300
0200
0300
,
0002
0000
0000
1003
0002
0000
0000
0000
,
2003
0000
0000
3001
1000
0000
0100
0000
,
0020
0000
0000
0130
0020
0000
0000
0000
,
0031
0001
0001
0001
,
0001
0010
0100
0000
,
1000
1000
1000
0010
,
0200
0000
0000
0300
0000
0000
0001
0000
0020
0000
0000
0030
0000
0000
0100
0000
,
2000
0000
0000
3000
0000
0000
0010
0000
0200
0000
0000
0000
0310
0000
0000
0000
,
0200
0000
0000
0300
0000
0000
0001
0000
0020
0000
0000
0030
0000
0000
0100
0000
,
2000
3100
2000
3010
,
0200
0000
0000
0300
0000
0000
0001
0000
0020
0000
0000
0030
0000
0000
0100
0000
,
2000
0000
0000
3000
0000
0000
0010
0000
0200
0000
0000
0000
0310
0000
0000
0000
,
0200
0000
0000
0300
0000
0000
0001
0000
0020
0000
0000
0030
0000
0000
0100
0000
,
2000
3100
2000
3010
,
0200
0000
0000
0300
0000
0000
0010
0000
0100
0000
0000
0000
0100
0000
0000
0000
,
0020
0000
0000
0030
0000
0000
0100
0000
0010
0000
0000
0000
0010
0000
0000
0000
,
0200
0000
0000
0300
0000
0000
0001
0000
0020
0000
0000
0000
0000
0000
0000
0000
,
0031
0011
0011
0000
,
1001
0000
0110
0000
,
1010
0000
0101
0000
,
1001
0000
0110
0000
,
0011
0000
1100
0000
,
1001
0000
0110
0000
,
1010
0000
0101
0000
,
1001
0000
0110
0000
,
0010
0100
0000
0010
0100
0010
0000
0000
;

//--------------- dance-single - ----------------
#NOTES:
     dance-single:
     :
     Medium:
     10:
     0.457751,0.627429,0.161917,0.801064,0.161917,376,357,19,94,0,0,0.457751,0.627429,0.161917,0.801064,0.161917,376,357,19,94,0,0:
0000
0000
0000
0000
,
0000
0000
0000
0000
,
0000
0000
0000
0000
,
0000
0000
0000
0000
,
0000
0000
0000
0000
,
0010
0100
0000
1000
0001
0010
0000
0100
,
1000
0010
0000
0100
0001
0010
0000
0100
,
1000
0001
0000
1000
0010
0100
0000
0001
,
0100
0010
0000
1000
0010
0100
0000
0000
,
0001
0000
1000
0000
0010
0100
0010
0100
,
0010
0000
1000
0000
0100
0010
0100
0010
,
0001
0000
0100
0000
0010
1000
0010
1000
,
0100
0000
0010
0000
0001
0100
0001
0100
,
0010
0000
0100
0000
0001
1000
0001
1000
,
0001
0000
1000
0000
0100
1000
0100
1000
,
0010
0000
0100
0000
0001
0100
0001
0100
,
0001
0000
1000
0000
0010
0100
0010
0000
,
1001
0000
0110
0000
,
0110
0000
0000
1001
1001
0000
0000
0000
,
1000
0000
0000
0100
0010
0000
0000
0000
,
0001
0100
0010
0100
0000
0100
0001
0000
,
1000
0100
0010
0010
,
0001
0100
0010
0010
,
1000
0100
0100
0010
0100
1000
1000
0001
,
0100
0010
0010
1000
0100
0010
0010
0001
,
0011
0000
0000
0011
0000
0000
0000
0000
1100
0000
0000
0000
1100
0000
0000
0000
0000
0000
0000
0000
0000
0000
0000
0000
,
0200
0000
0000
0320
0000
0000
0031
0000
0020
0000
0000
0230
0000
0000
1300
0000
,
0200
0000
0000
0320
0000
0000
0031
0000
0010
0000
0010
0000
0010
0000
0000
0000
,
0200
0000
0000
2300
0000
0000
3100
0000
0020
0000
0000
0032
0000
0000
0103
0000
,
0020
1030
0200
0301
,
0200
0000
0000
0302
0000
0000
0013
0000
0200
0000
0000
2300
0000
0000
3010
0000
,
0200
0301
0020
1030
,
0200
0000
0000
2300
0000
0000
3100
0000
0010
0000
0001
0000
0010
0000
0001
0000
,
0200
0301
0020
1030
,
0200
0000
0000
0320
0000
0000
0130
0000
0010
0000
0010
0000
0010
0000
0000
0000
,
0002
0000
0000
2003
0000
0000
3001
0000
1000
0000
1000
0000
1000
0000
0000
0000
,
0200
0000
0000
2300
0000
0000
3010
0000
2000
0000
0000
0000
0000
0000
0000
0000
,
3001
1001
1001
0000
,
1100
0000
0011
0000
,
0110
0000
0100
0010
0000
0010
0001
0000
,
0101
0000
1010
0000
,
0110
0000
0100
0010
0000
0010
1000
0000
,
0002
0000
0000
2003
0000
0000
3001
0000
0020
0000
0000
0000
0130
0000
0100
0000
,
2000
0000
0000
3002
0000
0000
1003
0000
0200
0000
0000
0000
0310
0000
0001
0000
,
0200
0000
0000
0320
0000
0000
0130
0000
0002
0000
0000
0000
1003
0000
1000
0000
,
0020
0000
0000
0230
0000
0000
0310
0000
2000
0000
0000
0000
3001
0000
0100
0000
,
0002
0000
0000
1003
0000
0000
0000
0000
2000
0000
0000
3001
0000
0000
0000
0000
,
0200
0000
0000
0310
0000
0000
0000
0000
0020
0000
0000
0130
0000
0000
0000
0000
,
0002
0000
0003
0002
0000
0003
0001
0000
0020
0000
0000
0000
0000
0000
0000
0000
,
0230
0000
0300
0200
0000
0300
0100
0000
0010
0000
0000
0000
0001
0000
0000
0000
,
2000
0000
3000
2000
0000
3000
1000
0000
0002
0000
0000
0000
0000
0000
0000
0000
,
1003
0001
1000
0001
1000
0001
1000
0001
,
1000
0010
0100
0000
,
0010
0000
0100
0001
0000
1000
0010
0000
,
0200
0000
0000
0320
0000
0000
1030
0000
0020
0000
0000
0230
0000
0000
0301
0000
,
0200
0000
0000
0320
0000
0000
1030
0000
0010
0000
0010
0000
0010
0000
0000
0000
,
0200
0000
0000
0302
0000
0000
0103
0000
0020
0000
0000
2030
0000
0000
3100
0000
,
0020
0031
0200
1300
,
0200
0000
0000
2300
0000
0000
3010
0000
0200
0000
0000
0302
0000
0000
0013
0000
,
0200
1300
0020
0031
,
0200
0000
0000
0302
0000
0000
0103
0000
0010
0000
1000
0000
0010
0000
1000
0000
,
0200
1300
0020
0031
,
0200
0000
0000
0320
0000
0000
0130
0000
0010
0000
0010
0000
0010
0000
0000
0000
,
2000
0000
0000
3002
0000
0000
1003
0000
0001
0000
0001
0000
0001
0000
0000
0000
,
0200
0000
0000
0302
0000
0000
0013
0000
0002
0000
0000
0000
0000
0000
0000
0000
,
1003
1001
1001
0000
,
0002
0000
0000
2003
0000
0000
3001
0000
0020
0000
0000
0000
0130
0000
0100
0000
,
2000
0000
0000
3002
0000
0000
1003
0000
0200
0000
0000
0000
0310
0000
0001
0000
,
0200
0000
0000
0320
0000
0000
0130
0000
0002
0000
0000
0000
1003
0000
1000
0000
,
0020
0000
0000
0230
0000
0000
0310
0000
2000
0000
0000
0000
3001
0000
0000
0000
,
0010
0100
0000
1000
0001
0010
0000
0100
,
1000
0010
0000
0100
0001
0010
0000
0100
,
1000
0001
0000
1000
0010
0100
0000
0001
,
0100
0010
0000
1000
0010
0100
0000
0000
;

//--------------- dance-single - ----------------
#NOTES:
     dance-single:
     :
     Hard:
     14:
     0.603841,0.721543,0.315312,0.494273,0.294007,496,459,37,58,0,0,0.603841,0.721543,0.315312,0.494273,0.294007,496,459,37,58,0,0:
0000
0000
0000
0000
,
0000
0000
0000
0000
,
0000
0000
0000
0000
,
0000
0000
0000
0000
,
0000
0000
0000
0000
,
0001
0100
0000
0010
0100
1000
0000
0100
,
0001
0010
0000
0100
0001
0100
0000
1000
,
0010
0100
0000
1000
0100
0001
0000
0010
,
0100
0010
0000
0100
1000
0001
0000
0000
,
1000
0010
0100
0001
0010
0100
1000
0100
,
0010
0001
0100
0010
1000
0001
0100
0001
,
0100
0010
1000
0100
0010
0001
0010
0100
,
1000
0010
0001
0010
0100
1000
0100
0001
,
1000
0100
0010
1000
0010
0001
0100
0010
,
0001
0010
1000
0100
0010
0100
0001
0100
,
1000
0010
0100
0001
0010
0100
1000
0100
,
0010
0001
0100
0010
1000
0001
0100
0000
,
1001
0000
0000
0110
0110
0000
0000
0010
,
0100
0010
0010
0100
,
0001
0000
0000
0100
1000
0000
0000
0000
,
0100
0001
0010
0001
0000
0100
0000
0100
,
0000
0100
0010
1000
0001
0100
0010
1000
,
0000
0100
0010
0001
1000
0100
0010
0001
,
0000
1000
0010
0010
0100
0100
0001
0001
,
1000
1000
0001
0001
0010
0010
0100
0100
,
0110
0000
0000
0110
0000
0000
0000
0000
1001
0000
1001
0000
1001
0000
0000
0000
0000
0000
0000
0000
0000
0000
0000
0000
,
0200
0000
0000
0320
0000
0000
1030
0000
0200
0000
0000
0320
0000
0000
0031
0000
,
2000
0000
0000
3002
0000
0000
0103
0000
0010
0000
0110
0000
1001
0000
0000
0000
,
0200
0000
0000
2300
0000
0000
3010
0000
0100
0000
0001
0000
0010
0000
0100
0000
,
2000
0000
3100
0001
0200
0000
0310
0001
,
0200
0000
0000
0320
0000
0000
1030
0000
0200
0000
0000
0320
0000
0000
0031
0000
,
2000
0000
0000
3002
0000
0000
0103
0000
0010
0000
0110
0000
1001
0000
0000
0000
,
0200
0000
0000
2300
0000
0000
3010
0000
0100
0000
0001
0000
0010
0000
0100
0000
,
2000
0000
3100
0001
0200
0000
0310
0001
,
0200
0000
0000
0320
0000
0000
1030
0000
0001
0000
1001
0000
1001
0000
0001
1000
,
0020
0000
0000
2030
0000
0000
3100
0000
0010
0000
0110
0000
0110
0000
0000
0000
,
0200
0000
0000
2300
0000
0000
3010
0000
0200
0000
0000
0300
1000
0000
0000
0000
,
0100
0101
1001
0000
,
1100
0000
0011
0000
,
0110
0000
0100
1000
0000
1000
0100
0000
,
0011
0000
1100
0000
,
0110
0000
0010
0001
0000
0001
1000
0000
,
2000
0000
0000
3020
0000
0000
0130
0000
0010
0000
0100
0000
0001
0000
1000
0000
,
0200
0000
0000
2300
0000
0000
3001
0000
1000
0000
0001
0000
0010
0000
0100
0000
,
0020
0000
0000
0032
0000
0000
1003
0000
0001
0000
1000
0000
0100
0000
0010
0000
,
0002
0000
0000
0203
0000
0000
0310
0000
0100
0000
0010
0000
1000
0000
0001
0000
,
2000
0000
0000
3001
0000
0000
0001
0000
0002
0000
0000
1003
0000
0000
1000
0000
,
0020
0000
0000
0130
0000
0000
0100
0000
0200
0000
0000
0310
0000
0000
0010
0000
,
2000
0000
0000
3200
0000
0000
0301
0000
0200
0000
0000
0000
0000
0000
0300
0000
,
2000
0000
0000
3020
0000
0000
0031
0000
0010
0000
1000
0000
0100
0000
0001
0000
,
0200
0000
0000
0320
0000
0000
0031
0000
0200
0000
0000
0000
0000
0000
0000
0000
,
0301
0100
0001
0100
0001
0100
0001
0100
0001
0100
0001
0100
0001
0100
0001
0100
,
0001
0010
0100
0000
,
1000
0010
1000
0100
0000
0100
1100
0000
,
0100
0000
1000
0010
0000
0010
1000
0000
0100
0000
0001
0000
0100
0000
1000
0000
,
0100
0000
1000
0100
0000
0100
1000
0000
0010
0000
0110
0000
1001
0000
0000
0000
,
0100
0000
0010
0001
0000
0001
0010
0000
0100
0000
0001
0000
0100
0000
1000
0000
,
0020
0000
0130
0001
0020
0000
0130
1000
,
0100
0000
0010
0001
0000
0001
0010
0000
0100
0000
1000
0000
0100
0000
0001
0000
,
0100
0000
1000
0010
0000
0010
1000
0000
0100
0000
0110
0000
1001
0000
0000
0000
,
0100
0000
0010
0001
0000
0001
0010
0000
0100
0000
1000
0000
0100
0000
0001
0000
,
0200
0000
0310
0001
0200
0000
0310
1000
,
0001
0000
0100
0000
0010
0000
1000
0000
0010
0000
0110
0000
0110
0000
0010
1000
,
0200
0000
0000
0320
0000
0000
0031
0000
0010
0000
0110
0000
0110
0000
0000
0000
,
0200
0000
0000
2300
0000
0000
3010
0000
0100
0000
0000
0000
0001
0000
0000
0000
,
0010
0011
1100
0000
,
0100
0000
1000
0010
0000
0010
1000
0000
0010
0000
0001
0000
0010
0000
1000
0000
,
0100
0000
0010
0001
0000
0001
0010
0000
0100
0000
0001
0000
0100
0000
1000
0000
,
0010
0000
0100
0001
0000
0001
0100
0000
0010
0000
0001
0000
0010
0000
1000
0000
,
0200
0000
0000
0320
0000
0000
0031
0000
0200
0000
0000
0000
0310
0000
0000
0000
,
1000
0000
0100
0010
0000
0100
0010
0000
0001
0000
0100
0010
0000
0010
0100
0000
,
0001
0000
0100
0010
0000
0100
0010
0000
1000
0000
0100
0010
0000
0010
0100
0000
,
1000
0000
0100
0010
0000
0100
0010
0000
0001
0000
0100
0010
0000
0010
0100
0000
,
0001
0000
0100
0010
0000
0100
0010
0000
1001
0000
0110
0000
0000
0000
0000
0000
;
