#TITLE:MAKE IT FUNKY NOW;
#SUBTITLE:;
#ARTIST:DOT96;
#TITLETRANSLIT:;
#SUBTITLETRANSLIT:;
#ARTISTTRANSLIT:;
#GENRE:;
#CREDIT:;
#BANNER:[Week 2] - MAKE IT FUNKY NOW.png;
#BACKGROUND:[Week 2] - MAKE IT FUNKY NOW-bg.png;
#LYRICSPATH:;
#CDTITLE:;
#MUSIC:[Week 2] - MAKE IT FUNKY NOW.ogg;
#OFFSET:-1.079000;
#SAMPLESTART:27.375011;
#SAMPLELENGTH:15.000000;
#SELECTABLE:YES;
#BPMS:0.000000=146.000000
;
#STOPS:
;
#BGCHANGES:0.000=[Week 2] - MAKE IT FUNKY NOW.avi=1.000=1=0=0=StretchNoLoop==CrossFade==,
288.250=[Week 2] - MAKE IT FUNKY NOW-bg.png=1.000=0=0=1=StretchNormal====,
99999=-nosongbg-=1.000=0=0=0 // don't automatically add -songbackground-
;
#KEYSOUNDS:;
#ATTACKS:;

//---------------dance-single - ----------------
#NOTES:
     dance-single:
     :
     Hard:
     14:
     0.668862,0.736701,0.188924,0.542130,0.324457,481.000000,23.000000,66.000000,0.000000,0.000000,0.000000,0.668862,0.736701,0.188924,0.542130,0.324457,481.000000,23.000000,66.000000,0.000000,0.000000,0.000000:
// measure 0
0000
0000
0000
0000
,  // measure 1
0000
0000
0000
0000
,  // measure 2
0000
0000
0000
0000
,  // measure 3
0000
0000
0000
0000
,  // measure 4
1100
0000
0001
0100
0000
0100
0010
0000
,  // measure 5
1010
0000
0011
0001
0000
0010
0100
0000
,  // measure 6
1000
0001
0100
0100
0010
0000
0010
1000
,  // measure 7
0001
0101
0110
1010
,  // measure 8
1000
0000
0000
1000
0001
0000
0100
0000
0001
0000
0000
0001
1000
0000
0100
0000
,  // measure 9
1000
0000
0000
1000
0001
0000
0100
0000
0001
0000
0010
0000
0100
0000
1000
0000
,  // measure 10
0001
0000
0000
0001
1000
0000
0010
0000
1000
0000
0000
1000
0001
0000
0010
0000
,  // measure 11
0001
0000
0000
0001
1000
0000
0010
0000
1000
0000
0010
0000
0001
0000
0010
0000
,  // measure 12
1000
0000
0000
1000
0001
0000
0100
0000
0010
0000
0000
0010
1000
0000
0100
0000
,  // measure 13
0010
0000
0000
0010
0001
0000
0100
0000
0010
0000
1000
0000
0001
0000
1000
0000
,  // measure 14
0100
0000
0000
0100
1000
0000
0001
0000
0100
0000
0000
0100
0001
0000
1000
0000
,  // measure 15
0100
0000
0000
1000
0000
0000
0001
0000
0000
0100
0000
0000
0020
0000
0000
0000
,  // measure 16
1030
0000
0000
0001
0100
0000
0001
0000
0010
0000
0001
0000
0100
0000
0100
0000
,  // measure 17
0010
0000
0000
0000
2000
0000
3002
0000
0003
0010
0001
0010
0001
0000
1000
0000
,  // measure 18
0010
0000
0000
0010
0100
0000
0000
0000
0010
0000
1000
0000
0001
0000
1000
0000
,  // measure 19
0100
0000
0000
0000
0010
0000
0000
0100
0010
0000
0000
0100
2000
0000
0000
0000
,  // measure 20
3001
0000
0000
1000
0100
0000
1000
0000
0010
0000
1000
0000
0100
0000
0100
0000
,  // measure 21
0010
0000
0000
0000
0002
0000
2003
0000
3000
0010
1000
0010
1000
0000
0001
0000
,  // measure 22
0010
0000
0000
0010
0001
0000
1000
0000
0010
0000
0000
0010
1000
0000
0001
0000
,  // measure 23
0100
0000
0000
0000
0001
0000
0000
1000
0001
0000
0000
1000
0200
0000
0000
0000
,  // measure 24
0320
0000
0130
1000
0001
1000
0100
1000
,  // measure 25
0001
1000
0100
1000
0001
1000
0100
1000
,  // measure 26
0020
0000
0130
0001
0010
0001
0100
0001
,  // measure 27
0010
0001
0100
0001
0010
0001
0100
0001
,  // measure 28
2000
0000
0000
0000
3001
0000
0000
1000
0100
0000
0000
0001
0100
0000
0000
1000
,  // measure 29
0100
0000
0000
0001
0100
0000
0000
1000
0100
0000
0000
0001
0100
0000
0000
1000
,  // measure 30
0100
0000
1000
0000
0001
0000
0100
0000
0010
0100
0010
0100
0010
0100
0010
0100
,  // measure 31
0002
0000
1003
0001
1000
0100
0110
0000
,  // measure 32
0002
0000
0000
0000
1003
0000
0100
0010
0100
0000
1000
0000
0001
0000
0000
0000
,  // measure 33
2020
0000
3030
0000
0022
0000
0033
0000
0001
0000
1000
0001
1000
0000
0010
0000
,  // measure 34
0200
0000
0000
0000
0302
0000
2003
0000
3001
0000
0010
0100
0010
0000
0001
0000
,  // measure 35
2000
3000
2200
3300
2002
3003
0202
0303
,  // measure 36
0002
2003
3000
0010
0100
0001
0010
0000
,  // measure 37
0220
0000
0330
0000
2002
0000
3003
0000
1000
0100
1000
0000
0001
0000
1000
0000
,  // measure 38
0010
0010
0100
0100
0002
0000
1003
0001
,  // measure 39
0020
0030
2020
3030
2002
3003
0220
0330
,  // measure 40
1000
0000
0000
1000
0100
0000
0010
0000
0001
0000
1000
0000
0010
0000
0100
0000
,  // measure 41
0000
0001
0010
0100
0000
1000
0010
0100
,  // measure 42
0001
0000
0000
0001
0100
0000
0010
0000
1000
0000
0001
0000
0010
0000
0100
0000
,  // measure 43
0000
1000
0100
0010
0000
0001
0100
0010
,  // measure 44
1000
0000
0000
0100
1000
0000
0001
0000
0010
0000
0000
0001
0100
0000
0001
0000
,  // measure 45
0010
0000
0000
0100
1000
0000
0100
0000
0010
0000
0001
0000
1000
0000
1000
0000
,  // measure 46
0001
0000
0000
0010
0001
0000
1000
0000
0100
0000
0000
1000
0010
0000
0100
0000
,  // measure 47
0000
0100
0001
1000
0000
1000
0200
0300
,  // measure 48
0020
0000
0130
0000
0020
0000
0000
0000
0031
0000
1000
0001
2000
0000
0000
0000
,  // measure 49
3020
0000
0000
0130
0001
1000
0002
0000
,  // measure 50
0023
0000
0200
0000
0330
0000
1000
0001
,  // measure 51
0000
0000
1000
0000
0010
0000
0100
0000
0000
0001
0100
0001
2000
0000
0000
0000
,  // measure 52
3020
0000
0030
0000
0101
0000
0000
0110
0000
0000
2002
3003
0000
1100
0000
0000
,  // measure 53
2002
3003
0020
0000
0030
0001
0100
0001
,  // measure 54
0010
0100
1000
0010
1000
0001
0100
0001
,  // measure 55
0010
0000
0020
0000
0000
0000
0130
0000
0000
1000
0100
0010
0002
0000
0000
0000
,  // measure 56
1003
0000
0000
0010
1000
0000
0001
0000
0100
0000
0000
0000
0010
0000
0010
0000
,  // measure 57
1000
0000
0000
0000
0010
0000
0100
0000
0000
0100
0001
1000
0001
0000
0100
0000
,  // measure 58
0010
0000
0000
0010
1000
0000
0001
0000
0010
0000
0001
0000
1000
0000
0100
0000
,  // measure 59
2000
0000
0000
0000
3001
0000
0000
1000
0001
0000
0000
0010
0200
0000
0000
0000
,  // measure 60
1300
0000
0000
0001
1000
0000
0010
0000
0100
0000
0001
0000
1000
0000
1000
0000
,  // measure 61
0020
0000
0000
0000
1030
0000
0001
0000
0000
1000
0100
0010
0100
0000
1000
0000
,  // measure 62
0001
0000
0000
0001
0100
0000
0010
0000
1000
0000
0000
1000
0100
0000
0010
0000
,  // measure 63
0200
0000
0000
0000
1300
0000
0000
1000
0001
0000
0000
0001
0200
0000
0000
0000
,  // measure 64
0320
0000
0130
0001
1000
0001
0100
0001
,  // measure 65
1000
0001
0100
0001
1000
0001
0100
0001
,  // measure 66
0020
0000
0130
1000
0001
0010
0001
1000
,  // measure 67
0010
1000
0001
0100
0001
1000
0100
1000
,  // measure 68
0020
0000
0000
0000
1030
0000
0000
0001
0100
0000
0000
1000
0100
0000
0000
0001
,  // measure 69
0010
0000
0000
1000
0100
0000
0000
1000
0010
0000
0000
0001
0100
0000
0000
0001
,  // measure 70
0010
0000
0001
0000
1000
0000
0010
0000
0100
0010
0100
0010
0100
0010
0100
0010
,  // measure 71
2000
0000
3001
1000
0100
0010
1001
0000
;

//---------------dance-single - ----------------
#NOTES:
     dance-single:
     :
     Challenge:
     15:
     0.790900,0.854574,0.418919,0.607843,0.394276,549.000000,51.000000,74.000000,0.000000,0.000000,0.000000,0.790900,0.854574,0.418919,0.607843,0.394276,549.000000,51.000000,74.000000,0.000000,0.000000,0.000000:
0000
0000
0000
0000
,
0000
0000
0000
0000
,
0000
0000
0000
0000
,
0000
0000
0000
0000
,
1100
0000
0100
0000
1000
0000
0001
0000
0000
0000
1000
0001
0100
0000
0010
0000
,
1010
0000
0000
0000
0011
0000
0000
0000
0001
1000
0100
0000
0010
0000
0100
0000
,
0110
0000
0000
0000
1001
0000
1000
0000
0100
0000
1000
0001
0100
0000
0010
0000
,
1010
0101
1100
0011
,
1000
0000
0100
1000
0001
0000
0010
0000
0001
0000
0100
0001
1000
0000
0010
0000
,
1000
0000
0100
1000
0001
0000
0010
0000
0100
0000
0100
0000
0010
0000
0010
0000
,
0001
0000
0100
0010
1000
0000
0001
0000
1000
0000
0100
0010
0001
0000
1000
0000
,
0001
0000
0100
0010
1000
0000
0001
0000
1000
0000
0000
1000
0100
0000
0100
0000
,
0010
0000
0001
1000
0100
0000
1000
0000
0010
0000
1000
0001
0100
0000
0001
0000
,
0010
0000
0001
1000
0100
0000
1000
0000
0010
0000
0100
0000
0001
0000
1000
0000
,
0100
0000
0010
0001
1000
0000
0001
0000
0100
0000
0010
1000
0001
0000
1000
0000
,
0100
0000
0000
1100
0000
0000
1001
0000
0000
0101
0000
0000
0220
0000
0330
0000
,
1000
0000
0001
0100
0001
0000
1000
0000
0010
0000
0100
0000
0001
0000
0001
0000
,
2000
0000
0000
0000
3100
0000
0200
0000
0300
1000
0100
1000
0001
0000
0010
0000
,
0100
0000
0000
0100
0010
0000
0001
0000
0100
0000
0001
0000
0010
0000
0010
0000
,
0100
0000
1000
0000
0001
0000
0100
0001
1000
0000
0100
1000
0020
0000
0000
0000
,
1030
0000
0001
0010
0001
0000
1000
0000
0100
0000
0010
0000
0001
0000
0001
0000
,
2000
0000
0000
0000
3010
0000
0020
0000
0030
1000
0001
0100
0010
0000
0100
0010
,
1000
0000
0000
1000
0001
0000
0010
0000
0001
0000
0000
0001
1000
0000
0010
0000
,
1000
0000
0001
0000
0100
0000
0000
0001
0100
0000
0000
0001
1000
0000
1000
0000
,
0020
0000
1030
0100
0001
0100
1000
0010
,
0001
0010
1000
0100
0001
0100
1000
0001
,
0200
0000
0301
0010
1000
0010
0001
0100
,
1000
0100
0001
0010
1000
0010
0001
0100
,
0020
0030
1010
0010
0110
0010
1010
1000
,
1001
0001
0011
0010
0110
0010
0011
0001
,
1000
0000
1000
0000
1000
0000
1000
0000
1000
0100
0010
0001
0100
0010
1000
0001
,
2000
0000
3001
0100
0010
0100
1001
0000
,
0220
0000
0330
0000
1000
0000
0000
0001
0010
0001
0010
0100
1000
0100
1000
0000
,
0202
0303
0000
0000
2020
3030
0000
0010
1000
0001
1000
0001
0010
0100
0010
0000
,
0012
0000
0000
0000
0100
0000
1003
0000
0001
0100
0001
1000
0100
1000
0100
0000
,
2200
3300
0000
0000
2020
3030
0000
0000
0022
0033
0000
0000
0202
0003
0000
0000
,
0310
0000
0100
0000
0000
0000
0010
1000
0010
1000
0001
0010
0001
0010
0100
0000
,
0220
0330
0000
0000
2002
3003
0000
0000
0001
1000
0001
0010
0100
0010
0100
0000
,
1000
0000
1000
0000
0001
0000
0010
0000
0220
0030
0000
0000
0310
0000
0001
1000
,
0002
0003
0202
0303
0220
0330
2002
3003
,
1000
0000
0100
1000
0100
0000
0010
0000
0001
0000
1000
0000
0001
0000
0020
0000
,
0030
0000
0001
1000
0001
0000
0100
0000
0000
0010
0000
0010
2000
0000
0000
0000
,
3001
0000
0010
0001
0010
0000
0100
0000
1000
0000
0001
0000
0100
0000
0020
0000
,
0030
0000
1000
0010
0100
0000
0002
0000
0003
0010
0001
1000
0200
0000
0000
0000
,
1300
0000
0001
0010
0100
0000
0020
0000
0031
0000
1000
0000
0010
0000
0200
0000
,
0301
0000
1000
0000
0100
0000
0020
0000
0030
0001
0000
0001
2000
0000
0000
0000
,
3001
0000
0100
0001
0100
0000
0020
0000
1030
0000
0100
0000
0010
0000
0200
0000
,
0300
0000
0100
0000
0010
0000
0001
0000
0000
0001
0010
0100
2000
0000
3000
0000
,
0002
0000
1003
0000
0002
0000
0000
0000
0103
0001
0100
0001
2000
0000
0000
0000
,
3020
0000
0000
0130
0001
1000
0010
1000
,
2200
0300
0002
0000
3000
0003
0010
0020
,
0030
0000
0001
0010
0001
0000
1000
0010
0000
0010
1000
0001
0200
0000
0000
0000
,
0301
0000
1000
0000
1100
0000
0100
0010
0000
0000
0011
0000
0001
0100
0000
0000
,
1010
0000
0200
0000
0300
0001
1000
0010
,
1000
0100
0001
0100
1000
0100
0001
0200
,
1300
0000
0020
0000
0000
0000
0130
0000
0000
0001
0100
0010
2000
0000
3001
0000
,
1000
0000
0001
0010
0100
0000
0010
0000
0001
0000
1000
0000
0010
0000
0010
0000
,
0200
0000
0000
0000
0301
0000
0002
0000
0003
0010
0100
0010
0001
0000
0010
0000
,
0100
0000
0000
0100
1000
0000
0010
0000
0100
0000
0001
0000
1000
0000
1000
0000
,
0001
0000
1000
0000
0010
0000
1000
0001
0010
0000
0001
1000
0200
0000
0000
0000
,
1300
0000
0001
0100
0001
0000
1000
0000
0100
0000
0010
0000
0001
0000
0001
0000
,
0200
0000
0000
0000
0310
0000
0020
0000
0030
1000
0010
0100
0001
0000
0100
0001
,
1000
0000
0000
1000
0001
0000
0010
0000
0001
0000
0000
0001
1000
0000
0010
0000
,
1000
0000
1000
0000
0100
0000
1000
0100
0010
0000
0100
0010
0002
0000
0000
0000
,
0023
0000
0130
1000
0010
1000
0001
0100
,
0001
0010
0100
1000
0010
1000
0001
0011
,
0020
0000
0031
1000
0001
0101
0001
1000
,
0001
0011
0001
1000
0001
1001
1000
1000
,
0020
0030
1010
1000
1001
1000
1010
0010
,
0110
0100
0101
0001
1001
0001
0011
0010
,
0001
0000
0001
0000
0001
0000
0001
0000
0001
0100
0010
1000
0100
0010
0001
1000
,
0002
0000
1003
0010
0100
0010
1001
0000
;

//---------------dance-single - ----------------
#NOTES:
     dance-single:
     :
     Medium:
     10:
     0.481111,0.442021,0.303921,0.542130,0.016428,307.000000,37.000000,66.000000,0.000000,0.000000,0.000000,0.481111,0.442021,0.303921,0.542130,0.016428,307.000000,37.000000,66.000000,0.000000,0.000000,0.000000:
0000
0000
0000
0000
,
0000
0000
0000
0000
,
0000
0000
0000
0000
,
0000
0000
0000
0000
,
1000
0100
0000
1000
0000
0100
0010
0000
,
0110
0000
1001
0000
0001
0100
0001
0000
,
1000
0001
1000
0000
0020
0000
0030
0000
,
0110
1001
0110
1001
,
1000
0000
0100
0010
0100
0000
0010
0000
,
0001
0000
0100
0010
0200
0000
0300
0000
,
0001
0000
1000
0010
1000
0000
0100
0000
,
1000
0000
0001
0010
0001
0000
0001
0000
,
1000
0000
0010
0100
0010
0000
0100
0000
,
0001
0000
0010
0100
0020
0000
0030
0000
,
0001
0000
0100
0010
1000
0000
0001
0000
,
0010
0000
0000
0010
0000
0000
0100
0000
0000
0100
0000
0000
2000
0000
0000
0000
,
3001
0000
0100
0000
0001
0000
1000
1000
,
0010
0000
0100
0010
0000
0010
1000
0000
,
0002
0003
0000
0000
1000
0000
0100
1000
,
0100
0000
0020
0030
0020
0030
0200
0000
,
1300
0000
0010
0000
1000
0000
0001
0001
,
0100
0000
0010
0100
0000
0100
0001
0000
,
2000
3000
0100
0010
0002
0003
0010
0100
,
0010
0000
0002
0003
2000
3000
0001
0000
,
0020
0031
0011
0001
,
1001
0001
0101
0100
,
0020
1030
1100
1000
,
1001
1000
1010
1000
,
0200
0310
1001
0001
,
0110
0100
1001
1000
,
0100
0010
0100
0010
0200
0000
0000
0000
,
2300
0000
3100
0010
0100
0000
1001
0000
,
0002
0003
0000
0000
0100
0001
0010
0000
,
2000
3000
2000
3000
0100
1000
0010
0000
,
0002
0003
0001
0002
1003
0000
0100
0000
,
1100
0011
1100
0011
,
2000
3000
0000
0010
0000
0100
0010
0000
,
0002
0003
0002
0003
1000
0100
0010
0000
,
2000
3000
0001
1000
0020
0000
0030
0000
,
0110
1001
0110
1001
,
0001
0100
0002
0000
0100
0000
1003
0000
,
2000
3100
0002
0103
,
1000
0100
2000
0000
0100
0000
3001
0000
,
0002
0103
2000
3100
,
0001
0010
0002
0000
0010
0000
1003
0000
,
2000
3010
0002
0013
,
1000
0010
2000
0000
0010
0000
3001
0000
,
0000
0000
0000
0000
0001
0000
0000
0000
0000
0000
0001
0000
0200
0300
0000
0000
,
0002
0003
0002
0003
0010
0100
0020
0030
,
0200
0000
0000
1300
0001
0000
1000
0010
,
2000
0000
3002
0000
0003
0000
0100
0010
,
0000
0010
1000
0001
0000
1000
0200
0300
,
1000
0000
0000
0000
0100
0000
0000
1000
0000
0000
0002
0003
0000
0100
0000
0000
,
0002
0003
0020
0000
0030
0010
0100
0000
,
2000
3002
2003
3002
,
0103
0000
0010
0000
0010
0100
0002
0000
,
1003
0000
0100
0000
1000
0000
0001
0001
,
0010
0000
0100
0010
0000
0010
0001
0000
,
2000
3000
0000
0000
0001
0000
0100
0001
,
0100
0000
0020
0030
0020
0030
0200
0000
,
0301
0000
0010
0000
0001
0000
1000
1000
,
0100
0000
0010
0100
0000
0100
1000
0000
,
0002
0003
0100
0010
2000
3000
0010
0100
,
0010
0000
2000
3000
0002
0003
1000
0000
,
0020
1030
1010
0010
,
0110
0100
0101
0001
,
0020
0031
1001
0010
,
1001
0100
1001
1000
,
0020
0130
0110
0110
,
0110
0110
0110
0110
,
0100
0010
0100
0010
0200
0000
0000
0000
,
0302
0000
0013
0100
0010
0000
1001
0000
;

//---------------dance-single - ----------------
#NOTES:
     dance-single:
     :
     Easy:
     6:
     0.299228,0.353617,0.024642,0.328564,0.000000,212.000000,3.000000,40.000000,0.000000,0.000000,0.000000,0.299228,0.353617,0.024642,0.328564,0.000000,212.000000,3.000000,40.000000,0.000000,0.000000,0.000000:
0000
0000
0000
0000
,
0000
0000
0000
0000
,
0000
0000
0000
0000
,
0000
0000
0000
0000
,
1000
0000
0100
1000
,
0001
0000
0100
0001
,
1000
0000
0100
1000
,
0010
0010
0010
0010
,
1000
0000
0100
1000
,
0010
0000
0100
0001
,
0010
0000
0100
1000
,
0010
0000
0100
0010
,
1000
0000
0001
0010
,
0100
0000
1000
0010
,
0100
0000
0001
0010
,
0200
0000
0000
0300
,
1000
0000
0100
0100
,
0010
0000
0001
1000
,
0020
0030
0100
0001
,
1000
0000
0020
0030
0020
0000
0030
0000
,
1000
0000
0001
0001
,
0010
0000
0100
1000
,
0020
0030
0020
0030
,
0001
0000
0020
0030
0020
0000
0030
0000
,
0200
1300
0100
1000
,
0100
1000
0100
1000
,
0020
0130
0001
0100
,
0001
0100
0001
0100
,
0020
1030
0001
1000
,
0001
1000
0001
1000
,
0100
0100
0200
0000
,
0300
1000
0001
1001
,
0002
0003
0000
0000
0100
0000
0010
0000
,
2000
3000
2000
3000
0100
0000
0010
0000
,
0002
0000
0000
0003
0000
0000
0100
0000
,
0010
1000
0001
0100
,
0002
0003
0000
0000
0010
0000
0100
0000
,
2000
3000
2000
3000
0010
0000
0100
0000
,
0002
0000
0000
0003
1000
0000
0001
0000
,
0010
0010
0010
0010
,
0001
0100
0000
0100
,
0000
0010
0000
0010
,
1000
0100
0000
0100
,
0000
0010
0000
0010
,
0001
0010
0000
0010
,
0000
0100
0000
0100
,
1000
0010
0000
0010
,
0000
0010
0000
0100
,
0002
0003
0002
0003
2000
3000
2000
3000
,
0200
0300
1000
0010
,
0200
0000
0302
0000
0000
0003
0100
0000
,
0010
1000
0001
0010
,
0100
0200
0000
0000
,
0300
1001
0000
0100
,
0001
0100
1000
0100
,
0010
0000
0020
0030
,
0001
0000
0100
0100
,
0010
0000
1000
0001
,
0020
0030
0100
1000
,
0001
0000
0020
0030
0020
0000
0030
0000
,
0001
0000
1000
1000
,
0010
0000
0100
0001
,
0020
0030
0020
0030
,
1000
0000
0020
0030
0020
0000
0030
0000
,
0200
0301
0100
0001
,
0100
0001
0100
0001
,
0020
0130
1000
0100
,
1000
0100
1000
0100
,
0020
0130
0100
0100
,
0100
0100
0100
0100
,
0010
0100
0020
0000
,
0030
0001
1000
1001
;

//---------------dance-single - ----------------
#NOTES:
     dance-single:
     :
     Beginner:
     2:
     0.119691,0.176808,0.057499,0.000000,0.000000,95.000000,7.000000,0.000000,0.000000,0.000000,0.000000,0.119691,0.176808,0.057499,0.000000,0.000000,95.000000,7.000000,0.000000,0.000000,0.000000,0.000000:
0000
0000
0000
0000
,
0000
0000
0000
0000
,
0000
0000
0000
0000
,
0000
0000
0000
0000
,
1000
0000
0000
0000
,
0001
0001
0000
0000
,
1000
1000
0000
0000
,
1001
0000
0000
0000
,
1000
0000
0000
0000
,
0100
0000
0000
0000
,
1000
0000
0000
0000
,
0010
0000
0000
0000
,
0100
0000
0000
0000
,
0001
0000
0000
0000
,
0010
0000
0000
0000
,
0001
0000
0000
0000
,
1000
0000
0000
0000
,
0100
0000
0100
0000
,
0010
0000
0000
0000
,
0001
0010
0000
0000
,
0001
0000
0000
0000
,
0100
0000
0100
0000
,
0010
0000
0010
0000
,
1000
0010
0010
0000
,
1001
0000
0000
0000
,
0000
0000
0000
0000
,
0110
0000
0000
0000
,
0000
0000
0000
0000
,
1001
0000
0000
0000
,
0000
0000
0000
0000
,
1000
0001
1000
0001
,
0010
0000
0000
0000
,
0001
0000
0000
0000
,
1000
0000
0000
0000
,
0001
0000
0000
0000
,
1000
0100
0010
0001
,
1000
0000
0000
0000
,
0001
0000
0000
0000
,
1000
0000
0000
0000
,
0001
1000
0010
0100
,
0001
0000
0001
0000
,
0001
0000
0001
0000
,
1000
0000
1000
0000
,
1000
0000
1000
0000
,
0001
0000
0001
0000
,
0001
0000
0001
0000
,
1000
0000
1000
0000
,
0000
0000
0000
0000
,
1000
0000
0000
0000
,
0100
0000
0000
0000
,
0010
0000
0000
0000
,
0001
0000
0000
0000
,
0001
0000
0000
0000
,
0100
0000
0000
0000
,
0010
0000
0000
0000
,
1000
0000
0000
0000
,
0001
0000
0000
0000
,
0100
0000
0100
0000
,
0010
0000
0000
0000
,
1000
0010
0000
0000
,
1000
0000
0000
0000
,
0100
0000
0100
0000
,
0010
0000
0010
0000
,
0001
0010
0010
0000
,
1001
0000
0000
0000
,
0000
0000
0000
0000
,
0110
0000
0000
0000
,
0000
0000
0000
0000
,
1001
0000
0000
0000
,
0000
0000
0000
0000
,
0001
1000
0001
1000
,
0010
0000
0000
0010
;
