#TITLE:JUST A GAME;
#SUBTITLE:;
#ARTIST:VANESSA;
#TITLETRANSLIT:;
#SUBTITLETRANSLIT:;
#ARTISTTRANSLIT:;
#GENRE:;
#CREDIT:;
#MUSIC:Just A Game.ogg;
#BANNER:;
#BACKGROUND:;
#CDTITLE:;
#SAMPLESTART:74.101;
#SAMPLELENGTH:13.745;
#SELECTABLE:YES;
#OFFSET:-0.193;
#BPMS:0.000=133.139
,229.000=132.965
;
#STOPS:;
#BGCHANGES:;
#FGCHANGES:;

//--------------- dance-single - ----------------
#NOTES:
     dance-single:
     :
     Hard:
     11:
     0,0,0,0,0:
0000
0000
0000
0000
,
0000
0000
0000
0000
,
0000
0000
0000
0000
,
0000
0000
0000
0000
,
0000
0000
0000
1000
,
0100
0000
2000
0000
0000
0000
3010
0100
,
0010
2000
0000
0200
0000
3300
0010
0000
,
0001
0000
0100
0000
0010
0100
0010
1000
,
0001
0000
0010
0100
0000
0010
0001
0000
0100
0000
0001
0000
0001
0000
0100
0000
,
0010
0000
0000
1000
0000
0000
0100
0000
0000
0000
0010
0000
0001
0000
1000
0000
,
0010
0000
0000
1000
0000
0000
0010
0000
0000
0000
0100
0000
0010
0000
1000
0000
,
0100
0000
0000
1000
0000
0000
0001
0000
0000
0000
1000
0000
0100
0000
0010
0000
,
0001
1000
0001
0000
0010
0100
0010
0000
0000
0000
0001
0000
0100
0000
0010
0000
,
1000
0000
0000
0001
0000
0000
0100
0000
0000
0000
0010
0000
1000
0000
0100
0000
,
1000
0000
0000
0100
0000
0000
1000
0000
0000
0000
0010
0000
0100
0000
0010
0000
,
1000
0000
0000
0010
0000
0000
0100
0000
0000
0000
0001
0000
0010
0000
0001
0000
,
1000
0100
1000
0000
0001
0100
0001
0000
0100
0000
0100
0000
0010
0000
0110
0000
,
1000
1000
0100
0001
0100
1000
0010
0100
,
0002
0000
0013
0200
0000
1300
0001
1000
,
0100
0001
0100
1000
0010
0001
0010
1000
,
0010
0100
0001
0200
0000
0301
0100
1000
,
0100
0001
1000
0100
0001
0001
1000
0010
,
1000
0001
0010
0002
0000
0103
0010
2000
,
0000
3001
1000
0020
0000
0130
0001
0010
,
0001
0110
1001
0110
,
0001
1000
0100
0001
0100
1000
0010
0100
,
0002
0000
0103
0020
0000
1030
0010
0001
,
0010
1000
0100
1000
0001
0010
0100
1000
,
0010
1000
0001
1100
0000
1000
0001
0010
,
0001
0100
0001
0010
0001
0100
0001
1000
,
0200
0000
0310
0002
0000
0103
0010
1000
,
0002
0000
1003
0020
0000
0130
0010
1000
,
0002
0000
1003
0100
0001
0010
1000
0001
,
0100
1000
0100
0001
1000
0010
0100
0020
,
0000
1030
0100
0001
0100
1000
0010
2000
,
0000
3100
0010
0001
0100
0010
0100
0002
,
0000
0013
0001
0100
0010
1000
0100
1100
,
0000
1000
0001
0010
1000
0010
0001
0200
,
0000
0310
1000
0001
0100
0010
1000
2002
,
0000
0000
0000
3003
0000
0010
0100
0020
,
0000
0100
0100
0130
1000
0001
1000
0100
,
1100
0011
1100
0011
,
1000
0001
1000
0010
0000
0110
0000
1000
,
1010
0000
0010
0000
0110
0000
0100
0001
,
1000
0100
0010
0200
0000
1000
1300
0000
,
1010
0101
1010
0101
,
0001
0010
0100
1000
0000
1001
0000
0100
,
0110
0000
1000
0000
1100
0000
0100
0010
,
0100
1000
0001
0100
0001
0010
0001
1000
,
0100
0000
0000
0100
0000
0000
0001
0000
0000
0000
1000
0000
0100
0000
1000
0000
,
0010
0000
0000
0010
0000
0000
0001
0000
0000
0000
1000
0000
0100
0000
0010
0000
,
0100
0000
0000
0100
0000
0000
0001
0000
0000
0000
1000
0000
0010
0000
0100
0000
,
0001
1000
0001
0000
0100
0010
0100
0000
0001
0000
0100
0000
0010
0000
1000
0000
,
0100
0000
0000
0100
0000
0000
0001
0000
0000
0000
1000
0000
0100
0000
1000
0000
,
0010
0000
0000
0010
0000
0000
0001
0000
0000
0000
1000
0000
0010
0000
0100
0000
,
0010
0000
0000
0010
0000
0000
0001
0000
0000
0000
1000
0000
0010
0000
0100
0000
,
0001
0010
0100
0000
1000
0100
0010
0000
0001
0000
0001
0000
0100
0000
0100
0000
,
0010
0000
0110
0000
1000
0000
0001
0010
,
0001
0000
1000
0000
0110
0000
0001
0100
,
0001
0000
0100
0000
0110
0000
0100
0010
,
0100
0000
0000
0000
0001
0000
0000
0000
1100
0000
0000
0000
1000
0001
1000
0001
,
2000
0000
0000
0000
,
3000
0000
0000
0000
;
