#TITLE:Fantasy;
#SUBTITLE:(M.I.D. Mix);
#ARTIST:Virginelle;
#TITLETRANSLIT:;
#SUBTITLETRANSLIT:;
#ARTISTTRANSLIT:;
#CREDIT:;
#BANNER:;
#BACKGROUND:;
#LYRICSPATH:;
#CDTITLE:;
#MUSIC:Fantasy -MID Remix-.ogg;
#OFFSET:-0.616;
#SAMPLESTART:85.268;
#SAMPLELENGTH:12.000;
#SELECTABLE:YES;
#BPMS:0.000=136.080,46.000=136.074,47.000=136.080,92.000=136.074,93.000=136.080,136.000=136.074,137.000=136.080,184.000=136.074,185.000=136.080,224.000=399.998,224.500=269.999,225.000=250.000,225.250=225.000,225.500=200.000,225.750=160.000,226.000=118.000,226.250=91.000,226.500=71.514,226.625=44.994,226.750=70.094,226.750=66.554,227.000=90.094,227.250=119.994,227.500=131.000,227.750=181.320,228.000=205.000,228.250=221.680,228.500=260.000,229.000=305.992,234.000=308.087,235.000=304.826,236.000=305.927,239.000=300.000,242.000=304.247,245.000=297.367,247.000=297.336,248.000=301.792,251.000=293.908;
#STOPS:;
#BGCHANGES:;

//---------------dance-single - ----------------
#NOTES:
     dance-single:
     :
     Easy:
     6:
     0.255,0.289,0.045,0.027,0.036:
0000
0000
0000
0000
,
0000
0000
0000
0000
,
0000
0000
0000
0000
,
0000
0000
0000
0000
,
1000
0000
0000
0100
0000
0000
0010
0000
,
0001
0000
0000
0100
0000
0000
0000
0000
,
0001
0000
0000
0001
0000
0000
0100
0000
,
1000
0000
0000
1000
0000
0000
0000
0000
,
1000
0100
0001
0000
,
0001
1000
0001
0000
,
1000
0100
0001
0000
,
0001
0100
1000
0000
,
1000
0000
0010
0010
,
0100
0000
0001
0001
,
0010
0000
0100
0100
,
1000
0000
0010
0010
,
0110
0000
0001
1000
,
0100
0000
0001
0100
,
0010
0000
0001
1000
,
0010
0000
0100
0010
,
1000
0000
0000
0000
0000
0000
0000
0010
0000
0010
0000
0000
0100
0000
0000
0000
,
0001
0000
0000
0000
0000
0000
0000
0010
0000
0010
0000
0000
0100
0000
0000
0000
,
1000
0000
0000
0000
0000
0000
0000
0010
0000
0010
0000
0000
0100
0000
0000
0000
,
0001
0000
0010
0100
,
1000
0001
1000
1000
,
0000
0000
0000
0010
,
0100
0001
0001
1000
,
0020
0030
0100
0000
0100
0000
0001
0000
,
0000
1000
0100
1000
,
0100
0010
0001
0001
,
0001
0100
0010
1000
,
0001
0100
0010
1000
,
0001
0001
0001
0000
,
1000
1000
1000
0000
,
0100
0000
0010
0001
,
0100
0000
0000
0000
1000
0000
0000
0000
0100
0000
0000
0000
0000
0001
0000
1000
,
0000
0100
0100
0010
,
0100
1000
0010
0100
,
1000
0100
0001
0010
,
0100
0001
0100
1000
,
1001
0000
0001
0100
,
0010
0000
0010
1000
,
0001
0000
0010
0100
,
1000
0001
1000
0000
,
1001
0000
1000
0010
,
0001
0000
0001
0010
,
0100
0000
0100
0001
,
1000
0001
0100
0000
,
0001
0010
1000
1000
,
1000
0010
0001
0001
,
0001
0100
1000
1000
,
1000
0100
0001
0001
,
0010
0100
1000
1000
,
1000
0100
0010
0010
,
0010
0001
0100
0100
,
0100
0001
0010
0100
,
2002
0000
0000
0000
,
3003
0000
0000
0000
,
0000
0000
0000
0000
,
1000
0000
0010
0100
,
0000
0001
0010
0000
,
0100
1000
0000
0010
,
0100
0000
0001
1000
,
0000
0100
0110
0000
;

//---------------dance-single - ----------------
#NOTES:
     dance-single:
     :
     Medium:
     10:
     0.477,0.519,0.164,0.045,0.286:
0000
0000
0000
0000
,
0000
0000
0000
0000
,
0000
0000
0000
0000
,
0000
0000
0000
0000
,
1000
0000
1000
0100
0000
0100
0001
0100
,
0010
0000
0010
0001
0000
0000
0000
0001
,
0100
0000
0100
0010
0000
0010
1000
0100
,
1000
0000
0010
0000
0100
0000
0001
0000
0000
0000
0000
0000
0100
0000
0000
0100
,
0001
0000
0000
0000
0010
0000
0000
0000
0100
0000
0000
1000
0100
0000
0000
0000
,
1000
0000
0000
0000
0010
0000
0000
0000
0100
0000
0000
0001
0100
0000
0000
0000
,
0001
0000
0000
0000
0100
0000
0000
0000
0010
0000
0000
1000
0010
0000
0000
0000
,
1000
0000
0000
0000
0100
0000
0000
0000
0010
0000
0000
0001
0010
0000
0000
0000
,
0001
0000
0100
0000
0000
0010
0000
0000
1000
0000
0000
1000
0000
0000
1000
0100
,
0000
0000
0010
0000
0000
0001
0000
0000
0100
0000
0000
0100
0000
0000
0100
0010
,
0000
0000
1000
0000
0000
0001
0000
0000
0100
0000
0000
0100
0000
0000
0100
0010
,
0000
0000
1000
0000
0000
0010
0000
0000
0100
0000
0000
0100
0000
0000
0100
0001
,
1000
0000
0000
0000
0100
0000
0000
0000
0010
0000
0001
0010
0000
0000
0001
0000
,
1000
0000
0000
0000
0010
0000
0000
0000
0100
0000
0001
0100
0000
0000
0001
0000
,
1000
0000
0000
0000
0100
0000
0000
0000
0010
0000
0001
0010
0000
0000
0001
0000
,
1000
0000
0000
0000
0010
0000
0000
0000
0100
0000
0000
0001
0100
0000
0000
0000
,
0001
0000
1000
0000
0000
0000
0000
0100
0000
0100
0000
0000
1000
0000
1000
0000
,
0010
0000
0100
0000
0000
0000
0000
0001
0000
0001
0000
0000
1001
0000
0000
0000
,
0001
0000
1000
0000
0000
0000
0000
0100
0000
0100
0000
0000
0010
0000
0001
0000
,
1000
0000
0010
0000
0200
0000
0301
0100
,
0010
1000
0100
0100
1000
0001
0000
0000
,
0010
0000
0001
0000
1000
0100
0001
0100
,
0010
0001
2000
0000
3100
0100
1000
0001
,
0020
0030
0100
0100
1000
0100
0010
0000
,
0001
0010
0001
0100
0001
0010
0100
1000
,
0010
0000
1000
0000
0100
0000
0010
0000
0001
1000
0000
0001
0000
1000
0001
0000
,
0001
0000
0000
1000
0100
0000
0010
0000
0001
0000
0000
0000
0100
0000
0000
1000
,
0000
0000
0100
0000
0000
0010
0000
0000
1000
0000
0001
0000
1000
0000
0100
0000
,
0001
0000
0100
0100
0100
0000
1000
0001
,
1000
0000
0010
0010
0010
0000
0001
0010
,
1000
0000
0100
0000
0010
0001
0100
0010
,
1000
0000
0000
0100
0000
0000
0010
0000
0000
0001
0000
0000
0000
0010
0000
0100
,
0000
0100
1000
0000
0001
0000
1000
0000
0010
0000
0100
0000
1000
0000
0100
0000
,
0001
0000
0010
0001
0100
1000
0100
0001
,
0010
0100
0000
0000
1000
0000
0100
0000
1000
0000
0100
0000
0010
0000
0001
0000
,
1000
0010
1000
0010
0100
1000
0100
0001
,
1000
0000
1000
0100
1000
0100
0010
0001
,
0000
0000
0001
0001
0100
0010
1000
0001
,
0000
0010
0100
1000
0100
0001
0100
1000
,
0000
0010
0100
0001
0000
0001
1000
0001
,
0101
0000
0100
0100
0010
1000
0100
0010
,
0000
0000
0010
0010
0001
0100
0010
1000
,
0000
0000
0000
1000
0010
0001
0010
0100
,
0000
0000
0001
0000
0000
0000
1000
0000
0000
0000
0000
0000
0000
0000
0000
1000
,
0100
0000
0000
1000
0100
0000
0000
0010
0001
0000
0000
0000
1001
0000
0000
1000
,
0010
0000
0000
1000
0010
0000
0000
0100
0001
0000
0000
0000
1001
0000
0000
0001
,
0010
0000
0000
0001
0010
0000
0000
0100
1000
0000
0000
0000
1001
0000
0000
0001
,
0100
0000
0000
0001
0100
0000
0000
0010
1000
0000
0000
0000
1001
0000
0000
0001
,
0100
0000
0000
0100
0010
0000
0000
0010
1000
0000
0000
0000
1001
0000
0000
1000
,
0100
0000
0000
0100
0010
0000
0000
0010
0001
0000
0000
0000
1001
0000
0000
0001
,
0010
0000
0000
0010
0100
0000
0000
0100
1000
0000
0000
0000
1001
0000
0000
1000
,
0010
0000
0000
0010
0100
0000
0000
0100
0001
0000
0000
0000
1001
0000
0000
0000
,
0220
0000
0000
0000
,
0330
0000
0000
0000
,
0000
0000
0000
0000
,
1001
0000
0000
1000
0100
0000
0110
0000
,
0000
0010
0001
0000
0011
0000
0000
0001
,
0100
0000
0110
0000
0000
0010
1000
0000
,
1010
0000
0000
1000
0100
0000
0110
0000
,
0000
0010
0001
0000
1001
0000
0000
0000
;

//---------------dance-single - ----------------
#NOTES:
     dance-single:
     :
     Hard:
     14:
     0.713,0.895,0.118,0.036,0.868:
0000
0000
0000
0000
,
0000
0000
0000
0000
,
0000
0000
0000
0000
,
0000
0000
0000
0000
,
1000
0000
0010
0100
0000
1000
0100
0001
,
0010
0000
0010
0100
0000
0000
0000
0001
,
0100
0000
1000
0010
0000
0001
0010
1000
,
0100
0000
0001
0000
0100
0000
1000
0000
0010
0000
0000
0000
0010
1000
0000
0010
,
1000
0001
1000
0000
0001
1000
0001
0000
0100
0000
0001
1000
0000
0000
1000
0000
,
0100
0010
0100
0000
0010
0100
0010
0000
0001
0000
1000
0001
0000
0000
1000
0000
,
0001
1000
0001
0000
1000
0001
1000
0000
0100
0000
1000
0001
0000
0000
1000
0000
,
0010
0100
0010
0000
0100
0010
0100
0000
0001
0000
1000
0001
0000
0000
1000
0000
,
0001
1000
0010
0000
0000
0100
0000
0000
0001
0000
0000
0001
0000
1000
0001
1000
,
0000
0000
0010
0000
0000
0100
0000
0000
0001
0000
0000
0001
0000
0001
1000
0001
,
0000
0000
0010
0000
0000
0100
0000
0000
1000
0000
0000
1000
0000
1000
0100
1000
,
0000
0000
0010
0000
0000
0100
0000
0000
0001
0000
0000
0001
0000
0001
0010
0001
,
1000
0001
1000
0000
0001
1000
0001
0000
1000
0000
0100
1000
0000
0100
1000
0000
,
0100
0010
0100
0000
0010
0100
0010
0000
0001
0000
1000
0001
0000
1000
0001
0000
,
1000
0001
1000
0000
0001
1000
0001
0000
1000
0000
0010
0100
0000
0010
0100
0000
,
0010
0100
0010
0000
0100
0010
0100
0000
0001
0000
1000
0001
0000
1000
0001
0000
,
1000
0000
1001
0000
0000
0000
0001
1000
0000
0100
0000
1000
0001
1000
0001
0000
,
0100
0000
0101
0000
0000
0000
0000
1001
0000
1001
0000
0000
1100
0000
0000
0000
,
1000
0000
1010
0000
0000
0000
0000
0010
0000
0010
0000
0100
0001
0100
0001
0000
,
0010
0000
0011
0000
0000
0000
0000
0000
0001
0000
1000
0100
1000
0100
0010
0001
,
0010
0000
0100
1000
0001
1000
0000
1000
0000
1000
0010
0000
0000
0000
0000
0000
,
0100
0000
0000
0000
0001
0000
0000
0000
0010
0001
0000
1000
0000
1000
0001
1000
,
0010
0000
0100
0000
0001
1000
0000
0100
0000
0100
1000
0100
0000
0100
0010
0000
,
0002
0000
0013
0100
0000
0100
1000
0001
0000
0001
0100
0000
0001
1000
0100
1000
,
0000
0001
0100
0001
1000
0100
1000
0001
0010
0001
1000
0010
1000
0001
0010
0100
,
1000
0100
0010
0001
1000
0001
0100
0010
1000
0001
0000
0001
0000
1000
0001
0000
,
0010
0100
0000
1000
0010
0000
0100
0001
1000
0001
0100
0010
1000
0100
0010
0001
,
0100
0010
1000
0100
0010
0001
0100
0010
1000
0001
0000
0001
1000
0100
1000
0000
,
0001
0000
0100
1000
0000
0100
0000
0001
0000
0100
0010
0100
1000
0100
0010
0100
,
0001
0000
0010
1000
0000
0010
0100
1000
0001
1000
0010
1000
0000
0100
0010
0001
,
0100
0000
0100
0001
0010
0100
1000
0010
0100
0001
1000
0010
1000
0100
0010
0001
,
0100
0001
0010
0100
1000
0010
0100
0001
0010
0100
1000
0001
0000
0011
0000
1001
,
0000
0001
0010
0000
1000
0010
0001
1000
0000
0010
0100
1000
0100
0000
0001
1000
,
0001
0000
0010
0000
0001
0010
0001
0010
0100
1000
0100
1000
0000
0001
0000
0001
,
1000
0010
0000
0100
1000
0000
0100
0000
0001
1000
0100
0000
0010
0000
0001
1000
,
0100
1000
0001
0000
0100
0001
1000
0000
0010
1000
0010
1000
0001
0100
0001
0100
,
0010
0000
1000
0100
0001
0100
1000
0100
,
0010
0000
0001
0100
1000
0100
0001
0100
,
0010
0010
1000
1000
0100
0100
0001
0100
,
1000
0001
1000
0010
0001
0010
1000
0001
,
1001
0000
1000
0010
0001
0010
1000
0010
,
0100
0000
0001
0010
1000
0010
0001
0010
,
0100
0000
0000
0100
1000
0100
0010
0011
,
0000
1000
0000
0200
0000
0000
0000
0000
,
0310
0001
1000
0000
0010
1000
0001
0000
0100
0000
0010
1000
0000
0001
1000
0000
,
0010
1000
0001
0000
0010
0001
1000
0000
0010
0000
0100
0001
0000
1000
0001
0000
,
0010
0100
1000
0000
0010
0100
0001
0000
0010
0000
0100
1000
0000
0100
0010
0000
,
0001
0100
0010
0000
1000
0100
0010
0000
0001
0000
0100
0010
0000
1000
0010
0000
,
1000
0010
0100
0000
1000
0100
0010
0000
1000
0000
0100
0010
0000
0001
0100
0000
,
0010
1000
0100
0000
0010
0100
1000
0000
0001
0000
0100
0010
0000
1000
0100
0000
,
0001
0100
0010
0000
1000
0010
0100
0000
1000
0000
0010
0100
0000
1000
0100
0000
,
0010
0100
1000
0000
0100
0010
1000
0000
0100
0000
1000
0100
0000
0010
0001
0000
,
2002
0000
0000
0000
,
3003
0000
0000
0000
,
0000
0000
0000
0000
,
1000
0000
0001
0100
0010
0000
0001
0000
,
0010
0100
0001
0000
0001
0000
1000
0100
,
0010
0000
1000
0000
0010
0100
1000
0000
,
0010
0000
0100
1000
0100
0000
0001
0000
,
0010
1000
0010
0000
0011
0000
0000
0000
;

//---------------dance-single - ----------------
#NOTES:
     dance-single:
     :
     Beginner:
     3:
     0.161,0.231,0.027,0.000,0.000: // measure 1
0000
0000
0000
0000
,  // measure 2
0000
0000
0000
0000
,  // measure 3
0000
0000
0000
0000
,  // measure 4
0000
0000
0000
0000
,  // measure 5
1000
0000
0000
0000
,  // measure 6
0100
0000
0000
0000
,  // measure 7
0001
0000
0000
0000
,  // measure 8
0100
0000
0000
0000
,  // measure 9
0010
0000
0010
0000
,  // measure 10
0001
0000
0001
0000
,  // measure 11
1000
0000
1000
0000
,  // measure 12
0010
0000
0010
0000
,  // measure 13
1000
0000
1000
1000
,  // measure 14
0000
0000
0001
0001
,  // measure 15
0000
0000
0100
0100
,  // measure 16
0000
0000
0010
0010
,  // measure 17
0010
0000
1000
1000
,  // measure 18
1000
0000
0100
0100
,  // measure 19
0100
0000
0001
0001
,  // measure 20
0001
0000
0100
0100
,  // measure 21
0100
0000
1000
1000
,  // measure 22
1000
0000
0010
0010
,  // measure 23
0010
0000
0100
0100
,  // measure 24
0100
0000
0001
0001
,  // measure 25
0001
1000
1000
0000
,  // measure 26
0000
0000
0000
0000
,  // measure 27
1000
0000
0001
0001
,  // measure 28
0001
0000
0100
0100
,  // measure 29
0000
0010
0000
1000
,  // measure 30
0000
0100
0000
0001
,  // measure 31
0000
0100
0000
0010
,  // measure 32
0000
0001
0000
0100
,  // measure 33
0000
1000
0000
0100
,  // measure 34
0000
0010
0000
1000
,  // measure 35
0000
0001
0000
0010
,  // measure 36
0000
0001
0000
1000
,  // measure 37
0000
0100
0000
0100
,  // measure 38
0000
1000
0000
0010
,  // measure 39
0000
0100
0000
0001
,  // measure 40
0001
0001
0001
0001
,  // measure 41
1001
0000
0000
0000
,  // measure 42
1000
0000
0000
0000
,  // measure 43
0100
0000
0000
0000
,  // measure 44
0010
0000
0000
0010
,  // measure 45
0010
0000
0000
0000
,  // measure 46
0001
0000
0000
0000
,  // measure 47
0100
0000
0000
0000
,  // measure 48
0010
0000
0000
0000
,  // measure 49
1000
1000
1000
0000
,  // measure 50
0100
0100
0100
0000
,  // measure 51
0001
0001
0001
0000
,  // measure 52
0100
0100
0100
0000
,  // measure 53
1000
1000
1000
0000
,  // measure 54
0010
0010
0010
0000
,  // measure 55
0001
0001
0001
0000
,  // measure 56
0010
0010
0010
0000
,  // measure 57
1001
0000
0000
0000
,  // measure 58
0000
0000
0000
0000
,  // measure 59
0000
0000
0000
0000
,  // measure 60
1000
0000
0000
1000
,  // measure 61
0000
0000
0001
0000
,  // measure 62
0000
0001
0000
0000
,  // measure 63
0100
0000
0000
0010
,  // measure 64
0000
0000
0110
0000
;
