#TITLE:Dream drip macchiato;
#SUBTITLE:;
#ARTIST:BEMANI Sound Team "TAG";
#TITLETRANSLIT:;
#SUBTITLETRANSLIT:;
#ARTISTTRANSLIT:;
#GENRE:;
#CREDIT:;
#BANNER:[Week 2] - Dream drip macchiato.png;
#BACKGROUND:[Week 2] - Dream drip macchiato-bg.png;
#LYRICSPATH:;
#CDTITLE:[Week 2] - Dream drip macchiato-cdtitle.png;
#MUSIC:[Week 2] - Dream drip macchiato.ogg;
#OFFSET:-0.038000;
#SAMPLESTART:84.238869;
#SAMPLELENGTH:15.000000;
#SELECTABLE:YES;
#DISPLAYBPM:160.000000;
#BPMS:0.000000=160.000000
;
#STOPS:
;
#BGCHANGES:;
#KEYSOUNDS:;
#ATTACKS:;

//---------------dance-single - ----------------
#NOTES:
     dance-single:
     :
     Hard:
     12:
     0.534990,0.699343,0.435457,0.148055,0.195955,430.000000,380.000000,50.000000,17.000000,0.000000,0.000000,0.534990,0.699343,0.435457,0.148055,0.195955,430.000000,380.000000,50.000000,17.000000,0.000000,0.000000:
// measure 0
0000
0000
0000
0000
,  // measure 1
0000
0000
0000
0000
,  // measure 2
0000
0000
0000
0000
,  // measure 3
0000
0000
0000
0000
,  // measure 4
0000
0000
0000
0000
,  // measure 5
1000
1100
0001
0101
,  // measure 6
1000
1010
0001
0011
,  // measure 7
0010
0001
1000
0010
0100
0010
1000
0100
,  // measure 8
1000
0001
0010
0100
0010
0001
0100
0001
,  // measure 9
0101
0000
0000
0100
0000
0000
0010
0000
0000
1000
0000
0000
1010
0000
0000
0000
,  // measure 10
1100
0000
0000
0100
0000
0000
0010
0000
0000
0001
0000
0000
0011
0000
0000
0000
,  // measure 11
1010
0000
0000
0010
0000
0000
0100
0000
0000
0001
0000
0000
0101
0000
0000
0000
,  // measure 12
0011
0000
0000
0001
0000
0000
0010
0000
0000
0100
0000
0000
2000
0000
0000
0000
,  // measure 13
3010
0000
0000
0100
0000
0000
0001
0000
0000
0010
0000
0000
0110
0000
0000
0000
,  // measure 14
1001
0000
0000
0001
0000
0000
0010
0000
0000
0100
0000
0000
0110
0000
0000
0000
,  // measure 15
1100
0000
0000
0100
0000
0000
0010
0000
0000
0001
0000
0000
1001
0000
0000
0000
,  // measure 16
0002
0203
2300
3020
,  // measure 17
0031
0000
0000
0000
0001
0000
0000
0000
0001
0000
0000
1000
0000
0000
1000
0000
,  // measure 18
0000
0000
1000
0000
0010
0000
0000
0000
0010
0000
0000
0010
0000
0000
0100
0000
,  // measure 19
0100
0000
0000
0000
0100
0000
0000
0000
0001
0000
0000
0001
0000
0000
0001
0000
,  // measure 20
0000
0000
0010
0000
0010
0000
0000
0000
0010
0000
0000
0100
0000
0000
0100
0000
,  // measure 21
0100
0000
0000
0000
1000
0000
0000
0000
1000
0000
0000
1000
0000
0000
0001
0000
,  // measure 22
0000
0000
0001
0000
0001
0000
0000
0000
0010
0000
0000
0010
0000
0000
0010
0000
,  // measure 23
0100
0000
0000
0000
0100
0000
0000
0000
0100
0000
0000
0010
0000
0000
0010
0000
,  // measure 24
0000
0010
0001
1000
0000
0001
0100
0010
,  // measure 25
1000
0000
0100
0010
0000
0001
0010
0100
,  // measure 26
0000
1000
0000
0100
0010
0001
1000
0010
,  // measure 27
0100
0000
0001
0100
0000
0010
0000
1000
,  // measure 28
0000
0001
0000
0010
0000
0100
1000
0001
,  // measure 29
0100
0000
0010
0100
0000
0001
1000
0100
,  // measure 30
0000
0010
0000
0100
1000
0001
0100
0010
,  // measure 31
2000
0000
0000
0000
3000
0000
0100
0020
,  // measure 32
0000
0000
0000
0032
0000
0000
0000
0003
,  // measure 33
1000
0000
1000
0100
0001
0100
0000
0010
,  // measure 34
0000
0001
0100
1000
0000
0100
0001
0100
,  // measure 35
0010
0000
0010
1000
0100
1000
0000
0010
,  // measure 36
0000
0100
0001
0010
0000
0110
0000
1001
,  // measure 37
0001
0000
0001
0100
1000
0100
0000
0010
,  // measure 38
0000
1000
0010
0001
0000
0010
1000
0010
,  // measure 39
0100
0000
0100
0001
0010
0001
0000
0100
,  // measure 40
0000
0010
1000
0100
0000
0110
0000
1001
,  // measure 41
1000
0000
0000
0000
0100
0000
0000
0000
0010
0000
0000
0010
0001
0000
0100
0000
,  // measure 42
0010
0000
0000
0000
1000
0000
0000
0000
0001
0000
0000
0001
0100
0000
0010
1000
,  // measure 43
0010
0000
0000
0000
0100
0000
0000
0000
0010
0000
0000
0010
0100
0000
0001
0000
,  // measure 44
1000
0100
0000
0010
0001
0000
0000
0000
1000
0000
0001
0000
1000
0000
0010
0100
,  // measure 45
0010
0100
0001
0010
0100
1000
0010
0100
,  // measure 46
0010
1000
0100
0010
0001
0100
0010
0100
,  // measure 47
0001
0001
1000
1000
0100
0100
0010
0010
,  // measure 48
0001
0010
0000
0100
1000
0000
0001
0100
0000
0010
1000
0000
0002
0000
0003
0000
,  // measure 49
1001
0000
0000
0000
1001
0000
0000
0000
1100
0000
0000
1100
0000
0000
1100
0000
,  // measure 50
0000
0000
0110
0000
0110
0000
0000
0000
0011
0000
0000
0011
0000
0000
0011
0000
,  // measure 51
1001
0000
0000
0000
1001
0000
0000
0000
1010
0000
0000
1010
0000
0000
1010
0000
,  // measure 52
0000
0000
0110
0000
0110
0000
0000
0000
0101
0000
0000
0101
0000
0000
0101
0000
,  // measure 53
1001
0000
0000
0000
1001
0000
0000
0000
0110
0000
0000
0110
0000
0000
0110
0000
,  // measure 54
0000
0000
0000
0000
0001
0000
0000
0000
0100
0000
0000
0000
0010
0000
0000
0000
1000
0000
0000
0000
0001
0000
0000
0000
0100
0000
0000
0000
0000
0000
0000
0000
0000
0100
0000
0000
0000
0000
0000
0000
0000
0000
0100
0000
0000
0000
0000
0000
,  // measure 55
0110
0000
0000
0000
0110
0000
0000
0000
1001
0000
0000
1001
0000
0000
1001
0000
,  // measure 56
1000
0100
0010
0001
0000
0001
0100
0010
,  // measure 57
1000
0100
1000
0010
0100
0001
0010
0100
,  // measure 58
0010
0001
1000
0010
0100
0100
0010
0010
,  // measure 59
1000
0100
0010
0001
1000
0001
0100
0010
,  // measure 60
1000
0001
1000
0100
0010
0001
1000
0001
,  // measure 61
0100
0100
0010
0010
1000
0001
0010
0100
,  // measure 62
0010
0001
0001
1000
1000
0100
0010
0001
,  // measure 63
2000
0000
0000
0000
0010
0000
0000
0000
3002
0000
0000
0010
0000
0000
0013
0000
,  // measure 64
0000
0000
0100
0000
0200
0000
0000
0000
1000
0000
0000
1000
0000
0000
1300
0000
,  // measure 65
0100
0000
0010
0001
1000
0001
0000
0100
,  // measure 66
0000
0100
0010
1000
0000
0100
0010
0001
,  // measure 67
0010
0000
0100
1000
0001
1000
0000
0010
,  // measure 68
0000
0010
0100
0001
0000
1000
0000
0100
,  // measure 69
0020
0000
0000
0032
0000
0000
0000
0203
,  // measure 70
0000
0000
0000
0320
0000
0000
0000
2000
,  // measure 71
0000
0000
0000
0000
,  // measure 72
0000
0000
0000
0000
,  // measure 73
3030
0000
0000
0000
;

//---------------dance-single - ----------------
#NOTES:
     dance-single:
     :
     Medium:
     9:
     0.357074,0.476825,0.000000,0.200310,0.152410,287.000000,287.000000,0.000000,23.000000,0.000000,0.000000,0.357074,0.476825,0.000000,0.200310,0.152410,287.000000,287.000000,0.000000,23.000000,0.000000,0.000000:
// measure 0
0000
0000
0000
0000
,  // measure 1
0000
0000
0000
0000
,  // measure 2
0000
0000
0000
0000
,  // measure 3
0000
0000
0000
0000
,  // measure 4
0000
0000
0000
0000
,  // measure 5
1000
0000
1000
0000
0100
0010
0100
0000
,  // measure 6
0010
0000
0010
0000
0001
0010
0001
0000
,  // measure 7
1000
1000
0010
0100
0001
0010
0010
0000
,  // measure 8
0100
0010
0100
0010
0200
0000
0300
0000
,  // measure 9
1000
0000
0000
0100
0000
0000
0010
0000
0000
0001
0000
0000
1000
0000
0000
0000
,  // measure 10
0001
0000
0000
0100
0000
0000
0010
0000
0000
1000
0000
0000
0001
0000
0000
0000
,  // measure 11
1000
0000
0000
0010
0000
0000
0100
0000
0000
0001
0000
0000
1000
0000
0000
0000
,  // measure 12
0001
0000
0000
0010
0000
0000
0100
0000
0000
1000
0000
0000
0100
0000
0010
0000
,  // measure 13
0100
0000
0000
1000
0000
0000
0001
0000
0000
0100
0000
0000
0010
0000
0000
0000
,  // measure 14
0100
0000
0000
0001
0000
0000
1000
0000
0000
0100
0000
0000
0010
0000
0000
0000
,  // measure 15
0001
0000
0000
0100
0000
0000
0010
0000
0000
1000
0000
0000
0100
0000
0000
0000
,  // measure 16
0010
0001
1000
0100
,  // measure 17
1000
0000
0000
0000
0001
0000
0000
0000
1000
0000
0000
1000
0000
0000
1000
0000
,  // measure 18
0000
0000
0001
0000
0001
0000
0000
0000
0100
0000
0000
0001
0000
0000
0100
0000
,  // measure 19
0010
0000
0000
0000
0010
0000
0000
0000
0100
0000
0000
0100
0000
0000
0100
0000
,  // measure 20
0000
0000
0010
0000
0010
0000
0000
0000
1000
0000
0000
0100
0000
0000
1000
0000
,  // measure 21
0100
0000
0000
0000
0100
0000
0000
0000
0010
0000
0000
0010
0000
0000
0010
0000
,  // measure 22
0000
0000
0001
0000
0001
0000
0000
0000
1000
0000
0000
0010
0000
0000
1000
0000
,  // measure 23
0001
0000
0000
0000
0010
0000
0000
0000
0100
0000
0000
0100
0000
0000
0100
0000
,  // measure 24
0000
0000
1000
0000
1000
0000
0000
0000
0001
0000
0000
0100
0000
0000
0001
0000
,  // measure 25
1000
0000
0100
0010
0000
0001
0010
0001
,  // measure 26
0000
0010
0000
0100
1000
0100
1000
0000
,  // measure 27
0001
0000
0100
0010
0000
1000
0000
0001
,  // measure 28
0000
1000
0000
0100
0000
0010
0001
0000
,  // measure 29
1000
0000
0010
0100
0000
0001
0100
0001
,  // measure 30
0000
0010
0000
0100
1000
0000
0100
0000
,  // measure 31
0020
0000
0000
0000
0030
0000
0000
0002
,  // measure 32
0000
0000
0000
2000
0000
0000
3003
0000
,  // measure 33
2000
0000
0000
0000
0000
0000
0000
3200
,  // measure 34
0000
0000
0000
0000
,  // measure 35
0320
0000
0000
0000
0000
0000
0000
0032
,  // measure 36
0000
0000
0000
0000
,  // measure 37
0203
0000
0000
0000
0000
0000
0000
0320
,  // measure 38
0000
0000
0000
1000
0000
0000
0000
0000
,  // measure 39
2030
0000
0000
0000
0000
0000
0000
3002
,  // measure 40
0000
0000
0000
0010
0000
0000
0000
0000
,  // measure 41
0013
0010
0001
0001
,  // measure 42
1000
1000
0010
0010
,  // measure 43
0100
0100
0010
0010
,  // measure 44
1000
1000
0001
0001
,  // measure 45
1000
0100
1000
0000
0100
0010
0100
0000
,  // measure 46
0010
0001
0010
0000
0001
1000
0001
0000
,  // measure 47
1000
0100
0010
0001
0100
0010
1000
0001
,  // measure 48
1000
0000
0000
1000
0000
0000
0001
0000
0000
0001
0000
0000
0020
0000
0000
0000
,  // measure 49
0130
0000
0000
0000
0100
0000
0000
0000
1000
0000
0000
1000
0000
0000
1000
0000
,  // measure 50
0000
0000
1000
0000
0001
0000
0000
0000
0001
0000
0000
0001
0000
0000
0001
0000
,  // measure 51
0100
0000
0000
0000
0100
0000
0000
0000
0010
0000
0000
0010
0000
0000
0010
0000
,  // measure 52
0000
0000
0010
0000
0100
0000
0000
0000
0100
0000
0000
0100
0000
0000
0100
0000
,  // measure 53
0010
0000
0000
0000
1000
0000
0000
0000
0001
0000
0000
0001
0000
0000
0001
0000
,  // measure 54
0000
0000
0000
0000
1000
0000
0000
0000
0001
0000
0000
0000
1000
0000
0000
0000
0001
0000
0000
0000
1000
0000
0000
0000
0001
0000
0000
0000
0000
0000
0000
0000
0000
0010
0000
0000
0000
0000
0000
0000
0000
0000
0010
0000
0000
0000
0000
0000
,  // measure 55
0100
0000
0000
0000
0100
0000
0000
0000
0010
0000
0000
0010
0000
0000
0010
0000
,  // measure 56
0001
0000
1000
0001
0000
1000
0100
0000
,  // measure 57
0010
0000
0001
0010
0000
0001
0010
0001
,  // measure 58
0000
0010
0000
0100
1000
0000
0100
0000
,  // measure 59
0010
0000
0100
1000
0000
0100
0000
1000
,  // measure 60
0000
0010
0000
0100
0000
0001
0100
0000
,  // measure 61
0010
0000
0100
0001
0000
0010
0001
0010
,  // measure 62
0000
0100
0000
0010
0001
0000
1000
0000
,  // measure 63
0020
0000
0000
0000
0000
0000
0000
0230
,  // measure 64
0000
0000
0000
0302
0000
0000
0000
0000
,  // measure 65
1003
0000
0100
0010
0200
0000
0000
0310
,  // measure 66
0000
0001
1000
0001
0000
1000
0100
1000
,  // measure 67
0100
0000
0010
0100
0020
0000
0000
0031
,  // measure 68
0000
1000
0010
1000
0000
0010
0000
0100
,  // measure 69
0002
0000
0000
2003
0000
0000
0000
3200
,  // measure 70
0000
0000
0000
0320
0000
0000
0000
0002
,  // measure 71
0000
0000
0000
0000
,  // measure 72
0000
0000
0000
0000
,  // measure 73
0033
0000
0000
0000
;

//---------------dance-single - ----------------
#NOTES:
     dance-single:
     :
     Easy:
     5:
     0.200310,0.317883,0.034837,0.200310,0.000000,161.000000,157.000000,4.000000,23.000000,0.000000,0.000000,0.200310,0.317883,0.034837,0.200310,0.000000,161.000000,157.000000,4.000000,23.000000,0.000000,0.000000:
// measure 0
0000
0000
0000
0000
,  // measure 1
0000
0000
0000
0000
,  // measure 2
0000
0000
0000
0000
,  // measure 3
0000
0000
0000
0000
,  // measure 4
0000
0000
0000
0000
,  // measure 5
1000
0001
1000
0000
,  // measure 6
0010
0100
0010
0000
,  // measure 7
1000
0100
1000
0000
,  // measure 8
0001
0100
0001
0000
,  // measure 9
0100
0100
0100
0100
,  // measure 10
0010
0010
0010
0010
,  // measure 11
1000
1000
1000
1000
,  // measure 12
0001
0001
0001
0002
,  // measure 13
0013
0100
0010
0100
,  // measure 14
1000
0100
1000
0100
,  // measure 15
0010
0100
0010
0100
,  // measure 16
0010
0001
0010
0001
,  // measure 17
1000
1000
0020
0030
,  // measure 18
0100
0100
0002
0003
,  // measure 19
0010
0010
0200
0300
,  // measure 20
1000
1000
0200
0300
,  // measure 21
0010
0010
0200
0300
,  // measure 22
1000
1000
0002
0003
,  // measure 23
0001
0001
2000
3000
,  // measure 24
0100
0100
0020
0030
,  // measure 25
1000
0100
1000
0000
,  // measure 26
0001
0100
0001
0000
,  // measure 27
0100
0010
0100
0000
,  // measure 28
0010
1000
0010
0000
,  // measure 29
0100
0001
0100
0000
,  // measure 30
0001
0010
0001
0001
,  // measure 31
2000
0000
0000
0000
,  // measure 32
3002
0000
0000
0000
,  // measure 33
0103
0000
0000
0000
,  // measure 34
0000
0000
0000
0000
,  // measure 35
0010
0000
0000
0000
,  // measure 36
0000
0000
0000
0000
,  // measure 37
1000
0000
0000
0000
,  // measure 38
0000
0000
0000
0000
,  // measure 39
0001
0000
0000
0000
,  // measure 40
0000
0000
0000
0000
,  // measure 41
1000
0000
1000
0000
,  // measure 42
0001
0000
0001
0000
,  // measure 43
0010
0000
0010
0000
,  // measure 44
0100
0000
0100
0000
,  // measure 45
1000
1000
1000
1000
,  // measure 46
0100
0100
0100
0100
,  // measure 47
0010
0010
0001
0001
,  // measure 48
1000
0100
0010
0001
,  // measure 49
2002
0000
0000
0000
,  // measure 50
0000
0000
3003
0000
,  // measure 51
0220
0000
0000
0000
,  // measure 52
0000
0000
0330
0000
,  // measure 53
2002
0000
0000
0000
,  // measure 54
0000
0000
3003
0000
,  // measure 55
0220
0000
0000
0000
,  // measure 56
0000
0000
0330
0000
,  // measure 57
1000
1000
0100
0100
,  // measure 58
0010
0010
0001
0001
,  // measure 59
0100
0010
1000
0001
,  // measure 60
0010
0100
1000
0100
,  // measure 61
0010
0001
1000
0001
,  // measure 62
0100
0010
1000
0001
,  // measure 63
0020
0000
0000
0000
,  // measure 64
0230
0000
0000
0000
,  // measure 65
1300
0000
0100
0000
,  // measure 66
0010
0000
0001
0000
,  // measure 67
0100
0000
0010
0000
,  // measure 68
1000
0000
0001
0000
,  // measure 69
0020
0000
0000
0000
,  // measure 70
0000
0000
0000
0000
0000
0000
0000
0230
,  // measure 71
0000
0000
0000
0000
,  // measure 72
0000
0000
0000
0000
,  // measure 73
0300
0000
0000
0000
;

//---------------dance-single - ----------------
#NOTES:
     dance-single:
     :
     Beginner:
     2:
     0.100777,0.222518,0.008709,0.121928,0.000000,81.000000,80.000000,1.000000,14.000000,0.000000,0.000000,0.100777,0.222518,0.008709,0.121928,0.000000,81.000000,80.000000,1.000000,14.000000,0.000000,0.000000:
// measure 0
0000
0000
0000
0000
,  // measure 1
0000
0000
0000
0000
,  // measure 2
0000
0000
0000
0000
,  // measure 3
0000
0000
0000
0000
,  // measure 4
0000
0000
0000
0000
,  // measure 5
1000
1000
1000
0000
,  // measure 6
0001
0001
0001
0000
,  // measure 7
0100
0000
0100
0000
,  // measure 8
0010
0000
0010
0000
,  // measure 9
1000
0000
0000
0000
,  // measure 10
1000
0000
0000
0000
,  // measure 11
0001
0000
0000
0000
,  // measure 12
0001
0000
0000
0000
,  // measure 13
0010
0000
0000
0000
,  // measure 14
0010
0000
0000
0000
,  // measure 15
0100
0000
0000
0000
,  // measure 16
0100
0000
0000
0000
,  // measure 17
1000
0000
0001
0000
,  // measure 18
1000
0000
0000
0000
,  // measure 19
0001
0000
1000
0000
,  // measure 20
0001
0000
0000
0000
,  // measure 21
0100
0000
0010
0000
,  // measure 22
0100
0000
0000
0000
,  // measure 23
0010
0000
0100
0000
,  // measure 24
0010
0000
0000
0000
,  // measure 25
0200
0000
0300
0000
,  // measure 26
0020
0000
0030
0000
,  // measure 27
2000
0000
3000
0000
,  // measure 28
0002
0000
0003
0000
,  // measure 29
0010
0000
0100
0000
,  // measure 30
1000
0000
0100
0000
,  // measure 31
0020
0000
0030
0000
,  // measure 32
0002
0000
0003
0000
,  // measure 33
1000
0000
0000
0000
,  // measure 34
0000
0000
0000
0000
,  // measure 35
0001
0000
0000
0000
,  // measure 36
0000
0000
0000
0000
,  // measure 37
1000
0000
0000
0000
,  // measure 38
0000
0000
0000
0000
,  // measure 39
0001
0000
0000
0000
,  // measure 40
0000
0000
0000
0000
,  // measure 41
0010
0000
0010
0000
,  // measure 42
0010
0000
0000
0000
,  // measure 43
0100
0000
0100
0000
,  // measure 44
0100
0000
0000
0000
,  // measure 45
1000
1000
1000
0000
,  // measure 46
0001
0001
0001
0000
,  // measure 47
1000
0000
0001
0000
,  // measure 48
0100
0000
0010
0000
,  // measure 49
2000
0000
0000
0000
,  // measure 50
3000
0000
0000
0000
,  // measure 51
0002
0000
0000
0000
,  // measure 52
0003
0000
0000
0000
,  // measure 53
0200
0000
0000
0000
,  // measure 54
0300
0000
0000
0000
,  // measure 55
0020
0000
0000
0000
,  // measure 56
0030
0000
0000
0000
,  // measure 57
1000
0000
0100
0000
,  // measure 58
1000
0000
0000
0000
,  // measure 59
0001
0000
0100
0000
,  // measure 60
0001
0000
0000
0000
,  // measure 61
1000
0000
0010
0000
,  // measure 62
1000
0000
0000
0000
,  // measure 63
0001
0000
0010
0000
,  // measure 64
0001
0000
1000
0000
,  // measure 65
0020
0000
0000
0000
,  // measure 66
0030
0000
0000
0000
,  // measure 67
0200
0000
0000
0000
,  // measure 68
0300
0000
0000
0000
,  // measure 69
2002
0000
0000
0000
,  // measure 70
0000
0000
0000
0000
,  // measure 71
0000
0000
0000
0000
,  // measure 72
0000
0000
0000
0000
,  // measure 73
3003
0000
0000
0000
;
