#TITLE:Don't Mean A Thing;
#SUBTITLE:;
#ARTIST:Borialis;
#TITLETRANSLIT:;
#SUBTITLETRANSLIT:;
#ARTISTTRANSLIT:;
#GENRE:;
#CREDIT:;
#BANNER:Don't Mean A Thing.png;
#BACKGROUND:Don't Mean A Thing-bg.png;
#LYRICSPATH:;
#CDTITLE:;
#MUSIC:Don't Mean A Thing.ogg;
#OFFSET:-0.060000;
#SAMPLESTART:60.191422;
#SAMPLELENGTH:18.491760;
#SELECTABLE:YES;
#BPMS:0.000000=103.830002
,145.500000=87.500000
;
#STOPS:
;
#BGCHANGES:;
#KEYSOUNDS:;
#ATTACKS:;

//---------------dance-single - ----------------
#NOTES:
     dance-single:
     :
     Challenge:
     13:
     0.572800,0.575886,0.197517,0.019752,0.720938,406.000000,386.000000,20.000000,2.000000,19.000000,0.000000,0.572800,0.575886,0.197517,0.019752,0.720938,406.000000,386.000000,20.000000,2.000000,19.000000,0.000000:
// measure 0
0000
0000
0000
0000
,  // measure 1
0000
0000
0000
0000
,  // measure 2
0001
0001
0100
1000
1000
0100
0101
0000
,  // measure 3
1000
0000
0010
0000
1000
0001
0000
0010
0100
0000
1000
0000
0010
0100
0001
0000
,  // measure 4
0010
0000
0100
0000
0100
0000
0010
0001
0000
1000
0000
0010
0100
0000
0010
1000
,  // measure 5
0000
0010
0100
0000
0000
0100
0001
0010
0100
0000
0100
0010
0001
1000
0001
0000
,  // measure 6
1000
1000
0100
0001
0001
0100
1100
0000
,  // measure 7
0001
0000
0010
0000
0001
1000
0000
0010
0100
0000
0001
0000
0010
0100
1000
0000
,  // measure 8
0001
0000
1000
0100
0000
M100
0001
1000
0001
1000
0001
0100
0000
010M
1000
0001
,  // measure 9
1000
0001
1000
0100
0000
M100
0001
1000
0001
0000
0010
0100
1000
0001
1000
0000
,  // measure 10
0010
0000
0010
0000
1000
0001
0000
0010
0100
0000
0100
0000
1000
0001
0000
0100
,  // measure 11
0010
0000
0000
0100
0000
0000
0001
0000
0000
0000
0000
0000
0010
0000
0000
0100
0000
0000
0000
0000
0000
0010
0000
0000
0001
0000
1000
0000
0100
0000
0010
0000
0001
0000
1000
0000
0100
0000
0000
0010
0000
0000
0001
0000
0000
0100
0000
0000
,  // measure 12
0010
0000
0100
0000
0001
0000
0010
0000
0100
1000
0001
0000
0100
0000
1000
0000
,  // measure 13
0100
0001
1000
0000
0100
0000
0001
0000
0100
1000
0001
0000
0100
0000
1000
0000
,  // measure 14
0100
0001
1000
0000
0010
0000
1000
0001
0000
0010
0100
0000
1100
0000
0101
0000
,  // measure 15
1000
0100
1000
0000
0101
0000
1100
0000
0101
0000
1000
0100
1100
0000
0101
0000
,  // measure 16
0001
1000
0010
0000
0100
0000
0001
0010
0100
0000
0010
0001
1000
0000
0001
0000
,  // measure 17
0010
0100
1000
0010
0000
1000
0100
0010
0000
0001
1000
0000
0010
0000
1000
0000
,  // measure 18
0001
0000
0010
0000
0100
0010
0001
0000
1000
0100
0010
0001
0100
0000
0100
0001
,  // measure 19
1000
0100
MMMM
0000
0001
0010
0100
1000
MMMM
0000
1000
0100
0010
0001
0100
0000
,  // measure 20
0010
0100
0001
0000
0101
0000
0010
0100
0101
0000
0010
0100
0001
0000
0101
0000
,  // measure 21
0010
0100
0001
0010
0100
0000
0010
0001
1000
0001
0010
0000
MMMM
0000
1001
0000
,  // measure 22
1000
0100
0010
0001
0100
0000
0010
0100
0001
0010
0100
1000
0001
0000
1000
0001
,  // measure 23
0010
0000
0100
0010
0001
1000
0010
0100
0000
0010
0100
0001
0010
0100
1000
0001
,  // measure 24
0100
0000
0100
0000
0001
1000
0000
0100
0010
0000
0010
0000
0001
1000
0000
0010
,  // measure 25
0100
0000
0000
0010
0000
0000
1000
0000
0000
0000
0000
0000
0100
0000
0000
0010
0000
0000
0000
0000
0000
0100
0000
0000
1000
0000
0001
0000
0010
0000
0100
0000
1000
0000
0001
0000
0010
0000
0000
0010
0000
0000
0001
0000
0000
0001
0000
0000
,  // measure 26
1000
0010
0100
0000
1000
0000
0100
0010
1000
0000
0001
0010
0100
0000
1000
0000
,  // measure 27
0100
0010
0001
1000
0010
0100
1000
0100
0010
1000
0001
0010
0100
1000
0001
0000
,  // measure 28
0100
0000
010M
1000
0000
0001
0100
0000
010M
1000
0000
0001
0100
0000
0010
0100
,  // measure 29
0000
0010
0001
0000
1000
0100
0000
0010
1000
0000
0001
0000
0010
0100
1000
0000
,  // measure 30
0001
0000
1000
0000
0010
0000
1000
0001
0010
0000
0010
0001
1000
0000
0010
0000
,  // measure 31
1000
0001
0010
0100
0000
0011
0000
1100
0000
0001
0010
0100
1000
0001
1000
0000
,  // measure 32
0100
0000
M100
0001
0000
1000
0100
0000
M100
0001
0000
1000
0100
0000
0010
0100
,  // measure 33
0000
0010
1000
0000
0001
0100
0000
0010
0001
0000
1000
0000
0100
0010
0001
1000
,  // measure 34
0010
0000
0010
0000
1000
0001
0000
0010
0100
0000
0100
0000
1000
0001
0000
0100
,  // measure 35
0010
0000
0010
0000
1000
0001
0000
0010
0100
0000
0100
1000
0001
1000
0100
0010
,  // measure 36
0011
0011
1000
0110
0110
0000
2002
0000
,  // measure 37
0000
0000
0000
0000
,  // measure 38
0000
0000
0000
0000
0000
0000
0000
3003
;
