#VERSION:0.83;
#TITLE:99 Glooms;
#SUBTITLE:;
#ARTIST:Sta;
#TITLETRANSLIT:;
#SUBTITLETRANSLIT:;
#ARTISTTRANSLIT:;
#GENRE:;
#CREDIT:;
#MUSIC:99 Glooms.ogg;
#BANNER:99 Glooms.png;
#BACKGROUND:99 Glooms-bg.png;
#CDTITLE:;
#SAMPLESTART:107.677;
#SAMPLELENGTH:15.000;
#SELECTABLE:YES;
#OFFSET:1.296;
#BPMS:0.000=185.000;
#STOPS:;
#BGCHANGES:;
#FGCHANGES:;

//--------------- dance-single - Talkion ----------------
#NOTEDATA:;
#STEPSTYPE:dance-single;
#DESCRIPTION:Talkion;
#DIFFICULTY:Beginner;
#METER:5;
#RADARVALUES:0,0,0,0,0;
#NOTES:
0000
0000
0000
0000
,
0000
0000
0000
0000
,
0000
0000
0000
0000
,
0000
0000
0000
0000
,
0001
0000
0000
0000
,
0001
0000
0000
0000
,
1000
0000
0000
0000
,
1000
0000
1000
0000
,
1000
0000
0000
0000
,
0001
0000
0000
0000
,
1000
0000
0000
0000
,
0001
0000
0001
0000
,
0001
0000
0000
0000
,
0100
0000
0000
0000
,
0100
0000
0000
0000
,
0010
0000
0010
0000
,
0010
0000
0000
0000
,
1000
0000
0000
0000
,
0200
0000
0300
0000
,
0010
0010
0010
0000
,
0002
0003
2000
3000
,
0020
0030
0200
0300
,
0002
0000
0000
0000
,
1000
1000
1003
0000
,
0200
0000
0000
0300
,
0020
0000
0000
0030
,
0002
0000
0000
0000
,
1000
1000
1003
0000
,
2000
3000
0002
0003
,
0020
0030
0200
0300
,
2000
0000
0000
0000
,
0001
0001
3001
0000
,
0200
0000
0000
0300
,
0020
0000
0000
0030
,
1000
0000
1000
0000
,
0001
0001
0100
0100
,
0000
0000
0000
0000
,
0000
0000
0000
0000
,
0000
0000
0000
0000
,
0000
0000
0000
0000
,
0000
0000
0000
0000
,
0000
0000
0000
0000
,
0000
0000
0000
0000
,
0000
0000
0000
0000
,
0001
0000
0000
0001
0000
0000
0001
0000
,
0000
0001
0000
0000
0000
0000
0000
0000
,
1000
0000
0000
1000
0000
0000
1000
0000
,
0000
1000
0000
0000
0000
0000
0000
0000
,
0010
0000
0000
0010
0000
0000
0010
0000
,
0000
0010
0000
0000
0000
0000
0000
0000
,
0110
0000
0000
0000
,
1001
0000
0000
0000
,
0001
0000
0001
0000
,
0000
0000
0001
0000
,
1000
0000
1000
0000
,
0000
0000
1000
0000
,
0010
0000
0010
0000
,
0000
0000
0010
0000
,
0100
0000
0100
0000
,
0100
0000
0000
0000
,
0001
0000
0001
0000
,
0001
0000
0001
0000
,
0100
0000
0001
0000
,
1000
1000
1000
0000
,
0100
0000
0100
0000
,
0100
0000
0100
0000
,
1000
0000
0001
0000
,
0100
0100
0100
0000
,
0010
0000
0010
0000
,
0010
0000
0010
0000
,
1000
0000
0001
0000
,
0010
0010
0010
0000
,
0100
0000
0100
0000
,
0010
0000
0010
0000
,
0001
0000
1000
0000
,
0001
0001
0001
0000
,
2000
0000
0000
3000
,
0020
0000
0000
0030
,
0200
0000
0000
0300
,
0002
0000
0000
0003
,
0020
0000
0000
0030
,
0200
0000
0000
0300
,
2000
0000
0000
3000
,
0002
0000
0000
0003
,
2000
3000
0020
0030
,
0200
0300
0002
0003
,
2000
0000
0100
0000
,
0100
0100
3100
0000
,
0010
0000
0010
0000
,
0001
0001
0001
0000
,
0100
0000
0100
0000
,
0010
0010
0010
0000
,
2000
3000
0200
0300
,
0020
0030
0002
0003
,
2000
0000
0010
0000
,
0010
0010
3010
0000
,
0100
0000
0100
0000
,
0001
1000
0001
1000
,
0010
0000
0000
0000
,
0220
0000
0330
0000
,
1000
0000
0000
0001
0000
0000
0000
0000
,
0001
0000
0000
1000
0000
0000
0000
0000
,
1000
0000
0000
0001
0000
0000
0000
0000
,
0100
0000
0000
0010
0000
0000
0200
0000
,
0000
0000
0000
0000
,
0300
0000
0000
0000
;

//--------------- dance-single - Talkion ----------------
#NOTEDATA:;
#STEPSTYPE:dance-single;
#DESCRIPTION:Talkion;
#DIFFICULTY:Easy;
#METER:10;
#RADARVALUES:0,0,0,0,0;
#NOTES:
0000
0000
0000
0000
,
0000
0000
0000
0000
,
0000
0000
0000
0000
,
0000
0000
0000
0000
,
0002
0000
0010
0013
,
0100
1000
0100
0010
,
0002
0000
0100
0103
,
0010
1000
0001
1000
,
0200
0000
0010
0310
,
0001
0010
0100
1000
,
0002
0000
1000
1003
,
0010
0000
0100
0000
0001
0000
1000
0001
,
2000
0000
0100
3100
,
0010
0001
0010
0100
,
2000
0000
0010
3010
,
0100
0001
1000
0001
,
0020
0000
0100
0130
,
1000
0100
0010
0001
,
2000
0001
0001
3001
,
0100
0010
0100
0010
0100
0010
0100
0000
,
0002
0000
0010
0000
,
1000
0000
0100
0000
,
0013
0100
1000
0100
,
0010
0001
0010
0000
0001
1000
0001
1000
,
0020
0000
0100
0130
,
0001
1000
0100
0010
,
0002
0000
1000
1003
,
0010
0100
0010
0100
0010
0100
0010
0000
,
2000
0000
0100
0000
,
0001
0000
0010
0000
,
3100
0010
0001
0010
,
0100
1000
0100
0000
1000
0001
1000
0001
,
0200
0000
0010
0310
,
1000
0001
0010
0100
,
2000
0001
0001
3001
,
0100
0010
0100
0010
1000
0001
1000
0001
,
0000
0000
0000
0000
,
0000
0000
0000
0000
,
0000
0000
0000
0000
,
0000
0000
0000
0000
,
0000
0000
0000
0000
,
0000
0000
0000
0000
,
0000
0000
0000
0000
,
0000
0000
0000
0000
,
1000
0000
0000
1001
0000
0000
0001
0000
,
0000
1001
0000
0000
0110
0000
0000
0000
,
0001
0000
0000
1001
0000
0000
1000
0000
,
0000
1001
0000
0000
0110
0000
0000
0000
,
0001
0000
0000
0011
0000
0000
1000
0000
,
0000
1010
0000
0000
0110
0000
0000
0000
,
0001
0000
0000
1000
0000
0000
0001
0000
0000
1000
0000
0000
0010
0000
0000
0000
,
0200
0000
0000
0000
,
0301
0000
0000
0001
1000
0000
0000
0000
,
0100
0100
1001
0000
,
0001
0100
0001
0000
0100
0000
0000
0000
,
0010
1000
1010
0000
,
0002
0023
2030
3020
,
0032
2003
3020
0230
,
0301
0000
0000
0001
1000
0000
0000
0000
,
0100
0100
0100
0000
,
1000
1000
0010
0010
,
0001
0001
0100
1000
,
0001
0100
0001
0000
0100
0001
0100
0000
,
0010
1000
0010
0000
1000
0010
1000
0000
,
0001
0001
0010
0010
,
1000
1000
0100
0001
,
1000
0100
1000
0000
0100
1000
0100
0000
,
0010
0001
0010
0000
0001
0010
0001
0000
,
1000
1000
0010
0010
,
0001
0001
1000
0010
,
0001
1000
0001
0000
1000
0001
1000
0000
,
0010
0100
0010
0000
0100
0010
0100
0000
,
0002
0010
2003
0010
,
3002
0100
2003
0100
,
3002
0100
0100
0103
,
0010
1000
0010
1000
0010
1000
0010
0000
,
0200
0000
0000
0000
,
0301
0001
1000
1000
,
0200
0000
0000
0000
,
1300
1000
0001
0001
,
0200
0000
0000
0000
,
0310
0010
1000
1000
,
0200
0000
0000
0000
,
0310
0010
0001
0001
,
0200
0000
1000
0000
,
0001
0000
0010
0000
,
0301
1000
0001
1000
,
0100
0010
0100
0000
0010
0001
0010
0001
,
2000
0000
0010
3010
,
0100
0001
0100
0000
0001
0100
0001
0000
,
0020
0000
0100
0130
,
1000
0100
1000
0000
0100
0010
0100
0000
,
0020
0000
1000
0000
,
0001
0000
0100
0000
,
0031
1000
0001
1000
,
0010
0100
0010
0000
0100
0001
0100
0001
,
1000
0100
0010
0001
,
1000
0010
0100
0001
1000
0010
0100
0000
,
0001
0000
0000
0010
0000
0000
0100
0000
0000
1000
0000
0000
0001
0000
0000
0000
,
2002
0000
0000
3003
,
1000
0000
0000
0010
0000
0000
0100
0000
0000
0001
0000
0000
1000
0000
0000
0000
,
0001
0000
0000
0010
0000
0000
0100
0000
0000
0110
0000
0000
0000
0000
0000
0000
,
1000
0000
0000
0010
0000
0000
0100
0000
0000
0110
0000
0000
0000
0000
0000
0000
,
0001
0000
0000
1000
0000
0000
0220
0000
,
0000
0000
0000
0000
,
0330
0000
0000
0000
;

//--------------- dance-single - Talkion ----------------
#NOTEDATA:;
#STEPSTYPE:dance-single;
#DESCRIPTION:Talkion;
#DIFFICULTY:Medium;
#METER:13;
#RADARVALUES:0,0,0,0,0;
#NOTES:
0000
0000
0000
0000
,
0000
0000
0000
0000
,
0000
0000
0000
0000
,
0000
0000
0000
0000
,
0100
0000
1000
0000
0100
1000
0100
0000
,
1000
0000
0010
0000
1000
0010
1000
0000
,
0010
0000
0001
0000
0010
0001
0010
0000
,
0001
0000
0100
0000
0001
0100
0001
0100
,
1000
0000
0001
0000
1000
0001
1000
0000
,
0010
0000
0001
0000
0010
0001
0010
0000
,
0001
0000
0100
0000
0001
0100
0001
0000
,
0100
0000
1000
0000
0100
1000
0100
1000
,
0001
0000
0100
0000
0010
0100
0010
0000
,
1000
0000
0100
0000
0010
0100
0010
0000
,
0001
0000
0100
0000
1000
0100
1000
0000
,
0100
0000
0100
0010
0000
0010
2000
0000
0000
3001
0000
0000
,
0010
0000
0001
0000
0010
1000
0010
0000
,
0100
0000
0001
0000
0100
1000
0100
0000
,
0010
0000
0002
0000
1000
1000
1003
0000
,
0010
0001
0010
1000
0100
0010
0001
0100
,
0020
1030
1200
0301
,
0021
1030
2001
3100
,
0010
0000
0001
1000
0001
0100
0010
0000
,
1000
0001
1000
0001
0010
0100
1000
0001
,
0100
0000
0010
0000
1000
0100
0001
0000
,
0100
0000
1000
0000
0010
0100
0001
0000
,
1000
0000
0100
0000
0010
0001
0100
0000
,
0001
0001
1000
1000
0001
0010
1000
0010
,
0200
1300
1020
0031
,
0201
1300
2001
3010
,
0100
0000
0001
1000
0001
0010
0100
0000
,
1000
0001
1000
0001
0100
0010
1000
0100
,
0010
0000
0001
0000
1000
0010
0001
0000
,
0010
0000
1000
0000
0100
0010
0001
0000
,
1000
0010
1000
0010
0100
0001
0100
0001
,
2000
3100
0002
0103
2000
3020
0230
0302
,
0003
0000
0000
0000
,
0000
0000
0000
0000
,
0000
0000
0000
0000
,
0000
0000
0000
0000
,
0000
0000
0000
0000
,
0000
0000
0000
0000
,
0000
0000
0000
0000
,
0000
0000
0000
0000
,
2200
0000
3300
0220
0000
0330
0022
0000
,
0033
2002
0000
3003
1001
0000
0000
0000
,
0202
0000
0303
0220
0000
0330
2020
0000
,
3030
0000
2002
0000
0000
0000
3003
0000
0000
0000
1000
0001
1000
0000
0000
0000
,
0220
0000
0330
0022
0000
0033
2020
0000
,
3030
2002
0000
3003
1001
0000
0000
0000
,
0001
0000
0000
0100
0000
0000
1000
0000
0000
0010
0000
0000
0001
0000
0000
0000
,
1000
0000
0001
0000
1000
0001
1000
0000
0010
0000
0100
0000
0010
0000
0000
0000
,
0100
0000
0000
0100
0101
0000
0001
1000
,
2000
0000
3200
0320
,
0031
1000
0001
0100
0010
0000
0000
0000
,
1100
0010
0101
0000
,
1000
0100
0001
0100
1000
0010
0001
0010
,
2000
0000
3002
0000
0013
0100
1000
0000
,
0001
0000
0100
0010
1000
0010
0100
0000
,
0001
0001
0001
0110
,
1000
0100
1000
0000
0100
0010
0100
0000
,
0010
0001
0010
0000
0001
0100
0001
0000
,
0100
1000
0100
0000
1000
0010
1000
0000
,
0010
0001
0010
0001
1000
0001
0100
0000
,
0001
0010
0001
0000
0010
0100
0010
0000
,
0100
1000
0100
0000
1000
0010
1000
0000
,
0010
0001
0010
0000
0001
0100
0001
0000
,
0100
1000
0100
1000
0001
1000
0010
0000
,
0100
0001
0010
0000
0100
1000
0010
0000
,
0100
0001
1000
0000
0100
1000
0001
0000
,
1000
0010
0001
0010
1000
0010
0001
0000
,
0010
1000
0100
1000
0010
1000
0100
0000
,
0020
0031
0020
1030
0020
0031
0200
0310
,
2000
3100
0002
0103
2000
3100
0020
0031
,
0100
0010
0100
0010
1000
0100
0010
0001
,
1000
0000
0010
0100
0000
0010
0100
0000
0001
0000
1000
0000
0001
0000
0000
0000
,
0100
0000
0001
0000
0100
0001
0100
0000
,
0001
0000
0010
0000
0001
0010
0001
0000
,
0010
0000
1000
0000
0010
1000
0010
0000
,
1000
0000
0100
0000
1000
0100
1000
0100
,
0001
0000
1000
0000
0001
0010
0100
0000
,
1000
0000
0001
0000
1000
0010
0100
0000
,
0001
0000
0010
0000
1000
0010
0001
0000
,
1000
0000
0001
0000
0100
0010
0100
0010
,
2000
3100
0102
0013
,
2010
3100
0210
1300
,
0001
0000
0100
1000
0100
0001
0010
0000
,
0100
1000
0100
1000
0001
0100
0010
1000
,
0100
0000
0010
0000
0001
1000
0001
0100
,
0010
1000
0100
0010
0001
0100
0010
1000
,
0100
0000
1000
0001
0100
0010
0100
0000
,
0001
0010
1000
0010
0001
0010
0100
1000
,
0002
0103
2100
3010
,
0012
0103
0210
0301
,
1000
0000
0100
0001
0100
1000
0010
0000
,
0100
0001
0100
0001
1000
0100
0010
0001
,
0100
1000
0100
0001
0100
0010
1000
0100
,
0001
1000
0010
0001
1000
0001
0100
0010
,
0100
0000
0000
0101
0000
0000
0001
0000
0000
1001
0000
0000
1100
0000
0000
0000
,
0220
0000
0000
0330
,
0010
0000
0000
0011
0000
0000
0001
0000
0000
1001
0000
0000
1010
0000
0000
0000
,
0010
0000
0000
0110
0000
0000
0101
0000
0000
2002
0000
0000
3003
0000
0000
0000
,
0010
0000
0000
0110
0000
0000
1100
0000
0000
2002
0000
0000
3003
0000
0000
0000
,
0202
0000
0303
2200
0000
3300
2002
0000
,
0000
0000
0000
0000
,
3003
0000
0000
0000
;

//--------------- dance-single - Talkion ----------------
#NOTEDATA:;
#STEPSTYPE:dance-single;
#DESCRIPTION:Talkion;
#DIFFICULTY:Hard;
#METER:17;
#RADARVALUES:0,0,0,0,0;
#NOTES:
0000
0000
0000
0000
,
0000
0000
0000
0000
,
0000
0000
0000
0000
,
0000
0000
0000
0000
,
0010
0000
0010
0000
0010
1000
0100
0010
,
0001
0000
0001
0000
0001
0100
0010
1000
,
0100
0000
0100
0000
0100
1000
0001
0100
,
1000
0000
0100
0000
0001
0000
0100
0000
0010
0000
1000
0001
1000
0000
0100
0000
,
0010
0000
0010
0000
0010
0100
1000
0001
,
0100
0000
0100
0000
0100
1000
0100
0001
,
0010
0000
0010
0000
0010
0100
1000
0001
,
0100
0000
0010
0000
1000
0000
0100
0000
0010
0000
0001
0000
1000
0001
1000
0001
,
0100
0000
0100
0000
0100
0001
0010
0100
,
1000
0000
1000
0000
1000
0010
0100
0001
,
0010
0000
0010
0000
0010
0100
1000
0001
,
1000
0010
1000
0010
0000
0100
0002
0000
0000
2003
0000
0000
,
3100
0000
0100
0000
0100
0001
0100
1000
,
0010
0000
0010
0000
0010
0001
0010
1000
,
0100
0000
0011
0100
1000
0010
0101
0000
,
1000
0100
1000
0100
0010
0001
1000
0001
0100
0001
0100
0010
1000
0001
1000
0100
,
0010
0011
0101
1100
,
1010
0011
1001
0110
,
1000
0000
0100
0000
0010
0000
0001
0000
1000
0000
0010
0100
0010
0000
1000
0000
,
0001
0000
0010
0000
0100
0001
0100
0000
0010
0000
0001
1000
0001
0000
0100
0000
,
0010
0000
0100
0001
0100
1000
0100
0010
,
0110
0000
0000
0000
0100
0000
0001
1000
0100
0000
0010
0001
0100
0000
0010
1000
,
0100
0000
0000
0000
0010
0000
0001
0000
1000
0000
0001
0000
0100
0000
0010
0100
,
0020
0000
2030
0000
3200
0000
0320
0000
0031
0000
1000
0000
0001
0100
0001
0100
,
0010
1010
1100
0101
,
0011
1010
1001
0110
,
0001
0000
0100
0000
0010
0000
1000
0000
0001
0000
0010
0100
0010
0000
0001
0000
,
1000
0000
0010
0000
0100
1000
0100
0000
0010
0000
1000
0001
1000
0000
0100
0000
,
0010
0000
0100
1000
0100
0001
0100
0010
,
0110
0000
0000
0000
0100
0000
0010
0000
0001
1000
0001
1000
0010
0100
0010
0100
,
0001
0000
0001
0010
0100
1000
0001
1000
,
0010
0100
0010
0100
0001
1000
0001
0010
0100
1000
0001
1000
0010
0100
0010
0100
,
0000
0000
0000
0000
,
0000
0000
0000
0000
,
0000
0000
0000
0000
,
0000
0000
0000
0000
,
0000
0000
0000
0000
,
0000
0000
0000
0000
,
0000
0000
0000
0000
,
0001
0010
0001
0010
0100
1000
0100
1000
0001
0010
0100
1000
0001
1000
0010
0200
,
0020
0000
0330
0202
0000
0303
2002
0000
,
3003
2200
0000
3300
0202
0000
0303
0000
,
0220
0000
0330
2020
0000
3030
2002
0000
,
3003
0000
0022
0000
0000
0000
0033
0000
1000
0000
0001
1000
0001
0000
0000
0000
,
0202
0000
0303
0220
0000
0330
2020
0000
,
3030
2002
0000
3003
0220
0000
0330
0000
,
0001
0000
0010
0001
0010
0001
1000
0000
0010
1000
0010
1000
0001
0000
0200
0000
,
0010
0000
0310
0000
1000
0001
1000
0000
0100
0010
0001
0010
0100
0000
1000
0000
,
1001
0000
0000
0001
0101
0000
0110
0010
,
2010
0000
0000
0000
3100
0000
0000
0000
0010
0001
0010
0001
1000
0010
1000
0010
,
0200
0000
0001
0001
0301
0000
0000
0000
,
1200
0310
0201
0310
,
1000
0001
1000
0001
0010
0000
0100
0000
1000
0100
1000
0100
0010
0000
0001
0000
,
1000
0010
0100
0010
1000
0010
0100
0010
1000
0000
0001
0010
0001
0010
0001
0000
,
0100
0000
1010
0100
0001
0010
1100
0000
,
0001
0001
0001
0110
,
1000
0100
1000
0100
0001
0100
0001
0100
,
0001
0010
0001
0010
1000
0010
1000
0010
,
0100
0002
0013
2000
3010
0002
0013
2000
,
3010
0000
0001
1000
0001
0000
0100
0010
0100
0000
0010
1000
0100
0000
0000
0000
,
1000
0010
1000
0010
0001
0010
0001
0010
,
0001
0100
0001
0100
1000
0100
1000
0100
,
0010
0002
0103
2000
3100
0002
0103
2000
,
3100
0000
0001
1000
0001
0000
0010
0100
1000
0000
0100
0010
0001
0000
0000
0000
,
0100
0001
0100
0001
0010
0001
0010
0001
,
0010
1000
0010
1000
0100
1000
0100
1000
,
0001
0020
1030
0200
0310
0002
1003
0020
,
0130
0000
0001
1000
0001
1000
0001
1000
0100
0000
0010
0100
0010
0000
0000
0000
,
0200
0300
1000
0001
0200
0300
0001
1000
0200
0300
0010
0001
0200
0300
0010
1000
,
0200
0300
0010
0001
2000
3000
0010
1000
0002
0003
0010
0100
2000
3000
0010
0100
,
0002
0003
1000
0000
0001
0010
0000
0100
1000
0000
0001
0010
0000
0100
1000
0000
,
0001
0100
0001
0100
0010
1000
0010
1000
0001
0010
0100
1000
0100
0010
0001
1000
,
0001
0000
0001
0000
0001
0100
0010
1000
,
0100
0000
0100
0000
0100
1000
0010
0100
,
0001
0000
0001
0000
0001
0010
1000
0010
,
0001
1000
0001
0100
0010
0100
0001
0000
,
1000
0000
1000
0000
1000
0100
0010
0001
,
0100
0000
0100
0000
0100
0001
0010
0100
,
1000
0000
1000
0000
1000
0010
0001
0010
,
1000
0001
1000
0100
0010
0100
1000
0000
,
0010
0101
0011
1010
,
1100
0101
1001
0110
,
1000
0000
0010
0000
0001
0000
0010
0000
1000
0000
0001
1000
0001
0000
0010
0000
,
0100
0000
1000
0000
0010
0001
0010
0000
0100
0000
0001
1000
0001
0000
0010
0000
,
0100
0000
0000
0000
0010
0000
0001
0000
1000
0001
1000
0001
0100
0000
0010
0000
,
1000
0001
1000
0100
0010
0001
0100
0010
1000
0001
1000
0001
0010
0100
1000
0001
,
0100
0000
0000
0000
0010
0000
1000
0001
1000
0000
0100
0010
0100
0000
0010
0000
,
0001
1000
0001
1000
0010
0100
0001
0010
0100
1000
0100
0010
0001
1000
0001
1000
,
0010
1100
1010
0011
,
0101
1100
1001
0110
,
0001
0000
0010
0000
1000
0000
0010
0000
0001
0000
1000
0001
1000
0000
0010
0000
,
0100
0000
0001
0000
0010
1000
0010
0000
0100
0000
1000
0001
1000
0000
0010
0000
,
0100
0001
0100
0001
1000
0100
1000
0001
1000
0010
1000
0100
0010
0001
1000
0001
,
0100
0010
0100
0010
1000
0100
0010
0001
1000
0001
0100
0010
0200
0000
0000
0000
,
0310
0000
0000
1100
0000
0000
0110
0000
0000
0011
0000
0000
1001
0000
0000
0000
,
0001
0100
0001
0100
0010
1000
0010
1000
0001
0010
0100
1000
0010
0100
0001
1000
,
0100
0000
0000
0011
0000
0000
0110
0000
0000
1100
0000
0000
1001
0000
0000
0000
,
0011
0000
0000
1010
0000
0000
0110
0000
0000
2002
0000
0000
3003
0000
0000
0001
,
1000
0000
0000
1100
0000
0000
0110
0000
0000
0022
0000
0000
0033
0000
0000
0000
,
2200
0000
3300
0202
0000
0303
2002
0000
,
0000
0000
0000
0000
,
3003
0000
0000
0000
;
