#TITLE:8-EM;
#SUBTITLE:;
#ARTIST:sampling masters AYA;
#TITLETRANSLIT:;
#SUBTITLETRANSLIT:;
#ARTISTTRANSLIT:;
#GENRE:;
#CREDIT:BadWolf;
#BANNER:[Week 2] - 8-EM.png;
#BACKGROUND:[Week 2] - 8-EM-bg.png;
#LYRICSPATH:;
#CDTITLE:cdtitle.png;
#MUSIC:[Week 2] - 8-EM.ogg;
#OFFSET:-0.020000;
#SAMPLESTART:91.422592;
#SAMPLELENGTH:11.428574;
#SELECTABLE:YES;
#BPMS:0.000000=168.000000
;
#STOPS:
;
#BGCHANGES:;
#KEYSOUNDS:;
#ATTACKS:;

//---------------dance-single - ----------------
#NOTES:
     dance-single:
     :
     Hard:
     15:
     0.758936,0.850307,0.245195,0.047677,0.684502,780.000000,744.000000,36.000000,7.000000,0.000000,0.000000,0.758936,0.850307,0.245195,0.047677,0.684502,780.000000,744.000000,36.000000,7.000000,0.000000,0.000000:
// measure 0
0000
0000
0000
0000
,  // measure 1
0000
0000
0000
0000
,  // measure 2
0000
0000
0000
0000
,  // measure 3
0000
0000
0000
0000
,  // measure 4
2000
0000
0000
0100
0000
0000
0010
0000
0000
0001
0000
0000
3010
0000
0000
0000
,  // measure 5
0001
0000
0000
0100
0000
0000
0010
0000
0000
1000
0000
0000
0001
0000
1000
0000
,  // measure 6
0002
0000
0000
0010
0000
0000
0100
0000
0000
1000
0000
0000
0103
0000
0000
0000
,  // measure 7
1000
0000
0000
0010
0000
0000
0100
0000
0000
0001
0000
0000
1000
0000
0001
0000
,  // measure 8
1000
0000
0000
1100
0000
0000
0100
0000
0000
0110
0000
0000
0011
0000
0000
0000
,  // measure 9
0001
0000
0000
0101
0000
0000
0100
0000
0000
0110
0000
0000
0010
0000
1000
0000
,  // measure 10
0001
0000
0000
0011
0000
0000
0010
0000
0000
0110
0000
0000
1100
0000
0000
0000
,  // measure 11
1000
0000
0000
1010
0000
0000
0010
0000
0000
0110
0000
0000
0100
0000
0001
0000
,  // measure 12
1000
0000
0000
0001
0000
0000
0011
0000
0000
0101
0000
0000
1001
0000
0000
0000
,  // measure 13
0001
0000
0000
0010
0000
0000
1000
0000
0000
0010
0000
0000
0001
0000
0100
0000
,  // measure 14
0001
0000
0000
1000
0000
0000
1010
0000
0000
1100
0000
0000
1001
0000
0000
0000
,  // measure 15
1000
0000
0000
0010
0000
0000
0001
0000
0000
0010
0000
0000
1000
0000
0100
0000
,  // measure 16
1000
0000
0010
0000
0100
0001
0000
0001
0010
0000
0000
0100
0000
0000
1000
0000
,  // measure 17
0001
0000
0100
0000
0010
1000
0000
1000
0100
0000
0000
0010
0000
0000
0001
0000
,  // measure 18
0100
0000
0010
0000
0000
1000
0000
0000
0001
0000
0010
0100
0000
0100
1000
0000
,  // measure 19
0010
0000
0100
0000
0000
0001
0000
0000
1000
0000
0100
0010
0000
0010
0001
0000
,  // measure 20
0100
0000
0001
0000
0010
0100
0000
0100
1000
0000
0001
1000
0000
0001
1000
0000
,  // measure 21
0010
0000
1000
0000
0100
0010
0000
0010
0001
0000
1000
0001
0000
1000
0001
0000
,  // measure 22
1000
0000
0100
0000
0010
0001
0000
0010
0001
0000
0100
0001
0000
0001
1000
0000
,  // measure 23
0001
0000
0010
0000
0100
1000
0000
0100
1000
0000
0010
1000
0000
1000
0001
0000
,  // measure 24
1000
0100
0010
1000
0010
0001
1000
0000
,  // measure 25
0001
0100
0010
0100
1000
0100
0010
0000
,  // measure 26
0100
0001
1000
0100
0010
0001
1000
0000
,  // measure 27
0010
0001
0010
1000
0100
0010
0001
0000
,  // measure 28
0100
0001
0100
1000
0100
0010
1000
0000
,  // measure 29
0001
0100
1000
0100
0010
0100
0001
0000
,  // measure 30
1000
0100
0010
0001
0000
0001
0100
0000
,  // measure 31
0100
0010
0000
0010
1000
0000
1000
0001
,  // measure 32
1000
0100
0010
1000
0010
0001
1000
0001
,  // measure 33
0100
0010
0001
0010
1000
0100
0010
0001
,  // measure 34
1000
0000
0010
0000
0000
0110
0000
0000
0101
0000
0000
1001
0000
0000
1000
0000
,  // measure 35
0001
0000
0010
0000
0000
0110
0000
0000
1100
0000
0000
1001
0000
0000
0001
0000
,  // measure 36
1000
0010
0100
1000
0100
0001
1000
0001
,  // measure 37
0010
0100
0001
0100
1000
0010
0100
0001
,  // measure 38
1000
0000
0100
0000
0000
0110
0000
0000
0011
0000
0000
1001
0000
0000
1000
0000
,  // measure 39
0001
0000
0100
0000
0000
0110
0000
0000
1010
0000
0000
1001
0000
0000
0001
0000
,  // measure 40
1000
0100
1000
0100
0000
0010
0000
0001
0000
1000
0000
0000
0001
0000
1000
0000
,  // measure 41
0001
0100
0001
0100
0000
0010
0000
1000
0000
0001
0000
0000
1000
0000
0001
0000
,  // measure 42
0010
0100
0010
0100
0000
1000
0000
0001
0000
0100
0000
0000
0010
0000
1000
0000
,  // measure 43
0100
0010
0100
0010
0000
0001
0000
1000
0000
0010
0000
0000
0100
0000
0001
0000
,  // measure 44
1000
0001
1000
0001
0000
1000
0000
0001
1000
0000
0100
0000
0010
0000
0001
0000
,  // measure 45
1000
0001
1000
0001
0000
1000
0000
0001
1000
0000
0010
0000
0100
0000
0001
0000
,  // measure 46
1000
0100
0010
0001
0100
0010
1000
0001
,  // measure 47
0010
0000
0100
0000
1000
0000
0001
0000
0100
0010
0100
0000
0001
0000
1000
0001
,  // measure 48
1000
0000
0000
0100
0000
0000
0010
0000
0000
0001
0000
0000
1000
0000
0001
0000
,  // measure 49
1000
0000
0000
1000
0000
0000
0010
0000
0000
0100
0000
0000
0001
0000
1000
0000
,  // measure 50
0001
0000
0000
0010
0000
0000
0100
0000
0000
1000
0000
0000
0001
0000
1000
0000
,  // measure 51
0001
0000
0000
0001
0000
0000
0100
0000
0000
0010
0000
0000
1000
0000
0001
0000
,  // measure 52
1001
0001
0010
0100
,  // measure 53
1001
1000
0100
0010
,  // measure 54
1001
0100
1001
0010
,  // measure 55
1100
0101
0011
1010
,  // measure 56
1000
0000
1000
0000
0100
0000
0010
0001
0010
0001
0010
0000
0001
0000
0100
0000
,  // measure 57
0001
0000
1000
0000
0001
0000
0010
0100
0010
0100
0010
0000
0100
0000
1000
0000
,  // measure 58
0001
0000
0001
0000
0100
0000
0010
1000
0010
1000
0010
0000
1000
0000
0100
0000
,  // measure 59
1000
0000
0001
0000
1000
0000
0010
0100
0010
0100
0010
0000
0100
0000
0001
1000
,  // measure 60
0001
0000
0001
0000
0010
0000
0100
1000
0100
1000
0100
0000
1000
0000
0010
0000
,  // measure 61
1000
0000
0001
0000
1000
0000
0100
0010
0100
0010
0100
0000
0010
0000
0001
0000
,  // measure 62
1000
0000
1000
0000
0010
0000
0100
0001
0100
0001
0100
0000
0001
0000
0010
0000
,  // measure 63
0001
0000
1000
0000
0001
0000
0100
0010
0100
0010
0100
0000
0010
0000
1000
0000
,  // measure 64
0001
1000
0001
1000
0000
0100
0000
0010
0000
0001
0000
0010
0100
0000
1000
0000
,  // measure 65
0010
0100
0010
0100
0000
0001
0000
1000
0000
0100
0000
0010
0001
0000
1000
0000
,  // measure 66
0001
1000
0001
1000
0000
0010
0000
0100
0000
0001
0000
0100
0010
0000
1000
0000
,  // measure 67
0100
0010
0100
0010
0000
0001
0000
1000
0000
0010
0000
0100
0001
0000
1000
0000
,  // measure 68
0001
0010
0001
0010
0000
0100
0000
1000
0000
0100
0000
0010
0001
0000
1000
0000
,  // measure 69
0001
0100
0001
0100
0000
0010
0000
1000
0000
0010
0000
0100
0001
0000
1000
0000
,  // measure 70
0010
1000
0010
1000
0000
0100
0000
0010
0000
0001
0000
0100
0010
0000
1000
0000
,  // measure 71
0100
1000
0100
1000
0000
0010
0000
0100
0000
0001
0000
0010
0100
0000
1000
0000
,  // measure 72
0002
0100
0100
0103
,  // measure 73
2000
0100
0100
3100
,  // measure 74
0002
0010
0010
0013
,  // measure 75
2000
0010
0010
3010
,  // measure 76
0001
0010
0100
1000
,  // measure 77
0001
0100
0010
1000
,  // measure 78
0001
0010
0100
0010
1000
0010
0100
0010
,  // measure 79
0001
0100
0001
0000
1000
0010
1000
0000
0001
0010
0001
0000
1000
0100
1000
0000
,  // measure 80
0001
0000
0001
0000
0100
0000
0010
0000
0010
0000
1000
0000
0100
0010
0100
0000
,  // measure 81
1000
0000
1000
0000
0010
0000
0100
0000
0100
0000
0001
0000
1000
0001
1000
0001
,  // measure 82
1000
0000
1000
0000
0100
0000
0010
0000
0010
0000
0001
0000
0100
0010
0100
0000
,  // measure 83
0001
0000
0001
0000
0010
0000
0100
0000
0100
0000
1000
0000
0001
1000
0001
1000
,  // measure 84
0001
0000
0001
0000
1000
0000
0010
0000
0010
0000
0100
0000
0001
1000
0001
0000
,  // measure 85
1000
0000
1000
0000
0001
0000
0010
0000
0010
0000
0100
0000
1000
0001
1000
0001
,  // measure 86
1000
0000
1000
0000
0001
0000
0010
0000
0010
0000
0100
0000
1000
0001
1000
0000
,  // measure 87
0001
0000
0001
0000
1000
0000
0010
0000
0010
0000
0100
0000
0001
1000
0001
1000
,  // measure 88
0001
0000
0010
0000
0100
0000
0001
0000
0100
0000
1000
0000
0010
0100
0010
0000
,  // measure 89
1000
0000
0100
0000
0010
0000
1000
0000
0010
0000
0001
0000
1000
0001
1000
0001
,  // measure 90
1000
0000
0010
0000
0100
0000
1000
0000
0100
0000
0001
0000
0010
0100
0010
0000
,  // measure 91
0001
0000
0100
0000
0010
0000
0001
0000
0010
0000
1000
0000
0001
1000
0001
1000
,  // measure 92
0001
0000
0010
0000
1000
0000
0001
0000
0100
0000
1000
0000
0001
1000
0001
0000
,  // measure 93
1000
0000
0010
0000
0001
0000
1000
0000
0100
0000
0001
0000
1000
0001
1000
0001
,  // measure 94
1000
0000
0100
0000
0001
0000
1000
0000
0010
0000
0001
0000
1000
0001
1000
0000
,  // measure 95
0001
0000
0100
0000
1000
0000
0001
0000
0010
0000
1000
0000
0001
1000
0001
1000
,  // measure 96
0001
0000
0010
0100
0010
0000
0001
1000
0001
0000
1000
0100
0010
0000
0001
0010
,  // measure 97
0100
0000
0100
1000
0000
1000
0010
0000
0010
0100
0000
0100
0001
0010
0100
1000
,  // measure 98
0002
0000
0000
0000
,  // measure 99
0000
0000
0000
0000
0000
0000
0000
0003
;

//---------------dance-single - ----------------
#NOTES:
     dance-single:
     :
     Medium:
     11:
     0.497201,0.544196,0.095354,0.149841,0.163463,511.000000,497.000000,14.000000,22.000000,0.000000,0.000000,0.497201,0.544196,0.095354,0.149841,0.163463,511.000000,497.000000,14.000000,22.000000,0.000000,0.000000:
0000
0000
0000
0000
,
0000
0000
0000
0000
,
0000
0000
0000
0000
,
0000
0000
0000
0000
,
1000
0000
0001
0000
0000
1000
0001
0000
,
0100
0000
0010
0000
0000
0100
0010
0000
,
1000
0000
0001
0000
0000
1000
0001
0000
,
0010
0000
0100
0000
0000
0010
0100
0000
,
1000
0000
0000
0001
0000
0000
0100
0000
0000
0001
0000
0000
1000
0000
0000
0000
,
0001
0000
0000
0010
0000
0000
0100
0000
0000
1000
0000
0000
0001
0000
1000
0000
,
0001
0000
0000
1000
0000
0000
0010
0000
0000
1000
0000
0000
0001
0000
0000
0000
,
1000
0000
0000
0100
0000
0000
0010
0000
0000
0001
0000
0000
1000
0000
0001
0000
,
1000
0000
0000
0100
0000
0000
0010
0000
0000
0100
0000
0000
1000
0000
0000
0000
,
0001
0000
0000
0100
0000
0000
0010
0000
0000
1000
0000
0000
0001
0000
1000
0000
,
0001
0000
0000
0010
0000
0000
0100
0000
0000
0010
0000
0000
0001
0000
0000
0000
,
1000
0000
0000
0010
0000
0000
0100
0000
0000
0001
0000
0000
1000
0000
0001
0000
,
0000
0000
1000
0000
0000
0100
0000
0000
0001
0000
0000
0100
0000
0000
1000
0000
,
0000
0000
0001
0000
0000
0100
0000
0000
0010
0000
0000
1000
0000
0000
0001
0000
,
0000
0000
1000
0000
0000
0010
0000
0000
0001
0000
0000
0010
0000
0000
1000
0000
,
0000
0000
0001
0000
0000
0010
0000
0000
0100
0000
0000
1000
0000
0000
0001
0000
,
0000
0000
1000
0000
0000
0001
0000
0000
0010
0000
0000
0001
0000
0000
1000
0000
,
0000
0000
0001
0000
0000
0010
0000
0000
0100
0000
0000
0010
0000
0000
0001
0000
,
0000
0000
1000
0000
0000
0001
0000
0000
0100
0000
0000
0001
0000
0000
1000
0000
,
0000
0000
0001
0000
0000
0100
0000
0000
0010
0000
0000
0100
0000
0000
0001
0000
,
1000
0100
0010
0000
0001
1000
0001
0000
,
0010
0100
1000
0000
0001
1000
0001
0000
,
0100
0010
0100
0010
1000
0001
1000
0000
,
0001
0010
0001
0010
0100
1000
0001
0000
,
1000
0010
0100
0000
0001
1000
0001
0000
,
0100
0010
1000
0000
0001
1000
0001
0000
,
1000
0000
1000
0100
0000
0100
0010
0000
,
0010
0001
0000
0001
1000
0000
0001
1000
,
0001
0100
0010
0000
1000
0100
0010
0000
,
0001
1000
0010
0000
0100
0001
1000
0000
,
0000
0000
0001
0000
0000
0010
0000
0000
0100
0000
0000
1000
0000
0000
0001
0000
,
0000
0000
1000
0000
0000
0010
0000
0000
0100
0000
0000
0001
0000
0000
1000
0000
,
0100
0010
0100
0010
0001
1000
0001
0000
,
1000
0010
0100
0000
0001
1000
0001
0000
,
0000
0000
1000
0000
0000
0100
0000
0000
0010
0000
0000
0001
0000
0000
1000
0000
,
0000
0000
0001
0000
0000
0100
0000
0000
0010
0000
0000
1000
0000
0000
0001
0000
,
2000
0000
0000
0001
0000
0000
0001
0000
0000
0001
0000
0000
3001
0000
0000
0000
,
0002
0000
0000
1000
0000
0000
1000
0000
0000
1000
0000
0000
1003
0000
0000
0000
,
0200
0000
0000
0010
0000
0000
0010
0000
0000
0010
0000
0000
0310
0000
0000
0000
,
0020
0000
0000
0100
0000
0000
0100
0000
0000
0100
0000
0000
0130
0000
0000
0000
,
1001
0000
0110
0000
,
1001
0000
0110
0000
,
1000
0100
0010
0001
,
0100
0010
0100
0010
1000
0001
1000
0001
,
2000
0000
0000
0000
,
3002
0000
0000
0000
,
0023
0000
0000
0000
,
0230
0000
0000
0000
,
1300
1000
1000
1000
,
1001
0001
0001
0001
,
1001
1000
1001
0001
,
1001
0110
1001
0110
,
1000
0100
1000
0100
0010
0001
0010
0000
,
0001
0100
0001
0100
0010
1000
0010
0000
,
1000
0001
1000
0000
0010
0100
0010
0000
,
1000
0100
0010
0001
0010
0100
1000
0000
,
0001
0100
0001
0100
0010
1000
0010
0000
,
1000
0100
1000
0100
0010
0001
0010
0000
,
0001
1000
0001
0000
0010
0100
0010
0000
,
0001
0100
0010
1000
0010
0100
0001
0000
,
1000
0000
0100
0000
0010
0001
0010
0000
,
0001
0000
0100
0000
0010
1000
0010
0000
,
1000
0000
0001
0000
0100
0010
0100
0000
,
0001
0000
1000
0000
0100
0010
0100
0000
,
1000
0010
1000
0010
0100
0001
0100
0000
,
0001
0010
0001
0010
0100
1000
0100
0000
,
1000
0010
0100
0001
0100
0010
1000
0000
,
0001
0010
0100
1000
0100
0010
0001
0000
,
2000
0100
0100
3100
,
0002
0010
0010
0013
,
2000
0100
0100
3100
,
0002
0010
0010
0013
,
1000
0100
0010
0001
,
0100
0010
1000
0001
,
1000
0100
1000
0000
0001
0010
0001
0000
,
1000
0100
0010
0001
0010
0100
1000
0001
,
1000
0010
1000
0000
0100
0010
0000
0010
,
0001
0100
0001
0000
0010
0100
2000
0000
,
3001
0100
0001
0000
0010
0100
0000
0100
,
1000
0010
1000
0000
0100
0010
0002
0000
,
0103
0010
0100
0000
0010
1000
0000
1000
,
0100
0010
0100
0000
0010
0001
2000
0000
,
3010
0100
0010
0000
0100
0001
0000
0001
,
0010
0100
0010
0000
0100
1000
0002
0000
,
1003
0010
1000
0000
0100
0010
0000
0010
,
0001
0100
0001
0000
0010
0100
2000
0000
,
3001
0100
0001
0000
0010
0100
0000
0100
,
1000
0010
1000
0000
0100
0010
0002
0000
,
0103
0010
0100
0000
0010
1000
0000
1000
,
0100
0010
0100
0000
0010
0001
2000
0000
,
3010
0100
0010
0000
0100
0001
0000
0001
,
0010
0100
0010
0000
0100
1000
0002
0000
,
0103
0010
0100
0000
0010
1000
0010
0000
,
1000
1100
0001
0101
,
2002
0000
0000
0000
,
0000
0000
0000
0000
0000
0000
0000
3003
;

//---------------dance-single - ----------------
#NOTES:
     dance-single:
     :
     Easy:
     7:
     0.307467,0.442160,0.061299,0.068110,0.000000,316.000000,307.000000,9.000000,10.000000,0.000000,0.000000,0.307467,0.442160,0.061299,0.068110,0.000000,316.000000,307.000000,9.000000,10.000000,0.000000,0.000000:
0000
0000
0000
0000
,
0000
0000
0000
0000
,
0000
0000
0000
0000
,
0000
0000
0000
0000
,
1000
1000
0000
0000
,
0001
0001
0000
0000
,
0100
0100
0000
0000
,
0010
0010
0000
0000
,
1000
1000
1000
0000
,
0100
0100
0100
0000
,
0010
0010
0010
0000
,
0001
0001
0001
0000
,
0100
0100
0100
0000
,
0010
0010
0010
0000
,
1000
1000
1000
0000
,
0001
0001
0001
0000
,
1000
0100
0010
0001
,
1000
0001
0010
0100
,
1000
0010
0001
0010
,
1000
0100
0010
0001
,
1000
0010
0100
0001
,
1000
0001
0100
0010
,
1000
0100
0001
0100
,
1000
0010
0100
0001
,
0010
0010
0100
1000
,
0010
0010
0100
0001
,
1000
1000
0100
0010
,
0001
0001
0100
0010
,
1000
0100
0010
0001
,
1000
0010
0100
0001
,
1000
0000
0000
0001
0000
0000
1000
0000
,
0000
0001
0000
0000
1000
0000
0001
0000
,
1000
1000
0100
0010
,
0001
0001
0100
0010
,
1000
0100
0001
0100
,
1000
0010
0001
0010
,
1000
1000
0100
0010
,
0001
0001
0100
0010
,
1000
0100
0001
0100
,
1000
0010
0001
0010
,
2000
0000
0000
3000
,
0002
0000
0000
0003
,
0020
0000
0000
0030
,
0200
0000
0000
0300
,
1000
0000
0001
0000
,
1000
0000
0001
0000
,
0100
0100
0010
0010
,
1000
0100
0010
0001
,
2000
0000
0000
3000
,
0020
0000
0000
0030
,
0200
0000
0000
0300
,
0002
0000
0000
0003
,
1001
0000
0000
0000
,
0110
0000
0000
0000
,
1001
0000
0110
0000
,
1001
1001
0110
0110
,
1000
0100
0010
0001
,
0100
0010
1000
0001
,
0010
0100
1000
0010
,
0100
0001
1000
0001
,
1000
1000
0100
0010
,
0001
0100
0010
1000
,
0001
0001
0010
0100
,
1000
0010
0100
0001
,
1000
0100
0001
0100
,
1000
1000
0010
0100
,
0001
0010
1000
0010
,
0001
0001
0100
0010
,
1000
0100
0010
0001
,
0100
0010
1000
0001
,
0010
0100
1000
0010
,
0100
0001
1000
0001
,
1000
1000
1000
1000
,
0001
0001
0001
0001
,
0100
0100
0100
0100
,
0010
0010
0010
0010
,
1000
0001
1000
0001
,
0100
0010
0100
0010
,
1000
0100
0010
0001
,
1000
0100
0010
0001
,
1000
0000
0000
0001
0000
0000
1000
0000
,
0000
0001
0000
0000
1000
0000
0001
0000
,
0100
0000
0000
0010
0000
0000
0100
0000
,
0000
0010
0000
0000
0100
0000
0010
0000
,
1000
0000
0000
0001
0000
0000
1000
0000
,
0000
0001
0000
0000
1000
0000
0001
0000
,
0010
0000
0000
0100
0000
0000
0010
0000
,
0000
0100
0000
0000
0010
0000
0100
0000
,
1000
0000
0000
0010
0000
0000
1000
0000
,
0000
0010
0000
0000
1000
0000
0010
0000
,
0100
0000
0000
0001
0000
0000
0100
0000
,
0000
0001
0000
0000
0100
0000
0001
0000
,
1000
0000
0000
0100
0000
0000
1000
0000
,
0000
0100
0000
0000
1000
0000
0100
0000
,
0010
0000
0000
0001
0000
0000
0010
0000
,
0000
0001
0000
0000
0010
0000
0001
0000
,
1000
1000
0001
0001
,
0100
0100
0010
1000
,
2002
0000
0000
0000
,
0000
0000
0000
0000
0000
0000
0000
3003
;

//---------------dance-single - ----------------
#NOTES:
     dance-single:
     :
     Beginner:
     3:
     0.118705,0.200242,0.006811,0.081732,0.000000,122.000000,121.000000,1.000000,12.000000,0.000000,0.000000,0.118705,0.200242,0.006811,0.081732,0.000000,122.000000,121.000000,1.000000,12.000000,0.000000,0.000000:
0000
0000
0000
0000
,
0000
0000
0000
0000
,
0000
0000
0000
0000
,
0000
0000
0000
0000
,
1000
0000
0000
0000
,
0001
0000
0000
0000
,
0100
0000
0000
0000
,
0010
0000
0000
0000
,
2000
0000
3000
0000
,
0200
0000
0300
0000
,
0020
0000
0030
0000
,
0002
0000
0003
0000
,
0200
0000
0300
0000
,
0020
0000
0030
0000
,
2000
0000
3000
0000
,
0002
0000
0003
0000
,
1000
0000
0001
0000
,
1000
0000
0000
0000
,
0010
0000
0100
0000
,
0010
0000
0000
0000
,
1000
0000
0001
0000
,
1000
0000
0000
0000
,
0100
0000
0010
0000
,
0100
0000
0000
0000
,
1000
0000
1000
0000
,
1000
0000
0000
0000
,
0010
0000
0010
0000
,
0010
0000
0000
0000
,
0100
0000
0100
0000
,
0100
0000
0000
0000
,
0001
0000
0001
0000
,
0001
0000
0000
0000
,
0010
0000
0010
0000
,
0010
0000
0000
0000
,
0200
0000
0000
0000
,
0000
0000
0300
0000
,
1000
0000
1000
0000
,
1000
0000
0000
0000
,
0002
0000
0000
0000
,
0000
0000
0003
0000
,
1000
0000
0000
0000
,
1000
0000
0000
0000
,
0001
0000
0000
0000
,
0001
0000
0000
0000
,
1000
0000
0001
0000
,
1000
0000
0001
0000
,
1000
0000
1000
0000
,
0001
0000
0001
0000
,
2000
0000
0000
0000
,
0000
0000
3000
0000
,
0002
0000
0000
0000
,
0000
0000
0003
0000
,
1000
0000
0000
0000
,
0001
0000
0000
0000
,
1000
0000
0001
0000
,
1000
0000
0001
0000
,
1000
0000
0000
0000
,
0100
0000
0000
0000
,
0010
0000
0000
0000
,
0001
0000
0000
0000
,
1000
0000
0000
0000
,
0010
0000
0000
0000
,
0100
0000
0000
0000
,
0001
0000
0000
0000
,
1000
0000
0001
0000
,
1000
0000
0000
0000
,
0010
0000
0100
0000
,
0010
0000
0000
0000
,
1000
0000
0001
0000
,
1000
0000
0000
0000
,
0100
0000
0010
0000
,
0100
0000
0000
0000
,
1000
0000
0000
0000
,
0001
0000
0000
0000
,
1000
0000
0000
0000
,
0001
0000
0000
0000
,
0100
0000
0000
0000
,
0010
0000
0000
0000
,
0100
0000
0000
0000
,
0010
0000
0000
0000
,
1000
0000
0100
0000
,
0010
0000
0000
0000
,
0001
0000
0010
0000
,
0100
0000
0000
0000
,
1000
0000
0010
0000
,
0100
0000
0000
0000
,
0001
0000
0100
0000
,
0010
0000
0000
0000
,
1000
0000
0001
0000
,
1000
0000
0000
0000
,
0010
0000
0100
0000
,
0010
0000
0000
0000
,
1000
0000
0001
0000
,
1000
0000
0000
0000
,
0100
0000
0010
0000
,
0100
0000
0000
0000
,
1000
0000
1000
0000
,
0001
0000
0001
0000
,
1001
0000
0000
0000
;
