#VERSION:0.82;
#TITLE:YUMEUTSUTSU;
#SUBTITLE:feat. Shully;
#ARTIST:sky_delta;
#TITLETRANSLIT:;
#SUBTITLETRANSLIT:;
#ARTISTTRANSLIT:;
#GENRE:;
#ORIGIN:;
#CREDIT:;
#BANNER:YUMEUTSUTSU.png;
#BACKGROUND:YUMEUTSUTSU-bg.png;
#PREVIEWVID:;
#JACKET:YUMEUTSUTSU-jacket.png;
#CDIMAGE:;
#DISCIMAGE:;
#LYRICSPATH:;
#CDTITLE:;
#MUSIC:YUMEUTSUTSU.ogg;
#OFFSET:-1.149600;
#SAMPLESTART:100.915329;
#SAMPLELENGTH:15.000000;
#SELECTABLE:YES;
#DISPLAYBPM:157.000000;
#BPMS:0.000=78.500,
13.500=157.000,
14.000=314.000,
16.000=157.000,
116.000=78.500,
116.250=157.000,
116.500=314.000,
117.000=157.000;
#STOPS:15.000=0.194;
#DELAYS:;
#WARPS:;
#TIMESIGNATURES:0.000=4=4;
#TICKCOUNTS:0.000=4;
#COMBOS:0.000=1;
#SPEEDS:0.000=1.000=0.000=0;
#SCROLLS:0.000=1.000;
#FAKES:;
#LABELS:0.000=Song Start;
#BGCHANGES:;
#KEYSOUNDS:;
#ATTACKS:
;

//---------------dance-single - ----------------
#NOTEDATA:;
#CHARTNAME:;
#STEPSTYPE:dance-single;
#DESCRIPTION:;
#CHARTSTYLE:;
#DIFFICULTY:Hard;
#METER:13;
#RADARVALUES:0.529517,0.601848,0.282773,0.565546,0.175778,374.000000,37.000000,74.000000,0.000000,0.000000,0.000000,0.000000,0.000000,0.529517,0.601848,0.282773,0.565546,0.175778,374.000000,37.000000,74.000000,0.000000,0.000000,0.000000,0.000000,0.000000;
#CREDIT:;
#DISPLAYBPM:157.000000;
#NOTES:
0000
0000
0000
0000
,
0000
0000
0000
0000
,
0000
0000
0000
0000
,
0000
0000
0000
2002
,
3003
0000
0000
0000
1000
0001
0000
0200
0000
0000
0301
0000
0010
0000
0100
0000
,
1000
0000
0000
0000
2100
0000
0000
0000
3001
0000
0000
0000
0012
0000
0000
1003
,
0000
0000
1000
0000
0001
0000
0000
0000
0010
0000
0100
0000
0010
0001
0000
2000
,
0000
0000
3010
0000
0100
0000
0010
0000
1000
0000
0000
0000
0011
0000
0000
1020
,
0000
0000
0000
0000
0130
0000
0000
0000
0001
0000
1000
0000
0001
0010
0000
0000
,
0002
0000
0000
0103
0000
0000
0020
0000
0000
0000
0130
0000
0010
0000
2000
0000
,
0000
3100
1000
0002
0000
0103
0001
0020
,
0000
1000
0100
0031
,
1001
0000
0000
0000
0001
1000
0000
0200
0000
0000
1300
0000
0010
0000
0100
0000
,
0001
0000
0000
0000
0102
0000
0000
0000
1003
0000
0000
0000
2010
0000
0000
3001
,
0000
0000
0001
0000
1000
0000
0010
0000
0000
0000
0010
0000
1000
0001
0000
0010
,
0000
0000
0001
0000
1000
0000
0100
0000
1000
0000
0000
0000
0101
0000
0000
0021
,
0000
0000
0000
0000
0130
0000
0000
0000
1000
0000
0010
0000
1000
0001
0000
0000
,
2000
0000
0000
3100
0000
0000
0020
0000
0000
0000
0130
0000
0010
0000
0002
0000
,
0000
0103
0001
2000
0000
3100
1000
0020
,
0000
0000
0000
0000
,
0100
0100
0100
0100
0100
0200
0330
0000
,
0100
0010
1000
0000
0100
0010
0001
0010
,
0100
0011
0100
1010
,
0010
1000
0001
0000
0010
0001
1000
0100
,
1000
0001
0100
0010
0100
0000
1002
0000
,
0103
2001
3100
1002
,
0013
2001
3010
1002
,
0103
0000
0001
0100
0001
0000
1000
0100
1000
0000
0001
0000
0100
0010
0000
2000
,
0000
3001
1000
0100
0020
0000
0130
0000
,
2002
0000
3003
0000
1000
0100
0010
0100
,
1000
0000
0000
0000
0001
0100
0000
0100
0001
0000
0010
0000
0100
0000
0010
0000
,
0001
0000
1000
0010
0100
0001
1000
0010
,
1000
0000
0000
1000
0001
0000
0000
0001
0010
0000
0000
0010
0100
0000
0100
0000
,
1000
0000
0001
0100
0010
1000
0001
0100
,
0010
0000
0000
0000
1000
0100
0000
0100
1000
0000
0100
0000
0010
0000
0001
0000
,
1000
0000
0001
0100
0010
0100
0001
1000
,
0200
0000
0300
0000
1100
0000
0000
1001
0000
0000
0101
0000
0100
0000
0001
0000
,
0020
0000
0000
0000
0031
0000
0000
0010
0000
0000
0100
0000
0010
0000
0001
0000
,
0010
0000
1001
0000
0101
0000
1100
1000
,
0020
0000
0000
0000
1030
0000
0000
0010
0000
0000
0100
0000
0010
1000
0000
1000
,
0010
0000
0110
0000
1000
0001
1000
0001
,
0020
0000
0000
0000
0031
0000
0000
1000
0000
0000
0010
0000
0100
0000
0001
0000
,
0010
0000
1001
0000
1010
0000
0011
0001
,
1000
0001
0010
0200
0000
0310
0001
2000
,
0000
3002
2003
3002
,
2003
0000
0000
0000
,
0200
0000
0000
3000
,
0020
0000
0000
0300
,
0002
0000
0000
0030
,
0200
0000
0000
0003
,
0020
0000
0000
0300
,
2000
0000
0000
0030
,
0002
0000
0000
3003
,
0002
0010
0000
1000
,
0023
0100
0000
0001
,
0230
1000
0000
0010
,
2300
0001
0000
0010
,
3002
0100
0000
1000
,
0203
0010
0000
0001
,
0310
0100
0001
0100
0010
1000
0001
0010
,
0200
0000
0000
0000
,
0010
0010
0010
0010
0010
0020
0330
0000
,
1001
0000
0000
0000
1000
0100
0000
0100
0000
0000
1000
0000
0001
0000
0100
0000
,
0001
0000
0000
0000
1010
0000
0000
0000
2100
0000
0000
0000
3001
0000
0000
0001
,
0100
0000
0001
0000
0010
0000
0000
0000
0100
0000
1000
0000
0010
1000
0000
1000
,
0001
0000
0100
0000
0010
0000
1000
0000
0020
0000
0000
0000
0130
0000
0000
0100
,
0001
0000
0010
0000
0100
0000
0000
0000
1000
0000
0010
0000
0100
0010
0000
0000
,
2000
0000
0000
3010
0000
0000
0020
0000
0000
0000
0130
0000
0001
0000
2000
0000
,
0000
3001
0010
0200
0000
1300
0001
0020
,
0000
0000
0000
0000
0000
0000
0000
0000
0031
0000
1000
0000
0100
0010
0100
0000
,
0010
0100
2000
0000
3010
0100
0002
0000
,
1003
0000
0000
0000
1100
0000
0000
0000
0110
0000
0000
0000
1001
0000
0000
0011
,
0000
0010
0002
0000
0103
0010
2000
0000
,
3001
0000
1000
0000
0001
0000
0100
0000
0010
0000
0000
0000
0101
0000
0000
1020
,
0000
0000
0000
0000
0100
0000
0000
0000
0130
0000
0001
0000
1000
0001
0000
0000
,
0020
0000
0000
0130
0000
0000
2000
0000
0000
0000
3100
0000
0010
0000
0002
0000
,
0000
1003
0010
0200
0000
0301
2000
0020
,
0000
0000
0000
0000
,
0000
0000
0000
3030
;

//---------------dance-single - ----------------
#NOTEDATA:;
#CHARTNAME:;
#STEPSTYPE:dance-single;
#DESCRIPTION:;
#CHARTSTYLE:;
#DIFFICULTY:Medium;
#METER:9;
#RADARVALUES:0.332995,0.421294,0.030570,0.427981,0.042034,245.000000,4.000000,56.000000,0.000000,0.000000,0.000000,0.000000,0.000000,0.332995,0.421294,0.030570,0.427981,0.042034,245.000000,4.000000,56.000000,0.000000,0.000000,0.000000,0.000000,0.000000;
#CREDIT:;
#NOTES:
0000
0000
0000
0000
,
0000
0000
0000
0000
,
0000
0000
0000
0000
,
0000
0000
0000
0020
,
0030
0000
0000
0000
1000
0000
0000
1000
0000
0000
0000
0000
0001
0000
0000
0000
,
2000
0000
0000
0000
3200
0000
0000
0000
0320
0000
0000
0000
0230
0000
0000
1300
,
0000
0000
0100
0000
0010
0100
0010
0000
,
0002
0000
0000
0000
0203
0000
0000
0000
0320
0000
0000
0000
0230
0000
0000
0301
,
0000
0000
0100
0000
0100
0010
0100
0000
,
0001
0000
0000
0001
0000
0000
1000
0000
0000
0000
0000
0000
0001
0000
0200
0000
,
0000
0310
0000
2000
0000
3001
0000
0020
,
0000
0000
0130
0110
,
1001
0000
0000
0000
0001
0000
0000
0001
0000
0000
0000
0000
1000
0000
0000
0000
,
0002
0000
0000
0000
0023
0000
0000
0000
0230
0000
0000
0000
0320
0000
0000
0031
,
0000
0000
0010
0000
0100
0010
0100
0000
,
2000
0000
0000
0000
3020
0000
0000
0000
0230
0000
0000
0000
0320
0000
0000
1030
,
0000
0000
0010
0000
0010
0100
0010
0000
,
1000
0000
0000
1000
0000
0000
0001
0000
0000
0000
0000
0000
1000
0000
0200
0000
,
0000
1300
0000
0002
0000
0103
0000
0020
,
0000
0000
0000
0000
,
0000
0000
0000
0130
,
1001
2000
3000
2000
,
3001
0010
0100
0100
,
0010
0002
0003
0002
,
1003
0010
0100
0020
,
1030
0020
0130
0020
,
0031
0020
0130
0020
,
1030
1000
0001
0001
,
0010
0100
0010
0100
,
2000
3000
0001
0001
,
0100
0000
0010
0010
,
0100
0000
0001
0001
,
0010
0000
0100
0100
,
1000
0000
0010
0010
,
1000
0000
0001
0001
,
0010
0000
0100
0100
,
1000
0000
0000
0000
0100
0000
0000
0010
0000
0000
0002
0000
2000
0000
0000
0000
,
3003
0000
0001
0000
1000
0001
0010
0000
,
0001
0100
1000
0100
,
0001
0000
1000
0000
0001
1000
0020
0000
,
1030
1000
0001
0001
,
0200
0000
0310
0000
0100
0001
1000
0000
,
0001
0010
1000
0010
,
0001
0000
1000
0100
0000
1000
0001
0020
,
0000
0000
0000
0030
,
0002
0000
0000
0000
,
0203
0000
0000
0000
,
0320
0000
0000
0000
,
2030
0000
0000
0000
,
3200
0000
0000
0000
,
0320
0000
0000
0000
,
0032
0000
0000
0000
,
2000
0000
0000
3003
,
1000
0100
0000
0100
,
0000
1000
0000
1000
,
0000
0001
0000
0001
,
0000
0010
0000
0010
,
0000
0001
0000
0001
,
0000
0100
0000
0100
,
0020
0030
0200
0300
,
2002
0000
0000
0000
,
0000
0000
0000
3003
,
0001
0000
0100
0000
0010
1000
0010
0000
,
1000
0100
0001
0010
,
0001
0000
0010
0000
0100
1000
0100
0000
,
1000
0010
0001
0100
,
1000
1000
0001
0001
,
1000
0000
0000
0100
0000
0000
0010
0000
0000
0000
0010
0000
0100
0000
2000
0000
,
0000
3001
0000
2000
0000
3100
0000
0020
,
0000
0100
0100
0130
,
0001
0000
1000
0000
0001
0010
0100
0000
,
1000
0100
0001
0010
,
0001
0000
1000
0000
0001
0100
0010
0000
,
1000
0010
0001
0100
,
1000
0001
0001
1000
,
0001
0000
0000
0010
0000
0000
0100
0000
0000
0000
0100
0000
0010
0000
0002
0000
,
0000
1003
0000
0200
0000
1300
0001
0020
,
0000
0000
0000
0000
,
0000
0000
0000
0030
;

//---------------dance-single - ----------------
#NOTEDATA:;
#CHARTNAME:;
#STEPSTYPE:dance-single;
#DESCRIPTION:;
#CHARTSTYLE:;
#DIFFICULTY:Easy;
#METER:5;
#RADARVALUES:0.171411,0.235389,0.015285,0.129923,0.000000,138.000000,2.000000,17.000000,0.000000,0.000000,0.000000,0.000000,0.000000,0.171411,0.235389,0.015285,0.129923,0.000000,138.000000,2.000000,17.000000,0.000000,0.000000,0.000000,0.000000,0.000000;
#CREDIT:;
#DISPLAYBPM:157.000000;
#NOTES:
0000
0000
0000
0000
,
0000
0000
0000
0000
,
0000
0000
0000
0000
,
0000
0000
0000
0000
,
0000
1000
0000
1000
,
0100
0000
0100
0000
,
0000
0001
0000
0001
,
0100
0000
0100
0000
,
0000
1000
0000
0001
,
0010
0000
0010
0000
,
0100
0000
0010
0000
,
0002
0000
0000
0003
,
0000
0001
0000
0001
,
0100
0000
0100
0000
,
0000
1000
0000
1000
,
0100
0000
0100
0000
,
0000
0001
0000
1000
,
0010
0000
0010
0000
,
0100
0000
0010
0000
,
2000
0000
0000
0000
,
0000
0000
0000
3000
,
0000
1000
0000
1000
,
0100
0000
1000
0000
,
0002
0000
0000
0003
,
0001
0000
0100
0020
,
0030
0020
0030
0020
,
0030
0020
0030
0010
,
0010
0000
0000
0000
,
0010
1000
0001
2000
,
3000
0000
0000
0001
,
0000
0100
0000
0001
,
0000
1000
0000
0001
,
0000
0010
0000
0001
,
0000
0010
0000
1000
,
0000
0001
0000
1000
,
0000
0100
0000
1000
,
0002
0000
0000
0003
,
0000
0010
0001
0100
,
0000
0100
0000
0100
,
0000
0010
1000
0100
,
0000
0100
0000
0100
,
0000
0010
0001
0100
,
0000
0100
0000
0100
,
0010
0100
0100
0010
,
2000
0000
0000
0000
,
3001
0000
0000
0000
,
0000
0000
0000
0000
,
0000
0000
0000
0000
,
0000
0000
0000
0000
,
1000
0000
0000
0000
,
0001
0000
0000
0000
,
0100
0000
0000
0000
,
0010
0000
0000
0000
,
0000
1000
0000
1000
,
0000
0100
0000
0100
,
0000
0010
0000
0010
,
0000
0001
0000
0001
,
0000
1000
0000
1000
,
0000
0010
0000
0010
,
0000
0100
0000
0100
,
0020
0000
0000
0000
,
0000
0000
0000
0030
,
1000
0000
1000
0001
,
0100
0000
0100
0000
,
0010
0000
1000
0001
,
0010
0000
0010
0000
,
0100
0000
0010
0001
,
1000
1000
0001
0001
,
0200
0300
0200
0300
,
0220
0000
0000
0330
,
0001
0000
0001
1000
,
0100
0000
0100
0000
,
0010
0000
0001
1000
,
0010
0000
0010
0000
,
0100
0000
0001
0000
,
1000
0000
0100
0000
,
0020
0030
0020
0030
,
0110
0000
0000
0000
;

//---------------dance-single - ----------------
#NOTEDATA:;
#CHARTNAME:;
#STEPSTYPE:dance-single;
#DESCRIPTION:;
#CHARTSTYLE:;
#DIFFICULTY:Beginner;
#METER:2;
#RADARVALUES:0.102628,0.147118,0.068783,0.000000,0.000000,85.000000,9.000000,0.000000,0.000000,0.000000,0.000000,0.000000,0.000000,0.102628,0.147118,0.068783,0.000000,0.000000,85.000000,9.000000,0.000000,0.000000,0.000000,0.000000,0.000000,0.000000;
#CREDIT:;
#DISPLAYBPM:157.000000;
#NOTES:
// measure 0
0000
0000
0000
0000
,  // measure 1
0000
0000
0000
0000
,  // measure 2
0000
0000
0000
0000
,  // measure 3
0000
0000
0000
0000
,  // measure 4
0000
1000
1000
0000
,  // measure 5
0001
0000
0000
0000
,  // measure 6
0000
0001
0000
0001
,  // measure 7
1000
0000
0000
0000
,  // measure 8
0000
1000
0000
1000
,  // measure 9
0001
0000
0001
0000
,  // measure 10
1000
0000
0001
0000
,  // measure 11
0010
0000
0000
0000
,  // measure 12
0000
0001
0000
0001
,  // measure 13
1000
0000
0000
0000
,  // measure 14
0000
1000
0000
1000
,  // measure 15
0001
0000
0000
0000
,  // measure 16
0000
0001
0000
0001
,  // measure 17
1000
0000
1000
0000
,  // measure 18
0001
0000
1000
0000
,  // measure 19
0010
0000
0000
0000
,  // measure 20
0000
0000
0000
0000
,  // measure 21
1000
0000
0000
0000
,  // measure 22
0001
0000
0000
0000
,  // measure 23
1000
0000
0000
0000
,  // measure 24
0001
0000
0001
0100
,  // measure 25
0000
0100
0000
0100
,  // measure 26
0000
0100
0000
0100
,  // measure 27
0100
0000
0000
0000
,  // measure 28
0000
0000
0000
0000
,  // measure 29
1001
0000
0000
0000
,  // measure 30
0000
0000
0000
0000
,  // measure 31
0001
0000
0000
0000
,  // measure 32
1000
0000
0000
0000
,  // measure 33
0001
0000
0000
0000
,  // measure 34
0100
0000
0000
0000
,  // measure 35
0001
0000
0000
0000
,  // measure 36
0010
0000
0000
0000
,  // measure 37
1001
0000
0000
0000
,  // measure 38
0000
0000
0000
0000
,  // measure 39
1000
0000
0000
0000
,  // measure 40
0100
0000
0000
0000
,  // measure 41
1000
0000
0000
0000
,  // measure 42
0001
0000
0000
0000
,  // measure 43
1000
0000
0000
0000
,  // measure 44
0010
0000
0000
0000
,  // measure 45
1001
0000
0000
0000
,  // measure 46
0000
0000
0000
0000
,  // measure 47
0000
0000
0000
0000
,  // measure 48
0000
0000
0000
0000
,  // measure 49
0110
0000
0000
0000
,  // measure 50
0000
0000
0000
0000
,  // measure 51
0000
0000
0000
0000
,  // measure 52
0000
0000
0000
0000
,  // measure 53
1001
0000
0000
0000
,  // measure 54
0000
0000
0000
0000
,  // measure 55
1001
0000
0000
0000
,  // measure 56
0000
0000
0000
0000
,  // measure 57
0110
0000
0000
0000
,  // measure 58
0000
0000
0000
0000
,  // measure 59
0110
0000
0000
0000
,  // measure 60
1001
0000
0000
0000
,  // measure 61
0000
0000
0000
0000
,  // measure 62
1000
0100
0000
0100
,  // measure 63
0010
0000
0000
0000
,  // measure 64
0001
0100
0000
0100
,  // measure 65
0010
0000
0000
0000
,  // measure 66
0000
1000
0000
1000
,  // measure 67
0000
0001
0000
0001
,  // measure 68
1000
0000
0001
0000
,  // measure 69
0010
0000
0000
0000
,  // measure 70
0000
0001
0000
0001
,  // measure 71
0100
0000
0000
0000
,  // measure 72
0000
1000
0000
1000
,  // measure 73
0100
0000
0000
0000
,  // measure 74
0000
0001
0000
0001
,  // measure 75
0000
1000
0000
1000
,  // measure 76
0001
0000
0000
0000
,  // measure 77
0010
0000
0000
0000
;
