#TITLE:Wowie Zowie!;
#SUBTITLE:;
#ARTIST:Hommarju;
#TITLETRANSLIT:;
#SUBTITLETRANSLIT:;
#ARTISTTRANSLIT:;
#GENRE:;
#CREDIT:;
#MUSIC:[Week 1] - Wowie Zowie!.mp3;
#BANNER:[Week 1] - Wowie Zowie!-bn.png;
#BACKGROUND:[Week 1] - Wowie Zowie!-bg.png;
#CDTITLE:;
#SAMPLESTART:45.028;
#SAMPLELENGTH:14.980;
#SELECTABLE:YES;
#OFFSET:1.847;
#BPMS:0.000=128.000
,64.000=256.000
,66.000=128.000
,191.000=512.000
,195.000=128.000
;
#STOPS:64.500=0.234
,65.500=0.234
,66.000=0.469
,191.000=1.406
;
#DISPLAYBPM:128.000;
#LASTBEATHINT:1.806933;
#BGCHANGES:;
#FGCHANGES:;

//--------------- dance-single - ----------------
#NOTES:
     dance-single:
     :
     Easy:
     8:
     0.335924,0.412188,0.18158,0.036316,0.022698,259,239,20,4,0,0,0.335924,0.412188,0.18158,0.036316,0.022698,259,239,20,4,0,0:
0000
0000
0000
0000
,
0000
0000
0000
0000
,
0000
0000
0000
0000
,
0000
0000
0000
0000
,
0000
0000
0000
0000
,
0100
0100
0100
0000
,
0010
0010
0010
0000
,
0100
0010
0100
0010
,
1000
0001
0100
0000
,
0010
1000
0010
0000
0100
0000
0001
0000
,
0010
0001
0010
0000
0100
0000
1000
0000
,
0010
1000
0010
0000
0100
0000
0001
0000
,
0010
0001
0010
0000
0100
0000
1000
0000
,
1000
0010
0100
0000
0001
0010
0100
0000
,
1000
0001
0010
0000
0001
1000
0010
0000
,
1000
0100
0010
0001
0010
0100
1000
0000
,
0110
0000
0110
0000
0110
0000
0001
0001
,
0001
0000
0100
0000
0010
0000
1000
1000
,
1000
0000
0100
0000
0010
0000
0010
0010
,
0010
0000
0100
0000
1000
0000
0010
0010
,
0010
0000
1000
0000
0001
0000
1001
1000
,
1000
0000
0001
0000
0100
0000
0110
0010
,
0010
0000
0100
0000
0001
0000
0101
0100
,
0100
0000
0001
0000
1000
0000
1001
0001
,
0001
0000
1000
0000
0100
0000
0010
0001
,
0010
0000
0100
0000
1000
0000
0010
1000
,
0010
0000
0100
0000
0001
0000
0010
0001
,
0010
0000
0100
0000
1000
0000
0010
1000
,
0010
0000
0100
0000
0001
0000
0001
0010
,
0100
0000
1000
0010
0100
0000
0001
1000
,
0010
0000
1000
0001
0010
0000
0001
0010
,
0100
1000
0100
0010
0001
0000
0011
0000
,
1001
0000
0101
0000
0000
0000
0010
0100
,
0010
0100
0010
0000
1000
0000
0100
0010
,
0100
0010
0100
0000
1000
0000
0010
0100
,
1000
0100
0010
0000
1000
0000
0001
0000
,
1000
0000
0010
0000
0010
0000
0100
0010
,
0100
0010
0100
0000
0001
0000
0010
0100
,
0010
0100
0010
0000
0001
0000
0010
0100
,
0001
0100
0010
0000
0001
0000
1000
0000
,
0001
0100
0010
0100
,
0100
0100
0000
0010
,
0010
0010
0000
1000
,
1000
1000
1000
0001
,
0001
0001
0000
0010
,
0100
1000
0010
0100
,
0001
0000
0000
0010
0000
0000
0100
0000
0000
0010
0000
0001
,
0100
0000
0000
0010
0000
1000
0100
0000
0000
0110
0000
0000
,
0000
0000
0000
1001
,
1000
1000
1000
1001
,
0001
0001
0001
0110
,
0100
0100
0100
0220
,
0000
0000
0000
0000
0000
0000
0330
0000
0000
0110
0000
0010
,
1000
0000
0000
0100
0000
0000
0010
0000
0000
0110
0000
0010
,
0001
0000
0000
0100
0000
0000
0010
0000
0000
0110
0000
0010
,
1000
0100
0010
0220
,
0000
0000
0330
1001
;

//--------------- dance-single - ----------------
#NOTES:
     dance-single:
     :
     Medium:
     12:
     0.499346,0.618281,0.172501,0.036316,0.426714,385,366,19,4,4,0,0.499346,0.618281,0.172501,0.036316,0.426714,385,366,19,4,4,0:
0000
0000
0000
0000
,
0000
0000
0000
0000
,
0000
0000
0000
0000
,
0000
0000
0000
0000
,
0000
0000
0000
0000
,
0001
0000
0000
0100
0000
0000
0001
0000
0000
0000
0000
0000
0100
0000
0000
0000
,
0010
0000
0000
1000
0000
0000
0010
0000
0000
0000
0000
0000
0100
0000
0000
0000
,
0001
0000
0000
0010
0000
0000
0001
0000
0000
0000
0000
0000
0100
0000
0000
0000
,
0010
0000
0000
0100
0000
0000
0010
0000
0000
0000
0000
0000
1000
0000
0000
0000
,
0010
0000
0000
0010
0000
0000
0010
0000
0100
0000
0010
0000
0001
0000
0010
0000
,
1000
0000
0000
1000
0000
0000
1000
0000
0100
0000
0010
0000
1000
0000
0010
0000
,
0100
0000
0000
0100
0000
0000
0100
0000
1000
0000
0010
0000
0001
0000
0010
0000
,
1000
0000
0000
1000
0000
0000
1000
0000
0100
0000
0010
0000
0001
0000
0000
0000
,
0100
1000
0100
0001
0100
1000
0100
0001
,
0010
1000
0010
0001
0010
1000
0010
0001
,
0100
1000
0100
0001
0010
1000
0010
0001
,
1001
0110
1001
0011
,
0100
0000
0100
1000
0000
0000
0010
0000
0010
1000
0000
0000
0100
0000
0100
1000
0000
0000
1000
0000
1000
0010
0000
0000
,
1000
0000
1000
0100
0000
0000
0100
0000
0000
0010
0000
0000
0010
0000
0000
0010
0000
0000
0110
0000
0000
0000
0000
0000
,
0001
0000
0001
0100
0000
0000
0001
0000
0001
0010
0000
0000
0001
0000
0001
0100
0000
0000
0010
0000
0010
1000
0000
0000
,
0100
0000
0100
1000
0000
0000
0100
0000
0000
0001
0000
0000
0100
0000
0100
0010
0000
0000
MMMM
0000
0000
0000
0000
0000
,
0100
0000
0100
0001
0000
0000
0010
0000
0010
0001
0000
0000
0100
0000
0100
0001
0000
0000
0001
0000
0001
0010
0000
0000
,
0001
0000
0001
0100
0000
0000
0100
0000
0000
0010
0000
0000
0010
0000
0000
0010
0000
0000
0110
0000
0000
0000
0000
0000
,
1000
0000
1000
0100
0000
0000
1000
0000
1000
0010
0000
0000
1000
0000
1000
0100
0000
0000
0010
0000
0010
0001
0000
0000
,
0100
0000
0010
0000
0100
0000
0001
0000
1000
0000
0000
0000
0010
0000
0000
0010
,
0000
0000
0010
0000
0100
0000
0010
0000
0001
0000
0010
0000
1000
0000
0000
1000
,
0000
0000
1000
0000
0100
0000
0010
0000
1000
0000
0010
0000
0100
0000
0000
0100
,
0000
0000
0100
0000
1000
0000
0010
0000
0001
0000
0010
0000
1000
0000
0000
1000
,
0000
1000
0100
0010
0001
0000
0100
1000
,
0100
0001
0100
1000
0100
0001
0010
1000
,
0010
0001
0010
1000
0010
0001
0100
1000
,
0100
0001
0010
1000
0010
0001
0011
0000
,
0110
0000
0000
0000
1100
0000
0000
0000
0000
0000
0000
0000
0010
0000
0000
0100
,
0000
0000
0001
0000
0010
0100
0010
0100
0010
0000
0000
0000
0001
0000
0000
0100
,
0000
0000
0010
0000
1000
0100
1000
0100
1000
0000
0000
0000
0100
0000
0000
0010
,
0000
0000
0001
0000
0100
0010
0100
0010
0100
0000
0000
0000
0001
0000
0001
0000
,
0001
0000
0000
0010
0001
0000
0100
0000
0010
0000
0000
0000
0100
0000
0000
0010
,
0000
0000
1000
0000
0100
0010
0100
0010
0100
0000
0000
0000
1000
0000
0000
0010
,
0000
0000
0100
0000
0001
0010
0001
0010
0001
0000
0000
0000
0010
0000
0000
0100
,
0000
0000
1000
0000
0010
0100
0010
0100
0010
0000
0000
0000
1000
0000
1000
0000
,
1000
0000
0000
0100
1000
0000
0010
0000
0100
0000
0000
0000
0010
0000
0000
0010
,
0000
0000
0010
0000
0000
0100
0000
0000
0010
0000
0000
0000
1000
0000
0000
1000
,
0000
0000
1000
0000
0000
0100
0000
0000
0010
0000
0000
0000
0100
0000
0000
0100
,
0000
0000
0100
0000
0000
1000
0000
0000
0010
0000
0000
0000
1000
0000
0000
1000
,
0000
0000
1000
0000
0000
0010
0000
0000
0010
0000
0000
0000
0100
0000
1000
0000
,
0100
0001
0100
1000
0100
0001
0010
1000
,
0010
0000
0000
0001
0000
0000
0010
0000
0000
1000
0000
0000
0010
0000
0000
0001
0000
0000
0010
0000
0000
0000
0001
0000
,
0010
0000
0001
0010
0000
0001
0010
0000
0001
1001
0000
0000
,
0000
0000
0000
0110
,
0100
0010
1000
0001
0000
0000
0100
0010
1000
1001
0000
0000
,
0001
1000
0010
0100
0000
0000
0001
1000
0010
0110
0000
0000
,
0100
0010
1000
0001
0000
0000
0100
0010
0100
2002
0000
0000
,
0000
0000
3003
0110
,
0100
0010
1000
0001
1000
0001
0100
0010
1000
1001
0000
0000
,
0001
1000
0010
0100
0010
0100
0001
1000
0010
0110
0000
0000
,
0100
0010
1000
0001
1000
0001
0100
0010
0100
0220
0000
0000
,
0000
0000
0330
1001
;

//--------------- dance-single - ----------------
#NOTES:
     dance-single:
     :
     Hard:
     14:
     0.645908,0.721328,0.18158,0.381319,0.880665,498,478,20,42,4,0,0.645908,0.721328,0.18158,0.381319,0.880665,498,478,20,42,4,0:
0000
0000
0000
0000
,
0000
0000
0000
0000
,
0000
0000
0000
0000
,
0000
0000
0000
0000
,
0000
0000
0000
0000
,
0002
0000
0000
0023
0000
0000
0230
0000
0000
2300
0000
0000
3020
0000
0230
0000
,
0320
0000
0000
2030
0000
0000
3002
0000
0000
0023
0000
0000
0230
0000
0320
0000
,
0230
0000
0000
2300
0000
0000
3020
0000
0000
0230
0000
0000
0302
0000
0023
0000
,
0032
0000
0000
2003
0000
0000
3200
0000
0000
0302
0000
0000
0103
1000
0010
0100
,
0001
0000
0000
0100
0010
0100
0010
0000
0100
0000
0000
0010
1000
0000
0100
0000
,
1000
0000
0000
0100
0010
0100
0010
0000
0100
0000
0000
0010
0001
0000
0000
0000
,
1000
0000
0000
0100
0010
0100
0010
0000
0100
0000
0000
0010
0001
0000
0100
0000
,
0001
0000
0000
0100
0010
0100
0010
0000
0100
0000
0000
0010
1000
0000
0000
0000
,
0100
0001
0100
1000
0100
0001
0100
1000
,
0010
0001
0010
1000
0010
0001
0010
1000
,
0100
0010
0100
0010
0100
0010
0100
0010
0001
0010
0001
0010
0001
0010
0001
0010
,
0011
0110
1100
0110
,
1000
0000
1000
0100
0000
0100
0010
0000
0010
0100
0000
0100
1000
0000
1000
0001
0000
0000
0001
0000
0001
0010
0000
0010
,
0100
0000
0100
0010
0000
0010
0001
0000
0010
0000
0000
0100
0000
0000
1000
0001
0000
0000
1001
0000
0000
0000
0000
0000
,
0010
0000
0010
1000
0000
1000
0001
0000
0001
1000
0000
1000
0010
0000
0010
0100
0000
0000
0100
0000
0100
0001
0000
0001
,
0100
0000
0010
0000
0000
1000
0000
0000
0010
0000
0000
0100
0000
0000
0001
0100
0000
0000
MMMM
0000
0000
0000
0000
0000
,
1000
0000
1000
0100
0000
0100
0010
0000
0010
0100
0000
0100
1000
0000
1000
0001
0000
0000
0001
0000
0001
0010
0000
0010
,
0100
0000
0100
0010
0000
0010
0001
0000
0010
0000
0000
0100
0000
0000
1000
0001
0000
0000
1001
0000
0000
0000
0000
0000
,
0010
0000
0010
1000
0000
1000
0001
0000
0001
1000
0000
1000
0010
0000
0010
0100
0000
0000
0100
0000
0100
0001
0000
0001
,
0100
0000
0000
0000
0010
0000
0000
0000
0000
0000
0000
1000
0000
0000
0000
0000
0100
0000
0000
0000
0000
0000
0010
0000
0000
0000
0000
0000
0000
0000
0000
0000
0000
0000
0000
0000
0001
0000
0000
0000
0000
0000
0000
0000
0000
0100
0000
0000
,
0010
0100
0010
0000
0100
0000
0000
0010
1000
0000
0100
0000
1000
0000
0000
0100
,
0010
0100
0010
0000
0100
0000
0000
0010
0001
0000
0000
0000
1000
0000
0000
0100
,
0010
0100
0010
0000
0100
0000
0000
0010
0001
0000
0100
0000
0001
0000
0000
0100
,
0010
0100
0010
0000
0100
0000
0000
0010
1000
0000
0000
0000
0100
0000
0001
0000
,
0100
1000
0100
0001
0100
1000
0010
0001
,
0010
0000
1000
0000
0010
0000
0001
0000
0010
0000
1000
0000
0100
0010
0100
0010
,
0100
0010
0100
0010
0001
0010
0001
0010
0001
0010
0001
0010
0011
0000
0000
0000
,
0110
0000
0000
0000
1100
0000
0000
0000
0000
0000
0000
0000
1000
0100
1000
0100
,
0010
0001
0010
0001
0010
0100
0010
0100
0010
0000
0000
0000
0001
0010
0001
0010
,
0100
1000
0100
1000
0100
0010
0100
0010
0100
0000
0000
0000
1000
0100
1000
0100
,
0010
0001
0010
0001
0010
0100
0010
0100
0010
0000
0000
0100
0010
0001
1000
0010
,
0100
0000
0000
0001
0010
0000
0100
0000
0010
0000
0000
0000
0001
0100
0001
0100
,
0010
1000
0010
1000
0010
0100
0010
0100
0010
0000
0000
0000
1000
0010
1000
0010
,
0100
0001
0100
0001
0100
0010
0100
0010
0100
0000
0000
0000
0001
0100
0001
0100
,
0010
1000
0010
1000
0010
0100
0010
0100
0010
0000
0000
0100
0010
1000
0001
0010
,
0100
0000
0000
1000
0010
0000
0100
0000
0010
0000
0000
0000
2000
0000
0000
3020
,
0000
0000
0230
0000
0000
0302
0000
0000
0013
0000
0100
0000
0020
0000
0000
0032
,
0000
0000
2003
0000
0000
3020
0000
0000
0130
0000
0010
0000
0200
0000
0000
0302
,
0000
0000
0023
0000
0000
0230
0000
0000
1300
0000
0010
0000
2000
0000
0000
3002
,
0000
0000
0203
0000
0000
2300
0000
0000
3100
0000
0010
0000
1000
0000
0100
0000
,
0001
0100
1000
0100
0001
0100
1000
0010
,
0001
0000
0000
0010
0000
0000
1000
0000
0000
0010
0000
0000
0001
0000
0000
0010
0000
0000
1000
0000
0010
0000
0100
0000
,
0001
0010
0100
1000
0100
0010
0001
0100
0010
0110
0000
0000
,
0000
0000
0000
0110
,
0010
0100
0001
0010
0100
1000
0010
0100
0010
1001
0000
0000
,
0001
0100
0010
1000
0100
0010
0001
1000
0001
0110
0000
0000
,
0010
0001
0100
0010
1000
0100
0010
0100
0010
0220
0000
0000
,
0000
0000
0330
0110
,
1000
0000
0010
0000
0100
0000
0001
0000
0010
0100
0010
0000
1000
0000
0010
0100
0010
0000
0110
0000
0000
0000
0000
0000
,
0001
0000
0100
0000
0010
0000
1000
0000
0100
0010
0100
0000
0001
0000
0100
0010
0100
0000
0110
0000
0000
0000
0000
0000
,
1000
0000
0000
0000
0000
0000
0000
0000
0000
0000
0000
0000
0000
0000
0000
0000
0010
0000
0000
0000
0000
0000
0000
0000
0000
0000
0000
0000
0000
0000
0000
0000
0100
0000
0000
0000
0000
0000
0000
0000
0000
0000
0000
0000
0000
0000
0000
0000
0001
0000
0000
0000
0000
0000
0000
0000
0000
0000
0000
0000
0000
0000
0000
0000
0010
0000
0000
0000
0000
0000
0000
0000
0100
0000
0000
0000
0000
0000
0000
0000
0010
0000
0000
0000
0000
0000
0000
0000
0000
0000
0000
0000
0000
0000
0000
0000
1000
0000
0000
0000
0000
0000
0000
0000
0000
0000
0000
0000
0000
0000
0000
0000
0010
0000
0000
0000
0000
0000
0000
0000
0100
0000
0000
0000
0000
0000
0000
0000
0010
0000
0000
0000
0000
0000
0000
0000
0000
0000
0000
0000
0000
0000
0000
0000
0110
0220
0000
0000
0000
0000
0000
0000
0000
0000
0000
0000
0000
0000
0000
0000
0000
0000
0000
0000
0000
0000
0000
0000
0000
0000
0000
0000
0000
0000
0000
0000
0000
0000
0000
0000
0000
0000
0000
0000
0000
0000
0000
0000
0000
0000
0000
0000
,
0000
0000
0330
1001
;
